16
мар
2011

Emerson, Lake Palmer - 8 albums [1970 - 78, Progressive Rock, Art Rock, APE]

Emerson, Lake Palmer - 8 albums

Формат: APE, (image + .cue), lossless
Год выпуска: 1970 - 78
Страна: England
Жанр: Progressive Rock, Art Rock
Продолжительность: 06:17:49
Описание:

1970 - Emerson, Lake & Palmer (Remastered 1993 Victory 828 464-2, UK) 0
Emerson, Lake Palmer - 8 albums

1. The Barbarian
2. Take A Pebble
3. Knife-Edge
4. The Three Fates
5. Tank
6. Lucky Man

1971 - Tarkus (Remastered 1993 Victory 828 465-2, UK) 0
Emerson, Lake Palmer - 8 albums
1. Tarkus
a.Eruption
b Stones Of Years
c. Iconoclast
d. Mass
e. Manticore
f. The Battlefield
g. Aquatarkus
2. Jeremy Bender
3. Bitches Crystal
4. The Only Way (Hymn)
5. Infinite Space (Conclusion)
6. A Time And A Place
7. Are You Ready Eddy?

1972 - Pictures At An Exhibition (Remastered 1993 Victory 828 466-2, UK) 0
Emerson, Lake Palmer - 8 albums

01. Promenade
02. The Gnome
03. Promenade
04. The Sage
05. The Old Castle
06. Blues Variations
07. Promenade
08. The Hut of Baba Yaga
09. The Curse of Baba Yaga
10. The Hut of Baba Yaga
11. The Great Gates of Kiev
12. Nutrocker

1972 - Trilogy (Remastered 1993 Victory 828 467-2, UK) 0
Emerson, Lake Palmer - 8 albums

1. The Endless Enigma, Part One
2. Fugue
3. The Endless Enigma, Part Two
4. From the Beginning
5. The Sheriff
6. Hoedown (Taken From Rodeo)
7. Trilogy
8. Living Sin
9. Abaddon's Bolero

1973 - Brain Salad Surgery (Remastered 1993 Victory 383 480 020-2, US) 0
Emerson, Lake Palmer - 8 albums

1. Jerusalem
2. Toccata
3. Still.... You Turn Me On
4. Benny The Bouncer
5. Karn Evil 9
a. 1st Impression Part 1
b.1st Impression, Part 2
c. 2nd Impression
d. 3rd Impression

1977 - Works Volume 1 (Remastered 1996 Essential ESD CD 360, UK 2CD) 01
Emerson, Lake Palmer - 8 albums
CD-1 41:05

1. Keith Emerson / Piano Concerto No. 1
2. Greg Lake / Lend Your Love To Me Tonight
3. Greg Lake / C'est La Vie
4. Greg Lake / Hallowed Be Thy Name
5. Greg Lake / Nobody Loves You Like I Do
6. Greg Lake / Closer To Believing


CD-2 46:14

1. Carl Palmer / The Enemy God Dances With The Black Spirits
2. Carl Palmer / L.A. Nights
3. Carl Palmer / New Orleans
4. Carl Palmer / Two Part Invention In D Minor
5. Carl Palmer / Food For Your Soul
6. Carl Palmer / Tank
7. ELP / Fanfare For The Common Man
8. ELP / Pirates

1977 - Works Volume 2 (Remastered 1996 Essential ESM CD 361, UK) 0
Emerson, Lake Palmer - 8 albums

01. Tiger In A Spotlight
02. When The Apple Blossoms Bloom In The Windmills Of Your Mind I'll Be Your Valentine
03. Bullfrog
04. Brain Salad Surgery
05. Barrelhouse Shakedown
06. Watching Over You
07. So Far To Fall
08. Maple Leaf Rag
09. I Believe In Father Christmas
10. Close But Not Touching
11. Honky Tonk Train Blues
12. Show Me The Way To Go Home

1978 - Love Beach (Remastered 1996 Essential ESM CD 363, UK) 0
Emerson, Lake Palmer - 8 albums

1. All I Want Is You
2. Love Beach
3. Taste Of My Love
4. The Gambler
5. For You
6. Canario (From Fantasia Para Un Gentilhombre)
7. Memoirs Of An Officer And A Gentleman
a. Prologue / The Education of a Gentleman
b. Love at First Sight
c. Letters from the Front
d. Honourable Company (A March)

Доп. информация:
Log EAC
Emerson, Lake & Palmer
Exact Audio Copy V0.99 prebeta 5 from 4. May 2009

EAC extraction logfile from 10. March 2011, 9:15

Emerson, Lake & Palmer / Emerson, Lake & Palmer

Used drive : TSSTcorpCDDVDW SH-S203B Adapter: 2 ID: 0

Read mode : Secure
Utilize accurate stream : Yes
Defeat audio cache : Yes
Make use of C2 pointers : No

Read offset correction : 6
Overread into Lead-In and Lead-Out : No
Fill up missing offset samples with silence : Yes
Delete leading and trailing silent blocks : No
Null samples used in CRC calculations : Yes
Used interface : Native Win32 interface for Win NT & 2000

Used output format : Internal WAV Routines
Sample format : 44.100 Hz; 16 Bit; Stereo

TOC of the extracted CD

Track | Start | Length | Start sector | End sector
---------------------------------------------------------
1 | 0:00.33 | 4:31.40 | 33 | 20397
2 | 4:31.73 | 12:31.50 | 20398 | 76772
3 | 17:03.48 | 5:09.27 | 76773 | 99974
4 | 22:13.00 | 7:43.25 | 99975 | 134724
5 | 29:56.25 | 6:51.45 | 134725 | 165594
6 | 36:47.70 | 4:37.55 | 165595 | 186424

Range status and errors

Selected range

Filename C:IncomingEmerson, Lake & Palmer1970-Emerson, Lake & PalmerEmerson, Lake & Palmer - Emerson, Lake & Palmer.wav

Peak level 100.0 %
Range quality 100.0 %
Test CRC 53DF27CE
Copy CRC 53DF27CE
Copy OK

No errors occurred

AccurateRip summary

Track 1 accurately ripped (confidence 23) [191A16A6]
Track 2 accurately ripped (confidence 23) [D122B6E5]
Track 3 accurately ripped (confidence 23) [91E07EE8]
Track 4 accurately ripped (confidence 23) [E8913D24]
Track 5 accurately ripped (confidence 23)
Track 6 accurately ripped (confidence 22)

All tracks accurately ripped

End of status report

Tarkus
Exact Audio Copy V0.99 prebeta 5 from 4. May 2009

EAC extraction logfile from 10. March 2011, 9:46

Emerson, Lake & Palmer / Tarkus

Used drive : TSSTcorpCDDVDW SH-S203B Adapter: 2 ID: 0

Read mode : Secure
Utilize accurate stream : Yes
Defeat audio cache : Yes
Make use of C2 pointers : No

Read offset correction : 6
Overread into Lead-In and Lead-Out : No
Fill up missing offset samples with silence : Yes
Delete leading and trailing silent blocks : No
Null samples used in CRC calculations : Yes
Used interface : Native Win32 interface for Win NT & 2000

Used output format : Internal WAV Routines
Sample format : 44.100 Hz; 16 Bit; Stereo

TOC of the extracted CD

Track | Start | Length | Start sector | End sector
---------------------------------------------------------
1 | 0:00.32 | 20:42.18 | 32 | 93199
2 | 20:42.50 | 1:50.20 | 93200 | 101469
3 | 22:32.70 | 3:58.10 | 101470 | 119329
4 | 26:31.05 | 3:48.40 | 119330 | 136469
5 | 30:19.45 | 3:20.62 | 136470 | 151531
6 | 33:40.32 | 3:01.55 | 151532 | 165161
7 | 36:42.12 | 2:10.40 | 165162 | 174951

Range status and errors

Selected range

Filename C:IncomingEmerson, Lake & Palmer1971-TarkusEmerson, Lake & Palmer - Tarkus.wav

Peak level 100.0 %
Range quality 100.0 %
Test CRC 58DC14D0
Copy CRC 58DC14D0
Copy OK

No errors occurred

AccurateRip summary

Track 1 accurately ripped (confidence 10) [2A85DEE0]
Track 2 accurately ripped (confidence 11) [4A943360]
Track 3 accurately ripped (confidence 11) [0937FC0D]
Track 4 accurately ripped (confidence 12) [64E56B85]
Track 5 accurately ripped (confidence 11) [F2D5747C]
Track 6 accurately ripped (confidence 12) [17141261]
Track 7 accurately ripped (confidence 11) [E900CFFD]

All tracks accurately ripped

End of status report

Pictures At An Exhibition
Exact Audio Copy V0.99 prebeta 5 from 4. May 2009

EAC extraction logfile from 10. March 2011, 10:27

Emerson, Lake & Palmer / Pictures At An Exhibition

Used drive : TSSTcorpCDDVDW SH-S203B Adapter: 2 ID: 0

Read mode : Secure
Utilize accurate stream : Yes
Defeat audio cache : Yes
Make use of C2 pointers : No

Read offset correction : 6
Overread into Lead-In and Lead-Out : No
Fill up missing offset samples with silence : Yes
Delete leading and trailing silent blocks : No
Null samples used in CRC calculations : Yes
Used interface : Native Win32 interface for Win NT & 2000

Used output format : Internal WAV Routines
Sample format : 44.100 Hz; 16 Bit; Stereo

TOC of the extracted CD

Track | Start | Length | Start sector | End sector
---------------------------------------------------------
1 | 0:00.33 | 1:56.55 | 33 | 8787
2 | 1:57.13 | 4:16.37 | 8788 | 28024
3 | 6:13.50 | 1:23.03 | 28025 | 34252
4 | 7:36.53 | 4:40.50 | 34253 | 55302
5 | 12:17.28 | 2:31.30 | 55303 | 66657
6 | 14:48.58 | 4:14.22 | 66658 | 85729
7 | 19:03.05 | 1:28.28 | 85730 | 92357
8 | 20:31.33 | 1:12.32 | 92358 | 97789
9 | 21:43.65 | 4:09.10 | 97790 | 116474
10 | 25:53.00 | 1:06.40 | 116475 | 121464
11 | 26:59.40 | 6:27.00 | 121465 | 150489
12 | 33:26.40 | 4:33.00 | 150490 | 170964

Range status and errors

Selected range

Filename C:IncomingEmerson, Lake & Palmer1972-Pictures At An ExhibitionEmerson, Lake & Palmer - Pictures At An Exhibition.wav

Peak level 100.0 %
Range quality 100.0 %
Test CRC 1370C3FA
Copy CRC 1370C3FA
Copy OK

No errors occurred

AccurateRip summary

Track 1 accurately ripped (confidence 32) [E33D133A]
Track 2 accurately ripped (confidence 31) [9F514F66]
Track 3 accurately ripped (confidence 32) [F4B413E3]
Track 4 accurately ripped (confidence 31) [4F155B57]
Track 5 accurately ripped (confidence 31) [AB7D5FBA]
Track 6 accurately ripped (confidence 30) [87749370]
Track 7 accurately ripped (confidence 32) [47992B1D]
Track 8 accurately ripped (confidence 31)
Track 9 accurately ripped (confidence 31) [51201B44]
Track 10 accurately ripped (confidence 31) [2881EC8C]
Track 11 accurately ripped (confidence 31) [4F64F3FB]
Track 12 accurately ripped (confidence 31) [86C3D86A]

All tracks accurately ripped

End of status report

Trilogy
Exact Audio Copy V0.99 prebeta 5 from 4. May 2009

EAC extraction logfile from 10. March 2011, 16:24

Emerson, Lake & Palmer / Trilogy

Used drive : TSSTcorpCDDVDW SH-S203B Adapter: 2 ID: 0

Read mode : Secure
Utilize accurate stream : Yes
Defeat audio cache : Yes
Make use of C2 pointers : No

Read offset correction : 6
Overread into Lead-In and Lead-Out : No
Fill up missing offset samples with silence : Yes
Delete leading and trailing silent blocks : No
Null samples used in CRC calculations : Yes
Used interface : Native Win32 interface for Win NT & 2000

Used output format : Internal WAV Routines
Sample format : 44.100 Hz; 16 Bit; Stereo

TOC of the extracted CD

Track | Start | Length | Start sector | End sector
---------------------------------------------------------
1 | 0:00.32 | 6:41.10 | 32 | 30116
2 | 6:41.42 | 1:56.68 | 30117 | 38884
3 | 8:38.35 | 2:03.15 | 38885 | 48124
4 | 10:41.50 | 4:16.15 | 48125 | 67339
5 | 14:57.65 | 3:22.32 | 67340 | 82521
6 | 18:20.22 | 3:47.05 | 82522 | 99551
7 | 22:07.27 | 8:54.50 | 99552 | 139651
8 | 31:02.02 | 3:13.43 | 139652 | 154169
9 | 34:15.45 | 8:07.52 | 154170 | 190746

Range status and errors

Selected range

Filename C:IncomingEmerson, Lake & Palmer1972-TrilogyEmerson, Lake & Palmer - Trilogy.wav

Peak level 99.9 %
Range quality 99.9 %
Test CRC C93DC9BE
Copy CRC C93DC9BE
Copy OK

No errors occurred

AccurateRip summary

Track 1 accurately ripped (confidence 11) [3CD57B77]
Track 2 accurately ripped (confidence 11) [855F011D]
Track 3 accurately ripped (confidence 11) [00CADC3B]
Track 4 accurately ripped (confidence 11)
Track 5 accurately ripped (confidence 11) [14021B8E]
Track 6 accurately ripped (confidence 11) [943E7DAA]
Track 7 accurately ripped (confidence 10) [A94206E2]
Track 8 accurately ripped (confidence 11) [2EDF2275]
Track 9 accurately ripped (confidence 9) [C3976B24]

All tracks accurately ripped

End of status report

Brain Salad Surgery
Exact Audio Copy V0.99 prebeta 5 from 4. May 2009

EAC extraction logfile from 10. March 2011, 16:51

Emerson, Lake & Palmer / Brain Salad Surgery

Used drive : TSSTcorpCDDVDW SH-S203B Adapter: 2 ID: 0

Read mode : Secure
Utilize accurate stream : Yes
Defeat audio cache : Yes
Make use of C2 pointers : No

Read offset correction : 6
Overread into Lead-In and Lead-Out : No
Fill up missing offset samples with silence : Yes
Delete leading and trailing silent blocks : No
Null samples used in CRC calculations : Yes
Used interface : Native Win32 interface for Win NT & 2000

Used output format : Internal WAV Routines
Sample format : 44.100 Hz; 16 Bit; Stereo

TOC of the extracted CD

Track | Start | Length | Start sector | End sector
---------------------------------------------------------
1 | 0:00.37 | 2:45.13 | 37 | 12424
2 | 2:45.50 | 7:22.67 | 12425 | 45641
3 | 10:08.42 | 2:53.08 | 45642 | 58624
4 | 13:01.50 | 2:21.27 | 58625 | 69226
5 | 15:23.02 | 29:39.28 | 69227 | 202679

Range status and errors

Selected range

Filename C:IncomingEmerson, Lake & Palmer1973-Brain Salad SurgeryEmerson, Lake & Palmer - Brain Salad Surgery.wav

Peak level 100.0 %
Range quality 100.0 %
Test CRC 03070143
Copy CRC 03070143
Copy OK

No errors occurred

AccurateRip summary

Track 1 accurately ripped (confidence 39) [A34135E3]
Track 2 accurately ripped (confidence 39) [7739040B]
Track 3 accurately ripped (confidence 38) [DEEFD599]
Track 4 accurately ripped (confidence 39) [7964DAC7]
Track 5 accurately ripped (confidence 35) [420F2B9E]

All tracks accurately ripped

End of status report

Works Volume 1
CD 1

Exact Audio Copy V0.99 prebeta 5 from 4. May 2009

EAC extraction logfile from 11. March 2011, 11:04

Emerson, Lake & Palmer / Works Volume 1 - Disc 1 of 2

Used drive : TSSTcorpCDDVDW SH-S203B Adapter: 2 ID: 0

Read mode : Secure
Utilize accurate stream : Yes
Defeat audio cache : Yes
Make use of C2 pointers : No

Read offset correction : 6
Overread into Lead-In and Lead-Out : No
Fill up missing offset samples with silence : Yes
Delete leading and trailing silent blocks : No
Null samples used in CRC calculations : Yes
Used interface : Native Win32 interface for Win NT & 2000

Used output format : Internal WAV Routines
Sample format : 44.100 Hz; 16 Bit; Stereo

TOC of the extracted CD

Track | Start | Length | Start sector | End sector
---------------------------------------------------------
1 | 0:00.32 | 18:27.73 | 32 | 83129
2 | 18:28.30 | 4:05.07 | 83130 | 101511
3 | 22:33.37 | 4:20.18 | 101512 | 121029
4 | 26:53.55 | 4:37.22 | 121030 | 141826
5 | 31:31.02 | 4:00.13 | 141827 | 159839
6 | 35:31.15 | 5:33.60 | 159840 | 184874

Range status and errors

Selected range

Filename C:IncomingEmerson, Lake & Palmer1977-Works Volume 1Emerson, Lake & Palmer - Works Volume 1 - Disc 1 of 2.wav

Peak level 100.0 %
Range quality 100.0 %
Copy CRC 4C2224DD
Copy OK

No errors occurred

AccurateRip summary

Track 1 accurately ripped (confidence 2) [6FED4A09]
Track 2 accurately ripped (confidence 3) [17C76DDD]
Track 3 accurately ripped (confidence 3) [E379A2FB]
Track 4 accurately ripped (confidence 3) [44E598FD]
Track 5 accurately ripped (confidence 3) [A0817A98]
Track 6 accurately ripped (confidence 3) [F87331AE]

All tracks accurately ripped

End of status report


CD 2

Exact Audio Copy V0.99 prebeta 5 from 4. May 2009

EAC extraction logfile from 11. March 2011, 10:54

Emerson, Lake & Palmer / Works Volume 1 - Disc 2 of 2

Used drive : TSSTcorpCDDVDW SH-S203B Adapter: 2 ID: 0

Read mode : Secure
Utilize accurate stream : Yes
Defeat audio cache : Yes
Make use of C2 pointers : No

Read offset correction : 6
Overread into Lead-In and Lead-Out : No
Fill up missing offset samples with silence : Yes
Delete leading and trailing silent blocks : No
Null samples used in CRC calculations : Yes
Used interface : Native Win32 interface for Win NT & 2000

Used output format : Internal WAV Routines
Sample format : 44.100 Hz; 16 Bit; Stereo

TOC of the extracted CD

Track | Start | Length | Start sector | End sector
---------------------------------------------------------
1 | 0:00.32 | 3:20.73 | 32 | 15104
2 | 3:21.30 | 5:46.50 | 15105 | 41104
3 | 9:08.05 | 2:50.05 | 41105 | 53859
4 | 11:58.10 | 1:57.72 | 53860 | 62706
5 | 13:56.07 | 4:02.28 | 62707 | 80884
6 | 17:58.35 | 5:11.40 | 80885 | 104249
7 | 23:10.00 | 9:45.40 | 104250 | 148164
8 | 32:55.40 | 13:18.12 | 148165 | 208026

Range status and errors

Selected range

Filename C:IncomingEmerson, Lake & Palmer1977-Works Volume 1Emerson, Lake & Palmer - Works Volume 1 - Disc 2 of 2.wav

Peak level 100.0 %
Range quality 100.0 %
Copy CRC 5382CFE8
Copy OK

No errors occurred

AccurateRip summary

Track 1 cannot be verified as accurate (confidence 4) , AccurateRip returned [4FEE960B]
Track 2 cannot be verified as accurate (confidence 4) [18B7FEBB], AccurateRip returned [059026AD]
Track 3 cannot be verified as accurate (confidence 4) [D4D6793B], AccurateRip returned [5F2E2692]
Track 4 cannot be verified as accurate (confidence 4) [D364C06F], AccurateRip returned [6F99AC2F]
Track 5 cannot be verified as accurate (confidence 4) , AccurateRip returned [E3DCFA9E]
Track 6 cannot be verified as accurate (confidence 4) [CD3FFADB], AccurateRip returned [691FEDDB]
Track 7 cannot be verified as accurate (confidence 4) [C809602B], AccurateRip returned [0B1B006B]
Track 8 cannot be verified as accurate (confidence 4) [AD27EAD2], AccurateRip returned [7973A81A]

No tracks could be verified as accurate
You may have a different pressing from the one(s) in the database

End of status report

Works Volume 2
Exact Audio Copy V0.99 prebeta 5 from 4. May 2009

EAC extraction logfile from 11. March 2011, 10:20

Emerson, Lake & Palmer / Works Volume 2

Used drive : TSSTcorpCDDVDW SH-S203B Adapter: 2 ID: 0

Read mode : Secure
Utilize accurate stream : Yes
Defeat audio cache : Yes
Make use of C2 pointers : No

Read offset correction : 6
Overread into Lead-In and Lead-Out : No
Fill up missing offset samples with silence : Yes
Delete leading and trailing silent blocks : No
Null samples used in CRC calculations : Yes
Used interface : Native Win32 interface for Win NT & 2000

Used output format : Internal WAV Routines
Sample format : 44.100 Hz; 16 Bit; Stereo

TOC of the extracted CD

Track | Start | Length | Start sector | End sector
---------------------------------------------------------
1 | 0:00.32 | 4:35.18 | 32 | 20674
2 | 4:35.50 | 3:58.62 | 20675 | 38586
3 | 8:34.37 | 3:52.23 | 38587 | 56009
4 | 12:26.60 | 3:09.67 | 56010 | 70251
5 | 15:36.52 | 3:52.00 | 70252 | 87651
6 | 19:28.52 | 3:57.55 | 87652 | 105481
7 | 23:26.32 | 4:57.10 | 105482 | 127766
8 | 28:23.42 | 2:02.55 | 127767 | 136971
9 | 30:26.22 | 3:20.13 | 136972 | 151984
10 | 33:46.35 | 3:21.60 | 151985 | 167119
11 | 37:08.20 | 3:11.32 | 167120 | 181476
12 | 40:19.52 | 3:30.60 | 181477 | 197286

Range status and errors

Selected range

Filename C:IncomingEmerson, Lake & Palmer1977-Works Volume 2Emerson, Lake & Palmer - Works Volume 2.wav

Peak level 100.0 %
Range quality 100.0 %
Test CRC 8FEF4C41
Copy CRC 8FEF4C41
Copy OK

No errors occurred

AccurateRip summary

Track 1 accurately ripped (confidence 3) [2B25EF27]
Track 2 accurately ripped (confidence 4) [772BB143]
Track 3 accurately ripped (confidence 4) [A37B9E0D]
Track 4 accurately ripped (confidence 4) [BEC8C44C]
Track 5 accurately ripped (confidence 4) [CA548CA5]
Track 6 accurately ripped (confidence 4) [A412DC46]
Track 7 accurately ripped (confidence 4) [EA5B4D30]
Track 8 accurately ripped (confidence 4) [8EA4582B]
Track 9 accurately ripped (confidence 4) [D18CA06F]
Track 10 accurately ripped (confidence 4) [00793767]
Track 11 accurately ripped (confidence 4) [43D016E5]
Track 12 accurately ripped (confidence 3) [0974D877]

All tracks accurately ripped

End of status report

Love Beach
Exact Audio Copy V0.99 prebeta 5 from 4. May 2009

EAC extraction logfile from 11. March 2011, 9:40

Emerson, Lake & Palmer / Love Beach

Used drive : TSSTcorpCDDVDW SH-S203B Adapter: 2 ID: 0

Read mode : Secure
Utilize accurate stream : Yes
Defeat audio cache : Yes
Make use of C2 pointers : No

Read offset correction : 6
Overread into Lead-In and Lead-Out : No
Fill up missing offset samples with silence : Yes
Delete leading and trailing silent blocks : No
Null samples used in CRC calculations : Yes
Used interface : Native Win32 interface for Win NT & 2000

Used output format : Internal WAV Routines
Sample format : 44.100 Hz; 16 Bit; Stereo

TOC of the extracted CD

Track | Start | Length | Start sector | End sector
---------------------------------------------------------
1 | 0:00.32 | 2:35.25 | 32 | 11681
2 | 2:35.57 | 2:46.10 | 11682 | 24141
3 | 5:21.67 | 3:32.58 | 24142 | 40099
4 | 8:54.50 | 3:22.65 | 40100 | 55314
5 | 12:17.40 | 4:27.45 | 55315 | 75384
6 | 16:45.10 | 4:00.30 | 75385 | 93414
7 | 20:45.40 | 20:15.22 | 93415 | 184561

Range status and errors

Selected range

Filename C:IncomingEmerson, Lake & Palmer1978-Love BeachEmerson, Lake & Palmer - Love Beach.wav

Peak level 99.4 %
Range quality 100.0 %
Test CRC C69278AC
Copy CRC C69278AC
Copy OK

No errors occurred

AccurateRip summary

Track 1 accurately ripped (confidence 8) [F6FFD046]
Track 2 accurately ripped (confidence 8) [667C9B37]
Track 3 accurately ripped (confidence 8) [AB13E58B]
Track 4 accurately ripped (confidence 8) [919D870D]
Track 5 accurately ripped (confidence 8) [37C47091]
Track 6 accurately ripped (confidence 8) [CD41CC33]
Track 7 accurately ripped (confidence 8) [6FCFB163]

All tracks accurately ripped

End of status report
Музыка / Lossless / Разное
СКАЧАТЬ БЕСПЛАТНО  [2.2 GB]


10
дек
2017

Emerson, Lake Palmer The Best Of Emerson Lake Palmer [24 bit 96 khz] [1980, Rock, Experimental, Prog Rock, Symphonic Rock, FLAC]

Формат: FLAC, tracks, lossless
Год выпуска: 1980
Страна: UK
Жанр: Rock, Experimental, Prog Rock, Symphonic Rock
Продолжительность: 00:39:03
Описание: A1. Hoedown A2. Lucky Man A3. Karn Evil 9 (1st. Impression Part 2) A4. Jerusalem A5. Peter Gunn B1. Fanfare For The Common Man B2. Still....You Turn Me On B3. Tiger In A Spotlight B4. Trilogy
Доп. информация: Logfoobar2000 1.1.10 / Dynamic Range Meter 1.1.1 log date: 2017-12-10 19:17:00 -------------------------------------------------------------------------------- Analyzed: ? / ? ------------------------------------------------------------- ...

16
окт
2012

Emerson, Lake & Palmer - 10 Albums [1970-94, Progressive, Art-Rock, FLAC]

Формат: FLAC, (image + .cue), lossless
Год выпуска: 1970-94
Страна: UK
Жанр: Progressive, Art-Rock
Продолжительность: 09:37:29
Описание: 1970 Emerson, Lake & Palmer 41 1. The Barbarian 2. Take a Pebble 3. Knife Edge 4. The Three Fates I. Clotho II. Lachesis III. Atropos 5. Tank 6. Lucky Man EACExact Audio Copy V1.0 beta 3 from 29. August 2011 EAC extraction logfile from 10. October 2012, 21:33 Emerson, Lake & Palmer / Emerson, Lake & Palmer (2011, Sony Music. 88697830072) Used drive : Optiarc DVD RW AD-5200S Adapter: 2 ID: 0 Read mode : Secure Utilize accurate stream : Yes Defeat audio ca ...

25
фев
2015

Emerson Lake Palmer - 12 Albums (Mini LP SHM-CD Japan) [2014/2015, Progressive Rock, Symphonic Rock, FLAC]

Формат: FLAC, (image + .cue), lossless
Год выпуска: 2014/2015
Страна: UK
Жанр: Progressive Rock, Symphonic Rock
Продолжительность: 12:29:09
Описание: 1970 Emerson, Lake & Palmer 00 1. The Barbarian 04:34 2. Take A Pebble 12:38 3. Knife-Edge 05:10 4. The Three Fates 07:47 a) Clotho (Royal Festival Hall Organ) b) Lachesis (Piano Solo) c) Atropos (Piano Trio) 5. Tank 06:53 6. Lucky Man 04:43 Bonus Tracks: 07. The Barbarian (Live At The Isle Of Wight Festival) 05:08 08. Take A Pebble (Live At The Isle Of Wight Festival) 11:53 eacExact Audio Copy V1.0 beta 3 from 29. August 2011 EAC extraction log ...

26
мая
2015

Emerson, Lake Palmer - Trilogy [2015, Rock, Progressive Rock, FLAC]

Формат: FLAC, (image + .cue), lossless
Год выпуска: 2015
Страна: UK
Жанр: Rock, Progressive Rock
Продолжительность: 01:29:05
Описание: CD -1 Original Trilogy 00:42:12 1. The Endless Enigma (Part One) 2. Fugue 3. The Endless Enigma (Part Two) 4. From The Beginning 5. The Sheriff 6. Hoedown 7. Trilogy 8. Living Sun 9. Abaddon's Bolero CD -2 New Stereo Trilogy 00:46:53 01. From The Beginning (Alternate Version) 02. The Endless Enigma (Part One) 03. Fugue 04. The Endless Enigma (Part Two) 05. From The Beginning 06. The Sheriff 07. Hoedown 08. Trilogy 09. Living Sun 10. Abaddon's Bolero Доп. ...

25
апр
2015

Emerson, Lake Palmer - Tarkus [1996, Progressive Rock, ALAC]

Формат: ALAC, (tracks + .cue), lossless
Год выпуска: 1996
Страна: UK
Жанр: Progressive Rock
Продолжительность: 00:38:53
Описание: 01. Tarkus 02. Jeremy Bender 03. Bitches Crystal 04. The Only Way (Hymn) 05. Infinite Space (Conclusion) 06. A Time And A Place 07. Are You Ready Eddy?
Доп. информация: EACCUERipper v2.1.4 Copyright (C) 2008-12 Grigory Chudov EAC extraction logfile from 25. April 2015, 13:42 Emerson, Lake & Palmer / Tarkus Used drive : Optiarc DVD RW AD-7260S Adapter: 1 ID: 0 Read mode : Secure Utilize accurate stream : Yes Defeat audio cache : Yes Make use of C2 pointers : No ...

26
дек
2010

Emerson Lake Palmer - Beyond The Beginning [2005, Progressive rock, Symphonic rock, 2хDVD9]

Формат: 2хDVD9, DVD Video, MPEG2, AC3
Жанр: Progressive rock, Symphonic rock
Продолжительность: 04:12:58
Год выпуска: 2005 DVD 1
Видео: 720 x 576 (PAL 4:3) at 25.000 fps, MPEG-2 Video, 8629 Kbps, 0.832 bit/pixel
Аудио: Dolby AC3, 2 ch, 192 Kbps, 48 kHz DVD 2
Видео: 720 x 576 (PAL 4:3) at 25.000 fps, MPEG-2 Video, 7304 Kbps, 0.658 bit/pixel
Аудио: Dolby AC3, 2 ch, 192 Kbps, 48 kHz
Доп. информация:
Релиз группы: ТреклистDVD -1 02:27:45 01. Take A Pebble 02. Knife Edge 03. Rondo / Pictures At An Exhibition 04. Rondo 05. Tarkus - Eruption 06. Hoedown 07. Tank 08. Lucky Man 09. Karn Ev ...

08
окт
2010

Emerson, Lake Palmer - Pictures At An Exhibition (Special edition) [2010, Rock, DVD9]

Формат: DVD9, DVD Video, MPEG2, PCM
Жанр: Rock
Продолжительность: 02:23:00
Год выпуска: 2010
Видео: 720x480 (NTSC 4:3) at 29.970 fps, MPEG2 Video 6267 Kbps 0.605 bit/pixel
Аудио: LinearPCM, 2 ch 1536 Kbps, 48.0 KHz
Треклист: 01. Promenade 02. The Gnome 03. Promenade 04. The sage 05. The Old Castle 06. Blues Variation 07. Promenade 08. The Hut Of Baba Yaga 09. The Curse Of Baba Yaga 10. The Hut Of Baba Yaga 11.The Great Gates Of Kiev 12. Take A Pebble 13. Knife Edge 14. Rondo BONUS: 01. Interview 02. Rondo 03. Nutrocker 04. Take A Pebble 05. Knife Edge 06. Blues Jam/Nutrocker Релиз груп ...

15
апр
2012

Emerson, Lake & Palmer - Masters From The Vaults [2004, Progressive Rock, DVD5]

Формат: DVD5, DVD Video, MPEG2, AC3
Песня: Masters From The Vaults
Жанр: Progressive Rock
Продолжительность: 00:56:38
Год выпуска: 2004
Видео: 720 x 576 (PAL 4:3), 25.000 fps, MPEG2 Video, 5908 Kbps 0.570 bit/pixel
Аудио: 48,0 КHz, AC-3, 2 ch, 192 Kbps
Доп. информация:
Треклист: 1 Barbarian 2 Rondo/Bach Improisations 3 Drum Solo 4 Nut Rocker 5 Take A Pebble 6 Knife Edge Mediainfo...Полное имя : D:Мои раздачиemerson_lake_palmer_masters_from_the_vaults_[tfile.ru]VIDEO_TSVTS_01_1.VOB Формат : MPEG-PS Размер файла : 1024 Мбайт Продолжительность : 22 м. Режим общего битрейта : Переменный Общий по ...

04
мар
2007

Emerson, Lake Palmer. Pictures At An Exhibit [1996, Классический Рок, DVDRip]

Страна: Великобритания
Жанр: Классический Рок
Продолжительность: 00:42:50
Год выпуска: 1996
Перевод: Отсутствует
В ролях: Кэйт Эмерсон, Грег Лэйк, Карл Палмер
Описание: Легендарный концерт группы "Эмерсон, Лэйк и Палмер "Pictures At An Exhibition" состоявшийся в The Lyceum Theatre 9го декабря 1970г. Неожиданная, по тем временам, трактовка музыки Мусоргского, которая не устарела и по сей день.
Доп. информация: Tracks: Promenade Gnome Promenade The Sage The Old Castle Blues Variation Promenade The Hut Of Baba Yaga The Curse Of Baba Yaga The Great Gates Of Kiev
Качество: DVDRip
Формат: MPEG Видео ...

25
мая
2017

Emerson, Lake Palmer - The Anthology (3СD) [2016, Progressive Rock, Symphonic Prog, MP3]

Формат: MP3, tracks, 320kbps
Год выпуска: 2016
Страна: UK
Жанр: Progressive Rock, Symphonic Prog
Продолжительность: 03:40:57
Описание:
ТреклистCD1: (01:08:20) 01. The Barbarian (2012 - Remaster) [04:30] 02. Take a Pebble (2012 - Remaster) [12:31] 03. Knife-Edge (2012 - Remaster) [05:04] 04. Lucky Man (2012 - Remaster) [04:35] 05. Tank (2012 - Remaster) [06:48] 06. Tarkus [2012 - Remaster] [20:38] (i. Eruption, ii. Stones of Years, iii. Iconoclast, iv. Mass, v. Manticore, vi. Battlefield, vii. Aquatarkus) 07. Bitches Crystal (2012 - Remaster) [03:58] 08. The Only Way (Hymn) [2012 - Remaster] [0 ...

02
мар
2016

Emerson, Lake Palmer - Pictures At An Exhibition [2010, Rock, DVDRip]

Формат: DVDRip, AVI, XviD, MP3
Песня: Pictures At An Exhibition
Жанр: Rock
Продолжительность: 00:41:51
Год выпуска: 2010
Видео: 720x480 (1.50:1), 29.976 fps, XviD build 50 ~1890 kbps avg, 0.18 bit/pixel
Аудио: 48 kHz, MPEG Layer 3, 2 ch, ~192.00 kbps avg
Доп. информация: Легендарный концерт группы Эмерсон, Лэйк и Палмер - "Pictures At An Exhibition" состоявшийся в The Lyceum Theatre 9-го декабря 1970г.
Треклист: 01.Promenade 02.Gnome 03.Promenade 04.The Sage 05.The Old Castle 06.Blues Variation 07.Promenade 08.The Hut of Baba Yaga 09.The Curse of Baba Yaga 10.The Hut of Baba Yaga 11.The ...

09
мая
2015

Emerson Lake Palmer - Trilogy [Deluxe Edition] [2015, Progressive Rock, FLAC]

Формат: FLAC, (tracks + .cue), lossless
Год выпуска: 2015
Страна: UK
Жанр: Progressive Rock
Продолжительность: 01:29:05
Описание: CD1 Original Trilogy 001. The Endless Enigma (Part One) 2. Fugue 3. The Endless Enigma (Part Two) 4. From the Beginning 5. The Sheriff 6. Hoedown 7. Trilogy 8. Living Sin 9. Abaddon’s Bolero CD2 New Stereo Trilogy 001. From the Beginning [Alternate Version] 2. The Endless Enigma (Part One) [New Stereo Mix] 3. Fugue [New Stereo Mix] 4. The Endless Enigma (Part Two) [New Stereo Mix] 5. From the Beginning [New Stereo Mix] 6. The Sheriff [New Stereo Mix] 7. Hoedown [Ne ...

01
ноя
2016

Emerson Lake Palmer - Pictures at an Exhibition [Deluxe Edition] [2016, Progressive Rock, FLAC]

Формат: FLAC, (tracks + .cue), lossless
Год выпуска: 2016
Страна: UK
Жанр: Progressive Rock
Продолжительность: 02:24:20
Описание: CD1 00The Original Albums 2016 Remaster 01. Promenade – 1:58 02. The Gnome – 4:17 03. Promenade – 1:23 04. The Sage – 4:41 05. The Old Castle – 2:32 06. Blues Variation – 4:20 07. Promenade – 1:28 08. The Hut of Baba Yaga – 1:12 09. The Curse of Baba Yaga – 4:09 10. The Hut of Baba Yaga – 1:07 11. The Great Gates of Kiev – 6:35 12. Nut Rocker – 4:27 Bonus track, Live at the Mar Y Sol Festival, Puerto Rico, 4.12.1972 : 13. Pictures at an Exhibition (Medley) a.Promena ...

12
апр
2017

Emerson, Lake Palmer - Live at Royal Albert Hall [1992, Progressive Rock, DVD5]

Формат: DVD5, DVD Video, MPEG2, AC3
Песня: Live at Royal Albert Hall
Жанр: Progressive Rock
Продолжительность: 01:26:47
Год выпуска: 1992
Видео: 720х576 (PAL 4:3), 25,000 fps, MPEG-2, ~6077 kbps avg, 0.586 bit/pixel
Аудио: 48.0 КГц, Audio Coding 3, 2 ch, 192 kbps
Доп. информация: Emerson, Lake & Palmer - живое выступление в Royal Albert Hall, Лондон, Англия в октябре 1992 года
Состав: Keith Emerson / keyboards, piano, Hammond Organ, Moog Modular Synthesizer Greg Lake / bass, guitars, vocals, harmonica Carl Palmer / drums, percussion, gong
Треклист: 1. Excerpt from "Karn Evil 9: 1st Impressi ...

29
июн
2015

Emerson, Lake Palmer - Once Upon A Time In South America (4CD) [2015, Progressive, Art-Rock, FLAC]

Формат: FLAC, (image + .cue), lossless
Год выпуска: 2015
Страна: England
Жанр: Progressive, Art-Rock
Продолжительность: 04:46:10
Описание: CD 1 00 01. Introduction Fanfare (live Satntiago, Chile - April 1, 1993) - 0:47 02. Tarkus (live Satntiago, Chile - April 1, 1993) - 9:11 03. Knife Edge (live Satntiago, Chile - April 1, 1993) - 5:32 04. Paper Blood (live Satntiago, Chile - April 1, 1993) - 4:43 05. Black Moon (live Satntiago, Chile - April 1, 1993) - 6:33 06. Close To Home (live Satntiago, Chile - April 1, 1993) - 3:36 07. Creole Dance (live Satntiago, Chile - April 1, 1993) - 5:15 08. Sti ...