20
фев
2011

Belle Epoque Evelyne Lenton - 5 albums [1977-2007, Disco, APE]

Belle Epoque Evelyne Lenton - 5 albums

Формат: APE, (image + .cue), lossless
Год выпуска: 1977-2007
Страна: Paris, France
Жанр: Disco
Продолжительность: 03:33:48
Описание:

1977 – Miss Broadway (Remastered 1996) 0
Belle Epoque Evelyne Lenton - 5 albums
треклист

1. Miss Broadway 7:30
2. Me and You 5:33
3. Losing You 4:15
4. Disco Sound (Medley) 14:08
I. Disco Sound
II. Black is Black
III.Why Don't You Lay

1977 - Bamalama (Remastered 1996) 0
Belle Epoque Evelyne Lenton - 5 albums
треклист

1. Bamalama 11.39
b) Taste of destruction
c) Bamalama
d) Medley:
- Good Golly Miss Molly
- Lucille
- Whole lotta shakin' going' on
- Jenny Jenny
- Bamalama
c) Live concert medley:
- Summertime blues
- Let me be
- Drink me
- Memphis tenessee
2. Mister-Do-Right 4.04
3. Drink Me 4.59
4. Sorry 6.11
5. Let Men Be 4.41

1979 - Now (Remastered 2003) 0
Belle Epoque Evelyne Lenton - 5 albums
треклист

01. Jump Down
02. Gimmie Time
03. Lose My Man
04. Now
05. My Life
06. Loving You
07. Stranger Ones Again
08. Com'on Tonight

Bonus Track:

09. La France C'est L'Amour
10. Island Of Emotion
11. Miss You

1996 – Il Meglio 01
Belle Epoque Evelyne Lenton - 5 albums
треклист

1. Black Is Black
- Disco Sound
- Why Don't You Lay Down
- Black is Black
2. Miss Broadway
3. Me And You
4. Losing You
5. Bamalama
- Taste of Chains
- Good Golly Miss Molly
- Whole lotta shakin' going' on
- Taste of Chains
- Let me be
- Drink me
- Memphis tenessee
6. Mister Do Right
7. Drink Me
8. Sorry
9. Let Men Be

2007 – Rocking On! 0
Belle Epoque Evelyne Lenton - 5 albums
треклист

1. I Was Fine
2. Rain
3. Lose My Man
4. Dont You Go
5. Why
6. Bugging Me
7. Pain
8. Gimme Time
9. On My Mind


Доп. информация:

Log EAC

Miss Broadway
Exact Audio Copy V0.99 prebeta 5 from 4. May 2009

Отчёт EAC об извлечении, выполненном 19. октября 2009, 2:46

Belle Epoque / Miss Broadway

Дисковод: Optiarc DVD RW AD-7203A Adapter: 1 ID: 1

Режим чтения : Достоверность
Использование точного потока : Да
Отключение кэша аудио : Да
Использование указателей C2 : Нет

Коррекция смещения при чтении : 48
Способность читать области Lead-in и Lead-out : Нет
Заполнение пропущенных сэмплов тишиной : Да
Удаление блоков с тишиной в начале и конце : Нет
При вычислениях CRC использовались нулевые сэмплы : Да
Интерфейс : Установленный внешний ASPI-интерфейс

Выходной формат : Внутренние WAV-операции
Формат сэмплов : 44.100 Гц; 16 бит; стерео

TOC извлечённого CD

Трек | Старт | Длительность | Начальный сектор | Конечный сектор
---------------------------------------------------------------------
1 | 0:00.00 | 7:36.57 | 0 | 34256
2 | 7:36.57 | 5:37.20 | 34257 | 59551
3 | 13:14.02 | 4:11.20 | 59552 | 78396
4 | 17:25.22 | 14:19.35 | 78397 | 142856

Характеристики диапазона извлечения и сообщения об ошибках

Выбранный диапазон

Имя файла E:LOSSLESSEvy of Belle EpoqueBelle Epoque - Miss Broadway.wav

Пиковый уровень 100.0 %
Качество диапазона 100.0 %
CRC копии 17795DAE
Копирование... OK

Ошибок не произошло

AccurateRip: сводка

Трек 1 нет в базе данных
Трек 2 нет в базе данных
Трек 3 нет в базе данных
Трек 4 нет в базе данных

Ни одного трека нет в базе AccurateRip

Конец отчёта

Bamalama
Exact Audio Copy V0.99 prebeta 5 from 4. May 2009

Отчёт EAC об извлечении, выполненном 19. октября 2009, 2:34

Belle Epoque / Bamalama

Дисковод: Optiarc DVD RW AD-7203A Adapter: 1 ID: 1

Режим чтения : Достоверность
Использование точного потока : Да
Отключение кэша аудио : Да
Использование указателей C2 : Нет

Коррекция смещения при чтении : 48
Способность читать области Lead-in и Lead-out : Нет
Заполнение пропущенных сэмплов тишиной : Да
Удаление блоков с тишиной в начале и конце : Нет
При вычислениях CRC использовались нулевые сэмплы : Да
Интерфейс : Установленный внешний ASPI-интерфейс

Выходной формат : Внутренние WAV-операции
Формат сэмплов : 44.100 Гц; 16 бит; стерео

TOC извлечённого CD

Трек | Старт | Длительность | Начальный сектор | Конечный сектор
---------------------------------------------------------------------
1 | 0:00.00 | 11:54.07 | 0 | 53556
2 | 11:54.07 | 4:10.13 | 53557 | 72319
3 | 16:04.20 | 5:08.35 | 72320 | 95454
4 | 21:12.55 | 6:19.50 | 95455 | 123929
5 | 27:32.30 | 4:46.57 | 123930 | 145436

Характеристики диапазона извлечения и сообщения об ошибках

Выбранный диапазон

Имя файла E:LOSSLESSEvy of Belle EpoqueBelle Epoque - Bamalama.wav

Пиковый уровень 95.6 %
Качество диапазона 100.0 %
CRC копии 9EC90994
Копирование... OK

Ошибок не произошло

AccurateRip: сводка

Трек 1 нет в базе данных
Трек 2 нет в базе данных
Трек 3 нет в базе данных
Трек 4 нет в базе данных
Трек 5 нет в базе данных

Ни одного трека нет в базе AccurateRip

Конец отчёта

Now
Exact Audio Copy V0.99 prebeta 5 from 4. May 2009

Отчёт EAC об извлечении, выполненном 19. октября 2009, 2:06

Belle Epoque / Now

Дисковод: Optiarc DVD RW AD-7203A Adapter: 1 ID: 1

Режим чтения : Достоверность
Использование точного потока : Да
Отключение кэша аудио : Да
Использование указателей C2 : Нет

Коррекция смещения при чтении : 48
Способность читать области Lead-in и Lead-out : Нет
Заполнение пропущенных сэмплов тишиной : Да
Удаление блоков с тишиной в начале и конце : Нет
При вычислениях CRC использовались нулевые сэмплы : Да
Интерфейс : Установленный внешний ASPI-интерфейс

Выходной формат : Внутренние WAV-операции
Формат сэмплов : 44.100 Гц; 16 бит; стерео

TOC извлечённого CD

Трек | Старт | Длительность | Начальный сектор | Конечный сектор
---------------------------------------------------------------------
1 | 0:00.00 | 5:45.48 | 0 | 25922
2 | 5:45.48 | 3:40.09 | 25923 | 42431
3 | 9:25.57 | 4:52.16 | 42432 | 64347
4 | 14:17.73 | 5:34.58 | 64348 | 89455
5 | 19:52.56 | 4:25.06 | 89456 | 109336
6 | 24:17.62 | 6:00.01 | 109337 | 136337
7 | 30:17.63 | 5:06.39 | 136338 | 159326
8 | 35:24.27 | 3:57.13 | 159327 | 177114
9 | 39:21.40 | 3:51.68 | 177115 | 194507
10 | 43:13.33 | 3:34.67 | 194508 | 210624
11 | 46:48.25 | 4:28.65 | 210625 | 230789

Характеристики диапазона извлечения и сообщения об ошибках

Выбранный диапазон

Имя файла E:LOSSLESSEvy of Belle EpoqueBelle Epoque - Now.wav

Пиковый уровень 98.8 %
Качество диапазона 100.0 %
CRC копии 530AF861
Копирование... OK

Ошибок не произошло

AccurateRip: сводка

Трек 1 нет в базе данных
Трек 2 нет в базе данных
Трек 3 нет в базе данных
Трек 4 нет в базе данных
Трек 5 нет в базе данных
Трек 6 нет в базе данных
Трек 7 нет в базе данных
Трек 8 нет в базе данных
Трек 9 нет в базе данных
Трек 10 нет в базе данных
Трек 11 нет в базе данных

Ни одного трека нет в базе AccurateRip

Конец отчёта

Il Meglio
Exact Audio Copy V0.99 prebeta 5 from 4. May 2009

Отчёт EAC об извлечении, выполненном 19. октября 2009, 3:06

BELLE EPOQUE / IL MEGLIO

Дисковод: Optiarc DVD RW AD-7203A Adapter: 1 ID: 1

Режим чтения : Достоверность
Использование точного потока : Да
Отключение кэша аудио : Да
Использование указателей C2 : Нет

Коррекция смещения при чтении : 48
Способность читать области Lead-in и Lead-out : Нет
Заполнение пропущенных сэмплов тишиной : Да
Удаление блоков с тишиной в начале и конце : Нет
При вычислениях CRC использовались нулевые сэмплы : Да
Интерфейс : Установленный внешний ASPI-интерфейс

Выходной формат : Внутренние WAV-операции
Формат сэмплов : 44.100 Гц; 16 бит; стерео

TOC извлечённого CD

Трек | Старт | Длительность | Начальный сектор | Конечный сектор
---------------------------------------------------------------------
1 | 0:00.00 | 13:38.17 | 0 | 61366
2 | 13:38.17 | 7:19.08 | 61367 | 94299
3 | 20:57.25 | 5:21.27 | 94300 | 118401
4 | 26:18.52 | 3:54.33 | 118402 | 135984
5 | 30:13.10 | 11:25.05 | 135985 | 187364
6 | 41:38.15 | 3:58.22 | 187365 | 205236
7 | 45:36.37 | 4:51.35 | 205237 | 227096
8 | 50:27.72 | 6:06.65 | 227097 | 254611
9 | 56:34.62 | 4:24.03 | 254612 | 274414

Характеристики диапазона извлечения и сообщения об ошибках

Выбранный диапазон

Имя файла E:LOSSLESSEvy of Belle EpoqueBELLE EPOQUE - IL MEGLIO.wav

Пиковый уровень 100.0 %
Качество диапазона 100.0 %
CRC копии AA0408AD
Копирование... OK

Ошибок не произошло

AccurateRip: сводка

Трек 1 точность не определена (достоверность 1) [49407103], AccurateRip вернул [724C6201]
Трек 2 точность не определена (достоверность 1) [4C531623], AccurateRip вернул [10490AFD]
Трек 3 точность не определена (достоверность 1) [193F7115], AccurateRip вернул [72CC5D0D]
Трек 4 точность не определена (достоверность 1) [7700EDF4], AccurateRip вернул [84A94F2C]
Трек 5 точность не определена (достоверность 1) [D6AEFEA5], AccurateRip вернул [1000A6ED]
Трек 6 точность не определена (достоверность 1) [86E4EC15], AccurateRip вернул [2DB653BD]
Трек 7 точность не определена (достоверность 1) [215FD1CE], AccurateRip вернул [9DA877C6]
Трек 8 точность не определена (достоверность 1) [DB2697B4], AccurateRip вернул [9837CBE8]
Трек 9 точность не определена (достоверность 1) [5985F620], AccurateRip вернул [4A1639EA]

Ни один трек не прошёл проверки на точность
В вашей базе может быть иной вариант штамповки диска

Конец отчёта

Rocking On!
Exact Audio Copy V0.99 prebeta 5 from 4. May 2009

Отчёт EAC об извлечении, выполненном 19. октября 2009, 1:46

Evy of Belle Epoque / Rocking On!

Дисковод: Optiarc DVD RW AD-7203A Adapter: 1 ID: 1

Режим чтения : Достоверность
Использование точного потока : Да
Отключение кэша аудио : Да
Использование указателей C2 : Нет

Коррекция смещения при чтении : 48
Способность читать области Lead-in и Lead-out : Нет
Заполнение пропущенных сэмплов тишиной : Да
Удаление блоков с тишиной в начале и конце : Нет
При вычислениях CRC использовались нулевые сэмплы : Да
Интерфейс : Установленный внешний ASPI-интерфейс

Выходной формат : Внутренние WAV-операции
Формат сэмплов : 44.100 Гц; 16 бит; стерео

TOC извлечённого CD

Трек | Старт | Длительность | Начальный сектор | Конечный сектор
---------------------------------------------------------------------
1 | 0:00.00 | 4:02.67 | 0 | 18216
2 | 4:02.67 | 4:49.46 | 18217 | 39937
3 | 8:52.38 | 4:52.16 | 39938 | 61853
4 | 13:44.54 | 3:45.39 | 61854 | 78767
5 | 17:30.18 | 4:27.00 | 78768 | 98792
6 | 21:57.18 | 4:10.14 | 98793 | 117556
7 | 26:07.32 | 3:58.29 | 117557 | 135435
8 | 30:05.61 | 3:36.54 | 135436 | 151689
9 | 33:42.40 | 3:47.74 | 151690 | 168788

Характеристики диапазона извлечения и сообщения об ошибках

Выбранный диапазон

Имя файла E:LOSSLESSEvy of Belle EpoqueEvy of Belle Epoque - Rocking On!.wav

Пиковый уровень 100.0 %
Качество диапазона 100.0 %
CRC копии 862743C0
Копирование... OK

Ошибок не произошло

AccurateRip: сводка

Трек 1 нет в базе данных
Трек 2 нет в базе данных
Трек 3 нет в базе данных
Трек 4 нет в базе данных
Трек 5 нет в базе данных
Трек 6 нет в базе данных
Трек 7 нет в базе данных
Трек 8 нет в базе данных
Трек 9 нет в базе данных

Ни одного трека нет в базе AccurateRip

Конец отчёта
Музыка / Lossless / Разное
СКАЧАТЬ БЕСПЛАТНО  [1.3 GB]


02
дек
2015

Belle Epoque - Best Hits [1977 - 1996, Pop, DVD5]

Формат: DVD5, DVD Video, MPEG2, AC3
Песня: Best Hits
Жанр: Pop
Продолжительность: 00:47:21
Год выпуска: 1977 - 1996
Видео: 720х576 (PAL 16:9), 25 fps, MPEG-2, ~7826 kbps avg, 0.755 bit/pixel
Аудио: 48.0 КГц, Audio Coding 3, 2 ch, 192 kbps
Доп. информация: Музыкальная группа «Belle Epoque» была основана в 1976 году, в столице Италии. Основателями этого музыкального коллектива являлись два человека – композитор и музыкальный продюсер Альберт Уэймен и его сестра, певица Эвелин Лентон. Этот родственный тандем, яркой линией подчеркнул и дополнил удивительные музыкальные течения 70-х.
Треклист: 1 ...

27
апр
2011

Belle Epoque - Videos [2011, Disco, SATRip]

Формат: SATRip, DVD Video, MPEG2, AC3
Жанр: Disco
Продолжительность: 0:26:38
Год выпуска: 2011
Видео: 720 x 480 (NTSC 4:3) at 29.970 fps, MPEG-2 Video, 8743 Kbps, 0.844 bit/pixel
Аудио: Dolby AC3, 192 Kbps, 48.0 KHz, 2 channels
Доп. информация: 1. Black Is Black 2. Miss Broadway 3. Bamalama 4. Bamalama 1978 5. Bamalama 6. Jump Down 7. Jump Down 1979 8. Mister Do Right 9. Black Is Black (Evelyne Lenton 2009) MediaInfo Общее Полное имя : D:Belle EpoqueVIDEO_TSVTS_03_1.VOB Формат : MPEG-PS Размер файла : 245 Мегабайт Продолжительность : 3 м. 41 с. Общий поток : 9304 Кбит/сек Видео Идентифи ...

09
дек
2012

Belle Epoque - Collection [1977-2007, Disco, Dance, Pop-Rock, MP3]

Формат: MP3, tracks, 320kbps
Год выпуска: 1977-2007
Страна: France
Жанр: Disco, Dance, Pop-Rock
Продолжительность: 03:33:15
Описание: Belle Epoque - Collection 1977 - Miss Broadway 01. Miss Broadway 02. Me and You 03. Losing You 04. Dicso Sound / Black Is Black / Why Don't You Lay 1978 - Bamalama 01. Bamalama 02. Mister-Do-Right 03. Drink Me 04. Sorry 05. Let Men Be 1979 - Now 01. Jump Down 02. Gimme Time 03. Lose My Man 04. Now 05. My Life 06. Loving You 07. Stranger Once Again 08. Comon Tonight 09. La France C'est L'Amour 10. Island Of Emotion 11. Miss You 1996 - IL MEGLIO 01. Black I ...

01
мар
2009

Cretu And Thiers-Belle Epoque [1988, Поп]

Формат: FLAC, tracks, lossless
Год выпуска: 1988
Страна: Германия
Жанр: Поп
Продолжительность: 36:58
Описание: 1.Mona Lisa ( 4.32) 2.Crazy Life (3.44) 3.When Love Is The Missing Word (4.00) 4.Waterfall (6.21) 5.Captain Right (3.50) 6.200 Ways To Heaven (4.03) 7.Don't Say You Love Me (Let Me Feel It) (4.10) 8.Snowin' Under My Skin (6.18)

10
мар
2012

Belle Epoque - Golden Hits [2012, Disco, MP3]

Формат: MP3, tracks, 320kbps
Год выпуска: 2012
Страна: France
Жанр: Disco
Продолжительность: 01:18:00
Описание: 01. Miss Broadway 02. Drink Me 03. Lose My Man 04. Jump Down 05. Losing You 06. Mister-Do-Right 07. Bamalama 08. Gimme Time 09. Medley a) Disco Sound b) Black Is Black c) Why Don't You Lay Down d) Black Is Black (part.2) 10. La France C'est L'Amour 11. Stranger Once Again 12. Comon Tonight 13. Me And You

11
авг
2009

Belle Epoque - Дискография [1977 - 1979]

Формат: MP3, tracks, 320kbps
Год выпуска: 1977 - 1979
Страна: Франция
Жанр: Disco, Pop, Blues
Продолжительность: 1:53:33
Описание: 1977 - Miss Broadway (time 31 1. Miss Broadway 2. Me And You 3. Losing You 4. Disco sound 1978 - Bamalama (time 31 1. Bamalama 2. Mister-Do-Right 3. Drink Me 4. Sorry 5. Let Men Be 1979 - Now (time 50 1. Jump Down 2. Gimme Time 3. Lose My Man 4. Now 5. My Life 6. Loving You 7. Stranger Once Again 8. Com'on Tonight Bonus Tracks 9. La France C'est L'amour 10.Island Of Emotion 11.Miss You
Доп. информация: Летом 1976 года французский композитор и аранжировщик ...

07
сен
2014

The Grand Astoria - La Belle Epoque [2014, Psychedelic, Stoner Rock, MP3]

Формат: MP3, tracks, 320kbps
Год выпуска: 2014
Страна: Россия
Жанр: Psychedelic, Stoner Rock
Продолжительность: 00:43:07
Описание: 01 Henry's Got a Gun 02 The Answer 03 La Belle Epoque 04 Gravity Bong 05 Serpent and The Garden of Eden 06 Lisbon Fuzzborn 07 Charming

06
апр
2007

System Of A Down (5 albums + Not Edited Albums + B-Sides + Videoclips) (1998) [mp3, 192]

Страна: US
Год выпуска: 1998
Жанр: Alternative Rock
Формат: MP3
Битрейт аудио: 192-320kbps
Трэклист: Albums : System Of A Down - 1998 Toxicity - 2001 Steal This Album - 2002 Mezmerize - 2005 Hypnotize - 2005 +Toxic Avengers(live) +Not Edited Album +Defy You +All B-Sides +Mics Videoclips : Aerials B.Y.O.B Boom! Chop Suey Chop Suey(Live) Darts(Live MTV Europe 2001) Hypnotize Lonely Day Question! Science(Lowlands) Spiders Sugar Toxicity War? Video: 480x576 (0.83:1), 23 fps, XviD build 46 ~1135 kbps avg, 0.18 bit/pixel Audio: 22.050 kHz, MPEG Layer 3, 2 ch, ~128.00 kbps avg
Доп. информация: Sy ...

09
дек
2012

Evelyn Lenton - Solo Collection [1982, Pop-Rock, MP3]

Формат: MP3, tracks, 320kbps
Год выпуска: 1982
Страна: France
Жанр: Pop-Rock
Продолжительность: 01:11:58
Описание: Dans Mon Delire 1982 00 1. Tu M'Fais De La Peine 2. Voiles Au Vent 3. Dans Mon Delire 4. Y'en A Marre 5. Blocage Drap 6. Football And Rock N'Roll 7. J'Tombe En Panne 8. L'Envie Operator 1982 00 01. J Was Fine 02. Don't You Go 03. Operator 04. You Will 05. Sailing Away 06. My Pain is Over 07. Bugging Me08. Football And Rock'N'Roll
Доп. информация: Evelyn Lenton Эвелин Лентон родилась в Париже 16 декабря (между прочим, в один день с Бетховеном), на сцену вышла, как она сама шут ...

06
авг
2010

Spaced Out - 5 Albums [2000-2008, Instrumental, Progressive, Metal-Jazz-Fusion, MP3]

Формат: MP3, tracks, 224-320kbps
Год выпуска: 2000-2008
Страна: Canada
Жанр: Instrumental, Progressive, Metal-Jazz-Fusion
Продолжительность: 04:09:40
Описание: Spaced Out 2000 1. Green Teeth (4:51) 2. Toxix (4:50) 3. A Freak Az (5:43) 4. Magnetyzme (5:10) 5. Delirium Tremens (4:50) 6. The Fifth Dimension (6:39) 7. Pensestuax (5:57) 8. Futurosphere (3:58) 9. Furax (6:37) 10. Glassosphere (5:51) Antoine Fafard - electric bass Martin Maheux Mar - drums Mark Tremblay Mathieu Bouchard - electric guitar Iric St-Jean - keyboards Eponymus II 2001 1. Sever the Seven (8:56) 2. The Lost Train (6:20) 3. ...

25
апр
2011

Gilla - 5 albums [1977-2000, Disco, APE]

Формат: APE, (image + .cue), lossless
Год выпуска: 1977-2000
Страна: Linz, Austria
Жанр: Disco
Продолжительность: 04:15:46
Описание: 1977 - Help! Help! (Remaster 1995) 0 01. Help! Help! 02. Gentlemen Callers Not Allowed 03. Say Yes 04. A Baby Of Love 05. Hold On 06. First Love 07. Johnny 08. Why Don't You Do It? 09. The Girl From Ipanema Bonus track 10. Bend Me, Shape Me 11. Friday On My Mind 12. Cigarillo 13. Take The Best Of Me 1977 - Bend Me, Shape Me (Remaster 1995) 0 1. Bend Me, Shape Me 2. Say Yes 3. Gentlemen Callers Not Allowed 4. Help! Help! 5. Hold On 6. First Love 7. Johnny 8 ...

21
мая
2008

(Electro, House) The Prodigy, 5 Albums [flac (tracks), 700-1200kbps]

Страна: Великобритания
Год выпуска: 1990-2005
Жанр: Electro, House, Alternative Rock
Продолжительность: 5ч. 3мин.
Формат: FLAC (tracks)
Битрейт аудио: 700kbps ~ 1200kbps
Трэклист: + Always Outnumbered, Never Outgunned - 01 - Spitfire.flac - 02 - Girls.flac - 03 - Memphis Bells.flac - 05 - Hot Ride.flac - 06 - Wake Up Call.flac - 07 - Action Radar.flac - 08 - Medusa's Path.flac - 09 - Phoenix.flac - 10 - You'll Be Under My Wheels.flac - 11 - The Way It Is.flac - 12 - Shoot Down.flac + Music For The Jitled Generation - 01_Intro_The Prodigy.flac - 02_Break & Ente ...

17
июн
2016

Sweet - 5 Albums (Mini LP SHM-CD Japan) [2015, Rock, Hard Rock, Glam Rock, FLAC]

Формат: FLAC, (image + .cue), lossless
Год выпуска: 2015
Страна: UK
Жанр: Rock, Hard Rock, Glam Rock
Продолжительность: 04:34:24
Описание: 1975 Strung Up (Anthology) 0101. Hellraiser 02. Burning / Someone Else Will 03. Rock 'N' Roll Disgrace 04. Need A Lot Of Lovin' 05. Done Me Wrong Alright 06. You're Not Wrong For Lovin' Me 07. The Man With The Golden Arm 08. Action 09. Fox On The Run 10. Set Me Free 11. Miss Demeanour 12. Ballroom Blitz 13. Burn On The Flame 14. Solid Gold Brass 15. The Six Teens 16. I Wanna Be Committed 17. Blockbuster Bonus Track 18. A.C.D.C. eac Exact Audio Copy V1.1 fr ...

20
сен
2015

Nils - Collection (5 Albums) [1998 - 2015, Smooth Jazz, FLAC]

Формат: FLAC, (image + .cue), lossless
Год выпуска: 1998 - 2015
Страна: USA
Жанр: Smooth Jazz
Продолжительность: 04:21:41
Описание:
Трeклист: 1998 - Blue Planet - 0001. Blue Planet [06:22] 02. For Sina [05:11] 03. Brazilian Dance (Interlude) [02:28] 04. Prelude [00:07] 05. Portuguese Love [06:22] 06. Cruisin' [04:42] 07. Kona Girl [03:30] 08. Still Searchin' (No Love In Sight) [04:47] 09. Keep Rollin' [04:57] 10. Yesterday's Dream [04:43] 11. Maybe There Are Reasons [06:20] 12.Berlin Romance [10:08]Log EACExact Audio Copy V0.99 prebeta 5 from 4. May 2009 Отчёт EAC об извлечении, выполненном ...

09
мар
2018

Felt - Collection (5-Albums)(Remastered) [24 bit 44,1 khz] [2018, Rock, Post-Punk, FLAC]

Формат: FLAC, tracks, lossless
Год выпуска: 2018
Страна: England
Жанр: Rock, Post-Punk
Продолжительность: 02:22:33
Описание: 1982 Crumbling the Antiseptic Beauty 1. Evergreen Dazed 5:06 2. Fortune 3:34 3. Birdmen 6:30 4. Cathedral 5:21 5. I Worship the Sun 4:15 6. Templeroy 5:35 Logfoobar2000 1.1.10 / Dynamic Range Meter 1.1.1 log date: 2018-03-02 09:08:57 -------------------------------------------------------------------------------- Analyzed: Felt / Crumbling The Antiseptic Beauty (Remastered Edition) -------------------------------------------------------------------------------- DR Pea ...