16
июн
2010

VA - Armada Presents: Ibiza Trance Tunes 2009 2CD [2009, Trance, Progressive Trance, FLAC]

VA - Armada Presents: Ibiza Trance Tunes 2009 2CD
Формат: FLAC, (tracks + .cue), lossless
Год выпуска: 2009
Страна: All World
Жанр: Trance, Progressive Trance
Продолжительность: 02:38:07
Описание:
Треклист/2CD

CD1
01. Armin Van Buuren featuring Jacqueline Govaert - Never Say Never (Myon & Shane 54 Remix Edit) (04:09)
02. Roger Shah and Tenishia - You're So Cool (Original Mix Edit) (03:52)
03. Dash Berlin with Cerf, Mitiska & Jaren - Man On The Run (Andy Duguid Remix Edit) (03:14)
04. DJ Yvan - Adagio For Strings (Original Mix Edit) (03:29)
05. Elevation - Biscayne (Lemon & Einar K Remix Edit) (04:05)
06. Manvel Ter Pogosyan feat. Jenni Perez - Fallen In Too Deep (Amurai Remix Edit) (04:19)
07. B.E.N. and M6 - Interplay (Original Mix Edit) (04:09)
08. Paul Trainer - Seize The Day (Original Mix Edit) (04:07)
09. Ashley Wallbridge - Masquerade (Original Mix Edit) (03:43)
10. Umek and Beltek - Army Of Two (Jay Lumen Main Stage Remix) (04:41)
11. Passive Progressive - Hide Away (Vocal Mix Edit) (04:27)
12. Thomas Bronzwaer - Certitude (Original Mix Edit) (04:54)
13. John O'Callaghan feat. Jaren - Surreal (Original Mix Edit) (03:46)
14. Kismet - Some Hours Later (Original Mix Edit) (03:39)
15. W&W - The Plan (Leon Bolier Remix Edit) (04:51)
16. Musetta - Standing By My Side (Fred Numf Mix Edit) (04:05)
17. Second Left - Dusk (Original Mix Edit) (03:33)
18. Ohmna feat.Nurlaila - Key Of Life (MarLo Remix Edit) (02:57)
19. Stel - A New Life (Josh Gabriel Remix Edit) (02:47)
20. Mat Zo - The Price Of Oil (Original Mix Edit) (04:35)

CD2
01. Markus Schulz - The New World (Radio Edit) (02:45)
02. Simon and Shaker - Panorama (Original Mix Edit) (04:23)
03. D-Folt feat. Marcie - I Come Running (tyDi Remix Edit) (04:03)
04. Sunlounger - Sunny Tales (Dance Version Edit) (04:30)
05. Da Others - Viva La Vida! (Unplugged Mix Edit) (03:44)
06. Signum - Distant Signature (Alternate Mix Edit) (04:34)
07. Embliss - Solstice (Ben Preston Remix Edit) (04:19)
08. Robert Nickson and Daniel Kandi - Rewire (Original Mix Edit) (06:22)
09. Arnej - The Ones That Get Away (Original Mix Edit) (04:12)
10. Myon & Shane 54 feat. Carrie Skipper - Vampire (Gareth Emery's Garuda Remix Edit) (04:57)
11. Heatbeat - Vergatron (Original Mix Edit) (03:58 )
12. Tritonal feat. Cristina Soto - Crash Into Reason (Moonbeam Remix Edit) (04:48 )
13. tyDi - Is It Cold? (Re-Ward Remix Edit) (03:58 )
14. Monogato - Climate Change (Original Mix Edit) (04:37)
15. 8 Wonders - People Don't Change (Original Mix Edit) (03:27)
16. Phuture Dust - Data On The Moon (Original Mix Edit) (03:49)
17. Sebastian Brandt - Serenade (Original Mix Edit) (04:05)
18. Matthew Dekay - Living In A Bubblepop (Edit) (04:34)
19. Danilo Ercole - Harbour (Original Mix Edit) (05:30)
20. Vengeance - Temptation (Denga & Manus Mix Edit) (04:41)

Log EAC/2CD
Exact Audio Copy V0.99 prebeta 4 from 23. January 2008

Отчёт EAC об извлечении, выполненном 7. апреля 2010, 14:49

Various / Ibiza Trance Tunes 2009 (CD1)

Дисковод: HL-DT-STDVDRAM GH20LS15 Adapter: 1 ID: 0

Режим чтения : Достоверность
Использование точного потока : Да
Отключение кэша аудио : Да
Использование указателей C2 : Нет

Коррекция смещения при чтении : 667
Способность читать области Lead-in и Lead-out : Нет
Заполнение пропущенных сэмплов тишиной : Да
Удаление блоков с тишиной в начале и конце : Нет
При вычислениях CRC использовались нулевые сэмплы : Да
Интерфейс : Установленный внешний ASPI-интерфейс
Обработка зазоров : Добавлено к предыдущему треку

Выходной формат : Пользовательский кодировщик
Выбранный битрейт : 320 kBit/s
Качество : Высокий
Добавление ID3-тэга : Нет
Утилита сжатия : C:Program FilesExact Audio CopyFlacflac.exe
Дополнительные параметры : -8 -V -T "ARTIST=%a" -T "TITLE=%t" -T "ALBUM=%g" -T "DATE=%y" -T "TRACKNUMBER=%n" -T "GENRE=%m" -T "COMMENT=EAC FLAC -8" %s

TOC извлечённого CD

Трек | Старт | Длительность | Начальный сектор | Конечный сектор
---------------------------------------------------------------------
1 | 0:00.00 | 4:11.73 | 0 | 18897
2 | 4:11.73 | 3:54.01 | 18898 | 36448
3 | 8:05.74 | 3:16.29 | 36449 | 51177
4 | 11:22.28 | 3:31.50 | 51178 | 67052
5 | 14:54.03 | 4:07.60 | 67053 | 85637
6 | 19:01.63 | 4:21.65 | 85638 | 105277
7 | 23:23.53 | 4:11.21 | 105278 | 124123
8 | 27:34.74 | 4:09.53 | 124124 | 142851
9 | 31:44.52 | 3:45.28 | 142852 | 159754
10 | 35:30.05 | 3:42.30 | 159755 | 176434
11 | 39:12.35 | 4:29.13 | 176435 | 196622
12 | 43:41.48 | 4:12.16 | 196623 | 215538
13 | 47:53.64 | 3:46.01 | 215539 | 232489
14 | 51:39.65 | 3:41.17 | 232490 | 249081
15 | 55:21.07 | 4:53.16 | 249082 | 271072
16 | 60:14.23 | 4:07.67 | 271073 | 289664
17 | 64:22.15 | 3:35.42 | 289665 | 305831
18 | 67:57.57 | 2:59.64 | 305832 | 319320
19 | 70:57.46 | 2:49.26 | 319321 | 332021
20 | 73:46.72 | 4:35.44 | 332022 | 352690

Трек 1

Имя файла G:MY RIPVA - Ibiza Trance Tunes 2009 2CDCD11 - Armin van Buuren feat. Jacqueline Govaert - Never Say Never (Myon & Shane 54 Remix).wav

Длина предзазора 0:00:02.00

Пиковый уровень 92.2 %
Качество трека 100.0 %
CRC теста 7A86CE82
CRC копии 7A86CE82
Трек не обнаружен в базе AccurateRip
Копирование... OK

Трек 2

Имя файла G:MY RIPVA - Ibiza Trance Tunes 2009 2CDCD12 - Roger Shah & Tenishia feat. Lorilee - You’re So Cool.wav

Пиковый уровень 96.6 %
Качество трека 100.0 %
CRC теста 0ADB7A0C
CRC копии 0ADB7A0C
Трек не обнаружен в базе AccurateRip
Копирование... OK

Трек 3

Имя файла G:MY RIPVA - Ibiza Trance Tunes 2009 2CDCD13 - Dash Berlin with Cerf, Mitiska & Jaren - Man on the Run (Andy Duguid Remix).wav

Пиковый уровень 96.6 %
Качество трека 100.0 %
CRC теста D2BB3449
CRC копии D2BB3449
Трек не обнаружен в базе AccurateRip
Копирование... OK

Трек 4

Имя файла G:MY RIPVA - Ibiza Trance Tunes 2009 2CDCD14 - DJ Yvan - Adagio for Strings 2009.wav

Пиковый уровень 94.9 %
Качество трека 100.0 %
CRC теста F550B20C
CRC копии F550B20C
Трек не обнаружен в базе AccurateRip
Копирование... OK

Трек 5

Имя файла G:MY RIPVA - Ibiza Trance Tunes 2009 2CDCD15 - Elevation - Biscayne (Lemon & Einar K. Remix).wav

Пиковый уровень 96.6 %
Качество трека 100.0 %
CRC теста 328A66AF
CRC копии 328A66AF
Трек не обнаружен в базе AccurateRip
Копирование... OK

Трек 6

Имя файла G:MY RIPVA - Ibiza Trance Tunes 2009 2CDCD16 - Manvel Ter Pogosyan feat. Jenni Perez - Fallen in Too Deep (Amurai Remix).wav

Пиковый уровень 96.6 %
Качество трека 100.0 %
CRC теста 88794DBA
CRC копии 88794DBA
Трек не обнаружен в базе AccurateRip
Копирование... OK

Трек 7

Имя файла G:MY RIPVA - Ibiza Trance Tunes 2009 2CDCD17 - B.E.N & M6 - Interplay.wav

Пиковый уровень 96.6 %
Качество трека 100.0 %
CRC теста 0B427153
CRC копии 0B427153
Трек не обнаружен в базе AccurateRip
Копирование... OK

Трек 8

Имя файла G:MY RIPVA - Ibiza Trance Tunes 2009 2CDCD18 - Paul Trainer - Seize the Day.wav

Пиковый уровень 96.6 %
Качество трека 99.9 %
CRC теста 55516997
CRC копии 55516997
Трек не обнаружен в базе AccurateRip
Копирование... OK

Трек 9

Имя файла G:MY RIPVA - Ibiza Trance Tunes 2009 2CDCD19 - Ashley Wallbridge - Mascuerade.wav

Пиковый уровень 96.6 %
Качество трека 100.0 %
CRC теста FCAB45B8
CRC копии FCAB45B8
Трек не обнаружен в базе AccurateRip
Копирование... OK

Трек 10

Имя файла G:MY RIPVA - Ibiza Trance Tunes 2009 2CDCD110 - Umek & Beltek - Army of Two (Jay Lumen Main Stage Mix).wav

Пиковый уровень 84.9 %
Качество трека 100.0 %
CRC теста 70073796
CRC копии 70073796
Трек не обнаружен в базе AccurateRip
Копирование... OK

Трек 11

Имя файла G:MY RIPVA - Ibiza Trance Tunes 2009 2CDCD111 - Passive Progressive feat. Rachele Warner - Hide Away (Vocal Mix).wav

Пиковый уровень 96.6 %
Качество трека 100.0 %
CRC теста E4914512
CRC копии E4914512
Трек не обнаружен в базе AccurateRip
Копирование... OK

Трек 12

Имя файла G:MY RIPVA - Ibiza Trance Tunes 2009 2CDCD112 - Thomas Bronzwaer - Certitude.wav

Пиковый уровень 92.3 %
Качество трека 100.0 %
CRC теста A2C7936F
CRC копии A2C7936F
Трек не обнаружен в базе AccurateRip
Копирование... OK

Трек 13

Имя файла G:MY RIPVA - Ibiza Trance Tunes 2009 2CDCD113 - John O'Callaghan feat. Jaren - Surreal.wav

Пиковый уровень 96.6 %
Качество трека 100.0 %
CRC теста 5639262E
CRC копии 5639262E
Трек не обнаружен в базе AccurateRip
Копирование... OK

Трек 14

Имя файла G:MY RIPVA - Ibiza Trance Tunes 2009 2CDCD114 - Kismet - Some Hours Later.wav

Пиковый уровень 96.6 %
Качество трека 100.0 %
CRC теста 3F34D89A
CRC копии 3F34D89A
Трек не обнаружен в базе AccurateRip
Копирование... OK

Трек 15

Имя файла G:MY RIPVA - Ibiza Trance Tunes 2009 2CDCD115 - W&W - The Plan (Leon Bolier Remix).wav

Пиковый уровень 96.6 %
Качество трека 99.9 %
CRC теста 062CB6E8
CRC копии 062CB6E8
Трек не обнаружен в базе AccurateRip
Копирование... OK

Трек 16

Имя файла G:MY RIPVA - Ibiza Trance Tunes 2009 2CDCD116 - Pan - Standing By My Side (Fred Numf Mix).wav

Пиковый уровень 96.6 %
Качество трека 100.0 %
CRC теста 5B4C8CB1
CRC копии 5B4C8CB1
Трек не обнаружен в базе AccurateRip
Копирование... OK

Трек 17

Имя файла G:MY RIPVA - Ibiza Trance Tunes 2009 2CDCD117 - Second Left - Dusk.wav

Пиковый уровень 96.6 %
Качество трека 100.0 %
CRC теста 33EE156C
CRC копии 33EE156C
Трек не обнаружен в базе AccurateRip
Копирование... OK

Трек 18

Имя файла G:MY RIPVA - Ibiza Trance Tunes 2009 2CDCD118 - Ohmnia feat. Nurlalia - Key of Life (Marlo Remix).wav

Пиковый уровень 96.6 %
Качество трека 100.0 %
CRC теста 4FE8E413
CRC копии 4FE8E413
Трек не обнаружен в базе AccurateRip
Копирование... OK

Трек 19

Имя файла G:MY RIPVA - Ibiza Trance Tunes 2009 2CDCD119 - Stel - A New Life (Josh Gabriel Remix).wav

Пиковый уровень 96.6 %
Качество трека 99.9 %
CRC теста A7A203A9
CRC копии A7A203A9
Трек не обнаружен в базе AccurateRip
Копирование... OK

Трек 20

Имя файла G:MY RIPVA - Ibiza Trance Tunes 2009 2CDCD120 - Mat Zo - The Price of Oil.wav

Пиковый уровень 96.6 %
Качество трека 100.0 %
CRC теста 6197B1B9
CRC копии 6197B1B9
Трек не обнаружен в базе AccurateRip
Копирование... OK

Ни одного трека нет в базе AccurateRip

Ошибок не произошло

Конец отчёта

Exact Audio Copy V0.99 prebeta 4 from 23. January 2008

Отчёт EAC об извлечении, выполненном 7. апреля 2010, 15:52

Various / Ibiza Trance Tunes 2009 (CD2)

Дисковод: HL-DT-STDVDRAM GH20LS15 Adapter: 1 ID: 0

Режим чтения : Достоверность
Использование точного потока : Да
Отключение кэша аудио : Да
Использование указателей C2 : Нет

Коррекция смещения при чтении : 667
Способность читать области Lead-in и Lead-out : Нет
Заполнение пропущенных сэмплов тишиной : Да
Удаление блоков с тишиной в начале и конце : Нет
При вычислениях CRC использовались нулевые сэмплы : Да
Интерфейс : Установленный внешний ASPI-интерфейс
Обработка зазоров : Добавлено к предыдущему треку

Выходной формат : Пользовательский кодировщик
Выбранный битрейт : 320 kBit/s
Качество : Высокий
Добавление ID3-тэга : Нет
Утилита сжатия : C:Program FilesExact Audio CopyFlacflac.exe
Дополнительные параметры : -8 -V -T "ARTIST=%a" -T "TITLE=%t" -T "ALBUM=%g" -T "DATE=%y" -T "TRACKNUMBER=%n" -T "GENRE=%m" -T "COMMENT=EAC FLAC -8" %s

TOC извлечённого CD

Трек | Старт | Длительность | Начальный сектор | Конечный сектор
---------------------------------------------------------------------
1 | 0:00.00 | 2:47.33 | 0 | 12557
2 | 2:47.33 | 4:25.23 | 12558 | 32455
3 | 7:12.56 | 4:05.05 | 32456 | 50835
4 | 11:17.61 | 4:32.35 | 50836 | 71270
5 | 15:50.21 | 3:46.47 | 71271 | 88267
6 | 19:36.68 | 4:36.21 | 88268 | 108988
7 | 24:13.14 | 3:00.62 | 108989 | 122550
8 | 27:14.01 | 4:13.66 | 122551 | 141591
9 | 31:27.67 | 3:52.45 | 141592 | 159036
10 | 35:20.37 | 3:36.22 | 159037 | 175258
11 | 38:56.59 | 4:00.74 | 175259 | 193332
12 | 42:57.58 | 3:27.41 | 193333 | 208898
13 | 46:25.24 | 4:00.47 | 208899 | 226945
14 | 50:25.71 | 4:39.38 | 226946 | 247908
15 | 55:05.34 | 3:29.45 | 247909 | 263628
16 | 58:35.04 | 3:51.44 | 263629 | 280997
17 | 62:26.48 | 4:19.42 | 280998 | 300464
18 | 66:46.15 | 3:57.65 | 300465 | 318304
19 | 70:44.05 | 4:11.70 | 318305 | 337199
20 | 74:56.00 | 4:48.52 | 337200 | 358851

Трек 1

Имя файла G:MY RIPVA - Ibiza Trance Tunes 2009 2CDCD21 - Markus Schulz - The New World.wav

Длина предзазора 0:00:02.00

Пиковый уровень 85.6 %
Качество трека 100.0 %
CRC теста 4DCD862F
CRC копии 4DCD862F
Трек не обнаружен в базе AccurateRip
Копирование... OK

Трек 2

Имя файла G:MY RIPVA - Ibiza Trance Tunes 2009 2CDCD22 - Simon & Shaker - Panorama.wav

Пиковый уровень 96.6 %
Качество трека 99.9 %
CRC теста 5A4A2116
CRC копии 5A4A2116
Трек не обнаружен в базе AccurateRip
Копирование... OK

Трек 3

Имя файла G:MY RIPVA - Ibiza Trance Tunes 2009 2CDCD23 - D-FOLT feat. Marcie - I Come Running (tyDi Remix Edit).wav

Пиковый уровень 94.4 %
Качество трека 99.9 %
CRC теста C0E1D08C
CRC копии C0E1D08C
Трек не обнаружен в базе AccurateRip
Копирование... OK

Трек 4

Имя файла G:MY RIPVA - Ibiza Trance Tunes 2009 2CDCD24 - Sunlounger - Sunny Tales (Dance Version Edit).wav

Пиковый уровень 96.6 %
Качество трека 100.0 %
CRC теста DDBE3BCA
CRC копии DDBE3BCA
Трек не обнаружен в базе AccurateRip
Копирование... OK

Трек 5

Имя файла G:MY RIPVA - Ibiza Trance Tunes 2009 2CDCD25 - Da Others - Viva La Vida! (Unplugged Mix Edit).wav

Пиковый уровень 96.6 %
Качество трека 100.0 %
CRC теста 80449E12
CRC копии 80449E12
Трек не обнаружен в базе AccurateRip
Копирование... OK

Трек 6

Имя файла G:MY RIPVA - Ibiza Trance Tunes 2009 2CDCD26 - Signum - Distant Signature (Alternate Mix).wav

Пиковый уровень 96.6 %
Качество трека 99.9 %
CRC теста 33CF3856
CRC копии 33CF3856
Трек не обнаружен в базе AccurateRip
Копирование... OK

Трек 7

Имя файла G:MY RIPVA - Ibiza Trance Tunes 2009 2CDCD27 - Embliss - Solstice (Ben Preston Remix).wav

Пиковый уровень 68.9 %
Качество трека 100.0 %
CRC теста 051FB37E
CRC копии 051FB37E
Трек не обнаружен в базе AccurateRip
Копирование... OK

Трек 8

Имя файла G:MY RIPVA - Ibiza Trance Tunes 2009 2CDCD28 - Robert Nickson & Daniel Kandi - Rewire.wav

Пиковый уровень 96.6 %
Качество трека 100.0 %
CRC теста A6DF77FA
CRC копии A6DF77FA
Трек не обнаружен в базе AccurateRip
Копирование... OK

Трек 9

Имя файла G:MY RIPVA - Ibiza Trance Tunes 2009 2CDCD29 - Arnej - The Ones That Get Away.wav

Пиковый уровень 96.6 %
Качество трека 100.0 %
CRC теста C1763FA6
CRC копии C1763FA6
Трек не обнаружен в базе AccurateRip
Копирование... OK

Трек 10

Имя файла G:MY RIPVA - Ibiza Trance Tunes 2009 2CDCD210 - Myon & Shane 54 feat. Carrie Skipper - Vampire (Gareth Emery's Garuda Remix).wav

Пиковый уровень 96.6 %
Качество трека 100.0 %
CRC теста E6D3340D
CRC копии E6D3340D
Трек не обнаружен в базе AccurateRip
Копирование... OK

Трек 11

Имя файла G:MY RIPVA - Ibiza Trance Tunes 2009 2CDCD211 - Heatbeat - Vergatron.wav

Пиковый уровень 96.6 %
Качество трека 100.0 %
CRC теста BB8837A6
CRC копии BB8837A6
Трек не обнаружен в базе AccurateRip
Копирование... OK

Трек 12

Имя файла G:MY RIPVA - Ibiza Trance Tunes 2009 2CDCD212 - Tritonal feat. Cristina Soto - Crash Into Reason (Moonbeam Remix).wav

Пиковый уровень 96.6 %
Качество трека 99.9 %
CRC теста 7F0EF411
CRC копии 7F0EF411
Трек не обнаружен в базе AccurateRip
Копирование... OK

Трек 13

Имя файла G:MY RIPVA - Ibiza Trance Tunes 2009 2CDCD213 - tyDi - Is It Cold (Re-Ward Remix).wav

Пиковый уровень 96.0 %
Качество трека 100.0 %
CRC теста B1FD021D
CRC копии B1FD021D
Трек не обнаружен в базе AccurateRip
Копирование... OK

Трек 14

Имя файла G:MY RIPVA - Ibiza Trance Tunes 2009 2CDCD214 - Monogato - Climate Change.wav

Пиковый уровень 96.6 %
Качество трека 100.0 %
CRC теста 3B62D2C1
CRC копии 3B62D2C1
Трек не обнаружен в базе AccurateRip
Копирование... OK

Трек 15

Имя файла G:MY RIPVA - Ibiza Trance Tunes 2009 2CDCD215 - 8 Wonders - People Don't Change.wav

Пиковый уровень 96.6 %
Качество трека 100.0 %
CRC теста DB6B0D19
CRC копии DB6B0D19
Трек не обнаружен в базе AccurateRip
Копирование... OK

Трек 16

Имя файла G:MY RIPVA - Ibiza Trance Tunes 2009 2CDCD216 - Phuture Dust - Data On The Moon.wav

Пиковый уровень 96.3 %
Качество трека 100.0 %
CRC теста C374339E
CRC копии C374339E
Трек не обнаружен в базе AccurateRip
Копирование... OK

Трек 17

Имя файла G:MY RIPVA - Ibiza Trance Tunes 2009 2CDCD217 - Sebastian Brandt - Serenade.wav

Пиковый уровень 96.6 %
Качество трека 100.0 %
CRC теста D328A224
CRC копии D328A224
Трек не обнаружен в базе AccurateRip
Копирование... OK

Трек 18

Имя файла G:MY RIPVA - Ibiza Trance Tunes 2009 2CDCD218 - Matthew Dekay - Living In A Bubblepop.wav

Пиковый уровень 94.4 %
Качество трека 100.0 %
CRC теста 2FD07586
CRC копии 2FD07586
Трек не обнаружен в базе AccurateRip
Копирование... OK

Трек 19

Имя файла G:MY RIPVA - Ibiza Trance Tunes 2009 2CDCD219 - Danilo Ercole - Harbour.wav

Пиковый уровень 96.6 %
Качество трека 100.0 %
CRC теста C2A679E8
CRC копии C2A679E8
Трек не обнаружен в базе AccurateRip
Копирование... OK

Трек 20

Имя файла G:MY RIPVA - Ibiza Trance Tunes 2009 2CDCD220 - Vengeance - Temptation (Denga & Manus Mix).wav

Пиковый уровень 96.6 %
Качество трека 100.0 %
CRC теста D57633CF
CRC копии D57633CF
Трек не обнаружен в базе AccurateRip
Копирование... OK

Ни одного трека нет в базе AccurateRip

Ошибок не произошло

Конец отчёта


Музыка / Lossless / Электронная музыка
СКАЧАТЬ БЕСПЛАТНО  [1.1 GB]


21
мар
2009

Armada presents Miami Tunes 2009 [2009, Trance]

Формат: MP3, tracks, 256kbps
Год выпуска: 2009
Страна: Европа
Жанр: Trance
Продолжительность: 02:35:24
Описание: CD1 01. Monogato - Miami Vibe (5:00) 02. Mike Foyle - Bittersweet Nightshade [Markus Schulz Return Remix] (4:26) 03. John O'Callaghan Feat Jaren - Surreal (3:46) 04. Sunlounger - Change Your Mind (4:29) 05. Moussa Clarke - She Wants Him (3:23) 06. Musetta - Nicotine [Glenn Morrison Remix] (3:49) 07. Agnelli & Nelson - Sleeping In Airports (4:12) 08. Ohmna - Key Of Life (3:34) 09. BLake Jarrell - Punta Del Este [Beach Mix] (4:52) 10. Cerf, Mitiska & Jaren - You Never Said [Dash Berl ...

11
июн
2012

VA - Armada presents the Ibiza Soundtrack 2012 [11.06.2012, Uplifting Trance, MP3]

Формат: MP3, tracks, 320kbps
Год выпуска: 11.06.2012
Страна: Holland
Жанр: Uplifting Trance
Продолжительность: 04:01:00
Описание: Tracklist01. Armin Van Buuren Presents Gaia (Original Mix) - Armin van Buuren & Gaia - J'ai Envie De Toi [08:36] 02. Dash Berlin - Go It Alone (Club Mix) [feat. Sarah Howells] [06:45] 03. Alex Sayz - Free to Go (Sick Individuals Remix) [feat. Nadia Ali] [06:31] 04. Markus Schulz & Dennis Sheperd - Go! (Original Mix) [06:25] 05. Omnia & IRA - The Fusion (Original Mix) [06:08] 06. Siege - Roads (Sergio Fernandez Remix) [06:37] 07. W&W - Shotgun (Original Mix) [0 ...

13
мая
2010

VA-Armada At Ibiza Summer 2009 [2009, Trance, MP3]

Формат: MP3, tracks, 256kbps
Год выпуска: 2009
Страна: Голландия
Жанр: Trance
Продолжительность: 02:37:00
Описание: CD1 1. Musetta-Standing By My Side (6:37) 2. Presslaboys-Gigitech (3:21) 3. Ismael Rivas & Luis Damora-To Take Away (6:05) 4. Glenn Morrison-Yvette (5:17) 5. Simon & Shaker-Panorama (5:45) 6. Ferdy & Matt Van Wyk-Dust Sucker (3:46) 7. Dl Remy-Knalpot (4:24) 8. Da Others-Viva La Vida (5:01) 9. Second Left feat.Soda-Escape (6:15) 10. The Nycer feat.Clarx-Naked (4:29) 11. Dumb Dan-Lights Are Low (6:15) 12. Richard Verschuren-Orbital (4:13) 13. MarLo-Ula (4:56) 14. Mischa Daniels vs ...

05
окт
2009

VA - Armada At Ibiza: The Closing Party 2009 (Unmixed Tracks) [2009, Trance, Uplifting Trance, MP3]

Формат: MP3, tracks, 320kbps
Год выпуска: 2009
Страна: All World
Жанр: Trance, Uplifting Trance
Продолжительность: 01:55:27
Описание: Tracklist 1. Andy Moor & Ashley Wallbridge Feat Meighan Nealon - Faces (8:32) 2. Gaia - Tuvan (8:09) 3. Simon And Shaker The Sundayprayers - La Noche Del Cometa (7:40) 4. Dash Berlin With Cerf Mitiska And Jaren - Man On The Run (Norman And Attalla Vocal Mix) (8:07) 5. Rex Mundi Feat Susana - Nothing At All (Elevation Remix) (8:28) 6. Dave Seaman & Josh Gabriel - Heyaah (8:19) 7. Way Out West - Only Love (Jerome Isma-Ae Remix) (8:17) 8. Dakota - Roxy 84 (Marcus ...

02
апр
2010

VA - Armada presents Trance Classics [02.04.2010, Trance, MP3]

Формат: MP3, tracks, 320kbps
Год выпуска: 02.04.2010
Страна: All World
Жанр: Trance
Продолжительность: 02:35:41
Описание: Tracklist CD1 01. Lustral – Broken (Echomen Mix) 02. Origene – Sanctuary (Harry Lemon Remix) 03. Mark Otten – Tranquility (Markus Schulz Coldharbour Remix) 04. Ridgewalkers feat. El – Find (Andy Moor Remix) 05. Markus Schulz presents Elevation – Largo 06. Solid Sessions – Janeiro 07. Armin van Buuren – Blue Fear 08. Signum feat. Scott Mac – Coming On Strong 09. Three ‘N One presents Johnny Shaker – Pearl River (Original 1997 Club Mix) 10. Pulser – My Religion 11. Insigma ...

24
мая
2011

VA - Armada North America Trance Tunes [18.04.2011, Trance, MP3]

Формат: MP3, tracks, 320kbps
Год выпуска: 18.04.2011
Страна: All World
Жанр: Trance
Продолжительность: 02:40:02
Описание: ] 01. Armin van Buuren presents Gaia - Status Excessu D [The Official A State Of Trance 500 Anthem] (Original Mix) [09:43] 02. Mike Foyle - Bittersweet Nightshade (Markus Schulz Return to Coldharbour Remix) [09:12] 03. Josh Gabriel presents Winter Kills - Winter Kills - My Friend (Original Mix) [07:53] 04. Andy Moor & Ashley Wallbridge feat. Meighan Nealon - Faces (Original Mix) [08:36] 05. Stafford Brothers with Dabruck & Klein feat. Ollie James - Get Away (Extended Mi ...

17
сен
2010

VA-Armada Presents Vocal Trance Sessions [16.09.2010, Trance, Vocal Trance, MP3]

Формат: MP3, image, 320kbps
Год выпуска: 16.09.2010
Страна: All World
Жанр: Trance, Vocal Trance
Продолжительность: 02:35:26
Описание: CD1 01. Susana & Mike Shiver – Give Me Faith (Vocal Mix) 02. Darren Tate vs Jono Grant – Let The Light Shine In 2010 (Arty Dub Mix) 03. Andrew Bennett feat. Sir Adrian – Run Till U Shine (Cosmic Gate Remix) 04. Armin van Buuren feat. Vera Ostrova – What If (Ohmna Remix) 05. Josh Gabriel presents Winter Kills – My Friend (Josh Gabriel Remix) 06. Max Graham feat. Ana Criado – Nothing Else Matters (Original Mix) 07. Anton Firtich feat. Victoria Mazze – Meant To B ...

14
июл
2011

VA - Armada Presents: Trance Essentials 2011 Vol. 1 [2011, Trance, FLAC]

Формат: FLAC, tracks, lossless
Год выпуска: 2011
Страна: All World
Жанр: Trance
Продолжительность: 02:35:09
Описание: VA - Armada PresentsCD 1: ============================== 01. Armin van Buuren ft Laura V - Drowning (Avicii Mix) 02. Kyau & Albert - Be There 4 U (Mat Zo Remix) 03. Marco V - Sticker 04. Wippenberg - U R 05. Jochen Miller - Troucid 06. Tiesto vs Diplo ft Busta Rhymes - C'Mon (Catch 'Em By Suprise)(Instrumental) 07. Orjan Nilsen - Mjuzik 08. Super8 & Tab ft Julie Thompson - My Enemy (Rank 1 Remix) 09. Marcel Woods - BPM (Kristof van den Berghe Remix) 10. W&W - AK-47 11. Ferry C ...

30
июн
2011

VA - Armada Presents Trance Essentials 2011 Vol 1 [30.06.2011, Trance, MP3]

Формат: MP3, (image), 255kbps
Год выпуска: 30.06.2011
Страна: Holland
Жанр: Trance
Продолжительность: 02:35:09
Описание: CD 1 01. Armin van Buuren feat. Laura V – Drowning (Avicii Radio Edit) (03:24) 02. Kyau & Albert – Be There 4 U (Mat Zo Remix) (08:05) 03. Marco V – Sticker (Original Mix) (06:30) 04. Wippenberg – U R (Edit) (03:08) 05. Jochen Miller – Troucid (Original Mix) (07:56) 06. Tiësto vs. Diplo feat. Busta Rhymes – C’Mon [Catch 'Em By Surprise] (Instrumental) (03:32) 07. Orjan Nilsen – Mjuzik (Album Mix) (05:07) 08. Super8 & Tab feat. Julie Thompson – My Enemy (Rank 1 Remix Edi ...

20
сен
2013

VA - Armada Presents: Trance Essentials 2013 Vol 2 [2013, Uplifting Trance, MP3]

Формат: MP3, (image + .cue), 257-261kbps [VBR]
Год выпуска: 2013
Страна: Holland
Жанр: Uplifting Trance
Продолжительность: 02:35:13
Описание: CD 101. Tiesto - Adagio For Strings (Blasterjaxx Remix) [02:18] 02. Above & Beyond - Walter White (Original Mix) [03:34] 03. Ilan Bluestone & Jerome Isma-Ae - Under My Skin (Original Mix) [03:12] 04. Chris Schweizer - Reflections (Original Mix) [01:27] 05. Antillas & Vitodito ft Fiora - Disconnected (Original Mix) [02:39] 06. Fisherman & Hawkins - Rude Awakening (Original Mix) [03:41] 07. W&W - Thunder (Original Mix) [02:03] 08. David Gravell - Bu ...

18
апр
2013

VA - Armada Presents Trance Essentials 2013 Vol.1 [2013, Uplifting Trance, MP3]

Формат: MP3, (image + .cue), 253-254kbps [VBR]
Год выпуска: 2013
Страна: All World
Жанр: Uplifting Trance
Продолжительность: 02:35:33
Описание: CD 101. Armin Van Buuren vs Arty - Nehalennia (Original Mix) [02:40] 02. Markus Schulz - The Spiritual Gateway (Transmission Theme 2013) (Original Mix) [02:18] 03. Paul Van Dyk ft Austin Leeds - Symmetries (Maarten De Jong Remix) [02:10] 04. Ferry Corsten - Kudawudashuda (Original Mix) [02:18] 05. Christian Burns with Maison & Dragen - Perfectly (MaRLo Remix) [03:34] 06. Toby Hedges - Sukha (Original Mix) [03:09] 07. Protoculture - Laguna (Origin ...

18
янв
2016

VA - Power Of Trance: The Ibiza Opening Session 60 Amazing Trance Tunes [2016, Trance, Uplifting Trance, Vocal Trance, MP3]

Формат: MP3, tracks, 320kbps
Год выпуска: 2016
Страна: All World
Жанр: Trance, Uplifting Trance, Vocal Trance
Продолжительность: 05:51:05
Описание: Tracklist01. Art Richie - Promises [03:59] 02. Ozcan Mninitro - Massive - 1 [07:50] 03. Sergey Pilipenko - Energy Flight [04:37] 04. Koddis - Fluffy Murderer [06:57] 05. Kalinskiy - Sun Light [04:58] 06. Anton Seim - Forces Are Necessary [07:12] 07. The Thirst For Flight - Wet Asphalt [04:37] 08. Sparkwell - Fiorina [06:54] 09. Snake - Space Theme [06:32] 10. Serzh Ginn - Singapore [04:50] 11. 2SHKAN - Oblivion [05:16] 12. Maxim Linemoon - Others [ ...

10
апр
2009

VA - Pacha Ibiza Winter 2CD (2009) [2009, House]

Формат: MP3, tracks, 192-320kbps [VBR]
Год выпуска: 2009
Страна: all world
Жанр: House
Продолжительность: 02:34:00
Описание: ТРЭКЛИСТCD 1: 01 - Pryda-Rakfunk 02 - Sia-Buttons (Chris Lake Remix) 03 - Sandy Rivera-I Can't Stop (David Penn Remix) 04 - Albino's Aligator-Cubalibera (Instrumental) 05 - Dario Nu?ez-Come With Me (Mark Trophy Remix) 06 - DJ Wady & Patick M-Hulk (Wady & Patrick M & Chus Vocal Mix) 07 - Axwell & Bob Sinclar-What A Wonderful World (Jorge Montia & Javi Mula Remix) 08 - Kurd Maverik-Blue Monday (Original Mix) 09 - Siderick-Deep Fear (Andrea Roma Remix) 10 - G-Club Present ...

19
июн
2010

VA - Ibiza Trance Tunes [06.2010, Trance, MP3]

Формат: MP3, tracks, 320kbps
Год выпуска: 06.2010
Страна: All World
Жанр: Trance
Продолжительность: 02:54:47
Описание: Tracklist 01. Roger Shah & Ralph Fritsch presents Black Pearl - Rise (Edit) (4:07) 02. M6 - The Flow (Original Mix Edit) (3:45) 03. Gold & Osborne - The Hunt Is On (Original Mix Edit) (4:12) 04. MIKE presents Plastic Boy - Chocolate Infusion (Original Mix Edit) (4:03) 05. Arctic Moon - True Romance (Original Mix Edit) (4:47) 06. Skytech - Comet (Original Mix Edit) (4:29) 07. Anton Firtich ft Victoria Mazze - Meant To Be Free (Original Mix Edit) (4:19) 08. Susana ft Omnia & The ...

24
июн
2011

VA - Ibiza Trance Tunes 2011 [24.06.2011, Trance, MP3]

Формат: MP3, tracks, 320kbps
Год выпуска: 24.06.2011
Страна: Holland
Жанр: Trance
Продолжительность: 02:40:36
Описание: Tracklist 01. Armin van Buuren ft Nadia Ali - Feels So Good (Radio Edit) [03:09] 02. Markus Schulz & Jochen Miller - Rotunda (Radio Edit) [02:01] 03. Paul Oakenfold - Tokyo (Original Mix Edit) [03:35] 04. John O'Callaghan & Betsie Larkin - Save This Moment (Radio Edit) [04:12] 05. Orjan Nilsen ft Neev Kennedy - Anywhere But Here (Radio Edit) [03:19] 06. Ernesto vs Bastian - Flight 101 (Radio Edit) [03:14] 07. W&W - AK-47 (Original Mix Edit) [03:56] 08. tyDi ft Brianna ...