16
июн
2013

Taylor Swift - Red (Target Exclusive Deluxe Edition) [2012, Pop, Country, FLAC]

Taylor Swift - Red
Формат: FLAC, tracks, lossless
Год выпуска: 2012
Страна: US
Жанр: Pop, Country
Продолжительность: 01:30:37

Описание:
CD1:
01. State of Grace [4:56]
02. Red [3:43]
03. Treacherous [4:03]
04. I Knew You Were Trouble [3:40]
05. All Too Well [5:29]
06. 22 [3:52]
07. I Almost Do [4:05]
08. We Are Never Ever Getting Back Together [3:13]
09. Stay Stay Stay [3:26]
10. The Last Time (feat. Gary Lightbody of Snow Patrol) [4:59]
11. Holy Ground [3:23]
12. Sad Beautiful Tragic [4:45]
13. The Lucky One [4:00]
14. Everything Has Changed (feat. Ed Sheeran) [4:05]
15. Starlight [3:41]
16. Begin Again [3:58]

CD2 - Deluxe Edition Bonus Tracks:
01. The Moment I Knew [4:47]
02. Come Back... Be Here [3:44]
03. Girl At Home [3:41]
04. Treacherous (Original Demo Recording) [4:00]
05. Red (Original Demo Recording) [3:47]
06. State of Grace (Acoustic Version) [5:23]



Доп. информация:
Издатель (лейбл): Big Machine Records
Log (100%) CD1

X Lossless Decoder version 20111015 (136.4)

XLD extraction logfile from 2012-10-22 14:18:28 +0000

Taylor Swift / Red

Used drive : OPTIARC DVD RW AD-5680H (revision 3AHB)

Ripper mode : XLD Secure Ripper
Disable audio cache : OK for the drive with a cache less than 1375KiB
Make use of C2 pointers : NO
Read offset correction : 48
Max retry count : 20
Gap status : Analyzed, Appended

TOC of the extracted CD
Track | Start | Length | Start sector | End sector
---------------------------------------------------------
1 | 00:00:00 | 04:55:54 | 0 | 22178
2 | 04:55:54 | 03:43:07 | 22179 | 38910
3 | 08:38:61 | 04:02:57 | 38911 | 57117
4 | 12:41:43 | 03:39:54 | 57118 | 73596
5 | 16:21:22 | 05:29:12 | 73597 | 98283
6 | 21:50:34 | 03:52:09 | 98284 | 115692
7 | 25:42:43 | 04:04:42 | 115693 | 134034
8 | 29:47:10 | 03:13:11 | 134035 | 148520
9 | 33:00:21 | 03:25:64 | 148521 | 163959
10 | 36:26:10 | 04:59:01 | 163960 | 186385
11 | 41:25:11 | 03:22:72 | 186386 | 201607
12 | 44:48:08 | 04:44:65 | 201608 | 222972
13 | 49:32:73 | 04:00:20 | 222973 | 240992
14 | 53:33:18 | 04:05:31 | 240993 | 259398
15 | 57:38:49 | 03:40:45 | 259399 | 275943
16 | 61:19:19 | 03:57:46 | 275944 | 293764

AccurateRip Summary
Disc not found in AccurateRip DB.

All Tracks
Album gain : -8.35 dB
Peak : 0.987396
Statistics
Read error : 0
Jitter error (maybe fixed) : 0
Retry sector count : 0
Damaged sector count : 0

Track 01
Filename : /01 - State Of Grace.flac
Pre-gap length : 00:02:00

Track gain : -7.86 dB
Peak : 0.949646
CRC32 hash (test run) : 8F631045
CRC32 hash : 8F631045
CRC32 hash (skip zero) : A3B782EB
AccurateRip signature : BFACF533
- Track not present in AccurateRip database.
Statistics
Read error : 0
Jitter error (maybe fixed) : 0
Retry sector count : 0
Damaged sector count : 0

Track 02
Filename : /02 - Red.flac
Pre-gap length : 00:00:40

Track gain : -10.05 dB
Peak : 0.966003
CRC32 hash (test run) : CE990D54
CRC32 hash : CE990D54
CRC32 hash (skip zero) : 3DC0C39E
AccurateRip signature : 212D6D13
- Track not present in AccurateRip database.
Statistics
Read error : 0
Jitter error (maybe fixed) : 0
Retry sector count : 0
Damaged sector count : 0

Track 03
Filename : /03 - Treacherous.flac
Pre-gap length : 00:02:20

Track gain : -8.70 dB
Peak : 0.968170
CRC32 hash (test run) : 135839D0
CRC32 hash : 135839D0
CRC32 hash (skip zero) : 56320633
AccurateRip signature : F8C47C94
- Track not present in AccurateRip database.
Statistics
Read error : 0
Jitter error (maybe fixed) : 0
Retry sector count : 0
Damaged sector count : 0

Track 04
Filename : /04 - I Knew You Were Trouble..flac
Pre-gap length : 00:01:74

Track gain : -8.01 dB
Peak : 0.987396
CRC32 hash (test run) : 36C63CB8
CRC32 hash : 36C63CB8
CRC32 hash (skip zero) : B49DA8BA
AccurateRip signature : EECA8749
- Track not present in AccurateRip database.
Statistics
Read error : 0
Jitter error (maybe fixed) : 0
Retry sector count : 0
Damaged sector count : 0

Track 05
Filename : /05 - All Too Well.flac
Pre-gap length : 00:01:56

Track gain : -8.33 dB
Peak : 0.949646
CRC32 hash (test run) : D7314F1A
CRC32 hash : D7314F1A
CRC32 hash (skip zero) : 0D55EB92
AccurateRip signature : 372AB6A5
- Track not present in AccurateRip database.
Statistics
Read error : 0
Jitter error (maybe fixed) : 0
Retry sector count : 0
Damaged sector count : 0

Track 06
Filename : /06 - 22.flac
Pre-gap length : 00:01:20

Track gain : -8.02 dB
Peak : 0.960663
CRC32 hash (test run) : 5EFFC323
CRC32 hash : 5EFFC323
CRC32 hash (skip zero) : 9CC35D88
AccurateRip signature : E1F45B3E
- Track not present in AccurateRip database.
Statistics
Read error : 0
Jitter error (maybe fixed) : 0
Retry sector count : 0
Damaged sector count : 0

Track 07
Filename : /07 - I Almost Do.flac
Pre-gap length : 00:01:74

Track gain : -7.91 dB
Peak : 0.965363
CRC32 hash (test run) : 068FDFC5
CRC32 hash : 068FDFC5
CRC32 hash (skip zero) : 32844F07
AccurateRip signature : B7785FCC
- Track not present in AccurateRip database.
Statistics
Read error : 0
Jitter error (maybe fixed) : 0
Retry sector count : 0
Damaged sector count : 0

Track 08
Filename : /08 - We Are Never Ever Getting Back Together.flac
Pre-gap length : 00:01:74

Track gain : -9.22 dB
Peak : 0.863373
CRC32 hash (test run) : E1ECD3B5
CRC32 hash : E1ECD3B5
CRC32 hash (skip zero) : 2AE55DAD
AccurateRip signature : 5DDDCDAE
- Track not present in AccurateRip database.
Statistics
Read error : 0
Jitter error (maybe fixed) : 0
Retry sector count : 0
Damaged sector count : 0

Track 09
Filename : /09 - Stay Stay Stay.flac
Pre-gap length : 00:01:20

Track gain : -7.85 dB
Peak : 0.959595
CRC32 hash (test run) : 534E9E72
CRC32 hash : 534E9E72
CRC32 hash (skip zero) : C8516D81
AccurateRip signature : EF367046
- Track not present in AccurateRip database.
Statistics
Read error : 0
Jitter error (maybe fixed) : 0
Retry sector count : 0
Damaged sector count : 0

Track 10
Filename : /10 - The Last Time [feat. Gary Lightbody of Snow Patrol].flac
Pre-gap length : 00:01:02

Track gain : -8.83 dB
Peak : 0.965149
CRC32 hash (test run) : 5229F89E
CRC32 hash : 5229F89E
CRC32 hash (skip zero) : 62176E3C
AccurateRip signature : 5D707649
- Track not present in AccurateRip database.
Statistics
Read error : 0
Jitter error (maybe fixed) : 0
Retry sector count : 0
Damaged sector count : 0

Track 11
Filename : /11 - Holy Ground.flac
Pre-gap length : 00:00:54

Track gain : -7.50 dB
Peak : 0.953339
CRC32 hash (test run) : 4FAFE5C3
CRC32 hash : 4FAFE5C3
CRC32 hash (skip zero) : 870E004C
AccurateRip signature : BC3EBAFA
- Track not present in AccurateRip database.
Statistics
Read error : 0
Jitter error (maybe fixed) : 0
Retry sector count : 0
Damaged sector count : 0

Track 12
Filename : /12 - Sad Beautiful Tragic.flac
Pre-gap length : 00:01:08

Track gain : -3.89 dB
Peak : 0.987244
CRC32 hash (test run) : 390EA901
CRC32 hash : 390EA901
CRC32 hash (skip zero) : A9D355AC
AccurateRip signature : B36983AD
- Track not present in AccurateRip database.
Statistics
Read error : 0
Jitter error (maybe fixed) : 0
Retry sector count : 0
Damaged sector count : 0

Track 13
Filename : /13 - The Lucky One.flac
Pre-gap length : 00:01:14

Track gain : -7.63 dB
Peak : 0.963593
CRC32 hash (test run) : CB584705
CRC32 hash : CB584705
CRC32 hash (skip zero) : 2E1ACECC
AccurateRip signature : FB479BB2
- Track not present in AccurateRip database.
Statistics
Read error : 0
Jitter error (maybe fixed) : 0
Retry sector count : 0
Damaged sector count : 0

Track 14
Filename : /14 - Everything Has Changed [feat. Ed Sheeran].flac
Pre-gap length : 00:00:10

Track gain : -8.29 dB
Peak : 0.961975
CRC32 hash (test run) : A09E4CCA
CRC32 hash : A09E4CCA
CRC32 hash (skip zero) : C0F98C84
AccurateRip signature : 0E2AA9B9
- Track not present in AccurateRip database.
Statistics
Read error : 0
Jitter error (maybe fixed) : 0
Retry sector count : 0
Damaged sector count : 0

Track 15
Filename : /15 - Starlight.flac
Pre-gap length : 00:01:36

Track gain : -7.77 dB
Peak : 0.959076
CRC32 hash (test run) : 9EDBF192
CRC32 hash : 9EDBF192
CRC32 hash (skip zero) : 7D72317A
AccurateRip signature : 49226BBF
- Track not present in AccurateRip database.
Statistics
Read error : 0
Jitter error (maybe fixed) : 0
Retry sector count : 0
Damaged sector count : 0

Track 16
Filename : /16 - Begin Again.flac
Pre-gap length : 00:02:58

Track gain : -6.96 dB
Peak : 0.949646
CRC32 hash (test run) : 3F2B8506
CRC32 hash : 3F2B8506
CRC32 hash (skip zero) : 79CF4900
AccurateRip signature : D0FCBE45
- Track not present in AccurateRip database.
Statistics
Read error : 0
Jitter error (maybe fixed) : 0
Retry sector count : 0
Damaged sector count : 0

No errors occurred

End of status report

Score: 100 (out of 100)

Details:

X Lossless Decoder version 20111015 (136.4)

XLD extraction logfile from 2012-10-22 14:59:15 +0000

Taylor Swift / Red - Target Exclusive Bonus CD

Used drive : OPTIARC DVD RW AD-5680H (revision 3AHB)

Ripper mode : XLD Secure Ripper
Disable audio cache : OK for the drive with a cache less than 1375KiB
Make use of C2 pointers : NO
Read offset correction : 48
Max retry count : 20
Gap status : Analyzed, Appended

TOC of the extracted CD
Track | Start | Length | Start sector | End sector
---------------------------------------------------------
1 | 00:00:00 | 04:46:46 | 0 | 21495
2 | 04:46:46 | 03:43:69 | 21496 | 38289
3 | 08:30:40 | 03:40:63 | 38290 | 54852
4 | 12:11:28 | 04:00:20 | 54853 | 72872
5 | 16:11:48 | 03:47:06 | 72873 | 89903
6 | 19:58:54 | 05:23:05 | 89904 | 114133

AccurateRip Summary
Disc not found in AccurateRip DB.

All Tracks
Album gain : -8.24 dB
Peak : 0.979034
Statistics
Read error : 0
Jitter error (maybe fixed) : 0
Retry sector count : 0
Damaged sector count : 0

Track 01
Filename : /01 - The Moment I Knew.flac
Pre-gap length : 00:02:00

Track gain : -8.14 dB
Peak : 0.970337
CRC32 hash (test run) : 2E4D08D7
CRC32 hash : 2E4D08D7
CRC32 hash (skip zero) : DC72538A
AccurateRip signature : 3A8961D5
- Track not present in AccurateRip database.
Statistics
Read error : 0
Jitter error (maybe fixed) : 0
Retry sector count : 0
Damaged sector count : 0

Track 02
Filename : /02 - Come Back... Be Here.flac
Pre-gap length : 00:01:05

Track gain : -8.51 dB
Peak : 0.956696
CRC32 hash (test run) : 30DAAD03
CRC32 hash : 30DAAD03
CRC32 hash (skip zero) : F638870B
AccurateRip signature : 28689FF6
- Track not present in AccurateRip database.
Statistics
Read error : 0
Jitter error (maybe fixed) : 0
Retry sector count : 0
Damaged sector count : 0

Track 03
Filename : /03 - Girl At Home.flac
Pre-gap length : 00:01:17

Track gain : -8.21 dB
Peak : 0.978638
CRC32 hash (test run) : 7A0A3B1B
CRC32 hash : 7A0A3B1B
CRC32 hash (skip zero) : 37838318
AccurateRip signature : 7DB62094
- Track not present in AccurateRip database.
Statistics
Read error : 0
Jitter error (maybe fixed) : 0
Retry sector count : 0
Damaged sector count : 0

Track 04
Filename : /04 - Treacherous [Original Demo Recording].flac
Pre-gap length : 00:00:40

Track gain : -7.09 dB
Peak : 0.964386
CRC32 hash (test run) : 5CC33D32
CRC32 hash : 5CC33D32
CRC32 hash (skip zero) : A925E320
AccurateRip signature : 18944B41
- Track not present in AccurateRip database.
Statistics
Read error : 0
Jitter error (maybe fixed) : 0
Retry sector count : 0
Damaged sector count : 0

Track 05
Filename : /05 - Red [Original Demo Recording].flac
Pre-gap length : 00:00:42

Track gain : -9.28 dB
Peak : 0.979034
CRC32 hash (test run) : 85968038
CRC32 hash : 85968038
CRC32 hash (skip zero) : 2FB5C5FD
AccurateRip signature : D32745FE
- Track not present in AccurateRip database.
Statistics
Read error : 0
Jitter error (maybe fixed) : 0
Retry sector count : 0
Damaged sector count : 0

Track 06
Filename : /06 - State Of Grace [Acoustic Version].flac
Pre-gap length : 00:00:61

Track gain : -2.11 dB
Peak : 0.947144
CRC32 hash (test run) : BEBE76E5
CRC32 hash : BEBE76E5
CRC32 hash (skip zero) : 199C9429
AccurateRip signature : AAE1737D
- Track not present in AccurateRip database.
Statistics
Read error : 0
Jitter error (maybe fixed) : 0
Retry sector count : 0
Damaged sector count : 0

No errors occurred

End of status report
Log (100%) CD2

X Lossless Decoder version 20111015 (136.4)

XLD extraction logfile from 2012-10-22 14:59:15 +0000

Taylor Swift / Red - Target Exclusive Bonus CD

Used drive : OPTIARC DVD RW AD-5680H (revision 3AHB)

Ripper mode : XLD Secure Ripper
Disable audio cache : OK for the drive with a cache less than 1375KiB
Make use of C2 pointers : NO
Read offset correction : 48
Max retry count : 20
Gap status : Analyzed, Appended

TOC of the extracted CD
Track | Start | Length | Start sector | End sector
---------------------------------------------------------
1 | 00:00:00 | 04:46:46 | 0 | 21495
2 | 04:46:46 | 03:43:69 | 21496 | 38289
3 | 08:30:40 | 03:40:63 | 38290 | 54852
4 | 12:11:28 | 04:00:20 | 54853 | 72872
5 | 16:11:48 | 03:47:06 | 72873 | 89903
6 | 19:58:54 | 05:23:05 | 89904 | 114133

AccurateRip Summary
Disc not found in AccurateRip DB.

All Tracks
Album gain : -8.24 dB
Peak : 0.979034
Statistics
Read error : 0
Jitter error (maybe fixed) : 0
Retry sector count : 0
Damaged sector count : 0

Track 01
Filename : /01 - The Moment I Knew.flac
Pre-gap length : 00:02:00

Track gain : -8.14 dB
Peak : 0.970337
CRC32 hash (test run) : 2E4D08D7
CRC32 hash : 2E4D08D7
CRC32 hash (skip zero) : DC72538A
AccurateRip signature : 3A8961D5
- Track not present in AccurateRip database.
Statistics
Read error : 0
Jitter error (maybe fixed) : 0
Retry sector count : 0
Damaged sector count : 0

Track 02
Filename : /02 - Come Back... Be Here.flac
Pre-gap length : 00:01:05

Track gain : -8.51 dB
Peak : 0.956696
CRC32 hash (test run) : 30DAAD03
CRC32 hash : 30DAAD03
CRC32 hash (skip zero) : F638870B
AccurateRip signature : 28689FF6
- Track not present in AccurateRip database.
Statistics
Read error : 0
Jitter error (maybe fixed) : 0
Retry sector count : 0
Damaged sector count : 0

Track 03
Filename : /03 - Girl At Home.flac
Pre-gap length : 00:01:17

Track gain : -8.21 dB
Peak : 0.978638
CRC32 hash (test run) : 7A0A3B1B
CRC32 hash : 7A0A3B1B
CRC32 hash (skip zero) : 37838318
AccurateRip signature : 7DB62094
- Track not present in AccurateRip database.
Statistics
Read error : 0
Jitter error (maybe fixed) : 0
Retry sector count : 0
Damaged sector count : 0

Track 04
Filename : /04 - Treacherous [Original Demo Recording].flac
Pre-gap length : 00:00:40

Track gain : -7.09 dB
Peak : 0.964386
CRC32 hash (test run) : 5CC33D32
CRC32 hash : 5CC33D32
CRC32 hash (skip zero) : A925E320
AccurateRip signature : 18944B41
- Track not present in AccurateRip database.
Statistics
Read error : 0
Jitter error (maybe fixed) : 0
Retry sector count : 0
Damaged sector count : 0

Track 05
Filename : /05 - Red [Original Demo Recording].flac
Pre-gap length : 00:00:42

Track gain : -9.28 dB
Peak : 0.979034
CRC32 hash (test run) : 85968038
CRC32 hash : 85968038
CRC32 hash (skip zero) : 2FB5C5FD
AccurateRip signature : D32745FE
- Track not present in AccurateRip database.
Statistics
Read error : 0
Jitter error (maybe fixed) : 0
Retry sector count : 0
Damaged sector count : 0

Track 06
Filename : /06 - State Of Grace [Acoustic Version].flac
Pre-gap length : 00:00:61

Track gain : -2.11 dB
Peak : 0.947144
CRC32 hash (test run) : BEBE76E5
CRC32 hash : BEBE76E5
CRC32 hash (skip zero) : 199C9429
AccurateRip signature : AAE1737D
- Track not present in AccurateRip database.
Statistics
Read error : 0
Jitter error (maybe fixed) : 0
Retry sector count : 0
Damaged sector count : 0

No errors occurred

End of status report
Содержание индексной карты (.CUE) CD1

TITLE "Red"
PERFORMER "Taylor Swift"
CATALOG 0843930007073
REM GENRE "Rock"
REM DATE "2012"
REM DISCNUMBER 1
REM TOTALDISCS 1
REM DISCID FA0F4C10
REM REPLAYGAIN_ALBUM_GAIN -8.35 dB
REM REPLAYGAIN_ALBUM_PEAK 0.987396
FILE "01 - State Of Grace.flac" WAVE
TRACK 01 AUDIO
TITLE "State Of Grace"
PERFORMER "Taylor Swift"
ISRC USCJY1231019
REM COMMENT "Big Machine / BMR310450A / US / 2012 / Target Exclusive Deluxe Edition"
REM REPLAYGAIN_TRACK_GAIN -7.86 dB
REM REPLAYGAIN_TRACK_PEAK 0.949646
INDEX 01 00:00:00
TRACK 02 AUDIO
TITLE "Red"
PERFORMER "Taylor Swift"
ISRC USCJY1231020
REM COMMENT "Big Machine / BMR310450A / US / 2012 / Target Exclusive Deluxe Edition"
REM REPLAYGAIN_TRACK_GAIN -10.05 dB
REM REPLAYGAIN_TRACK_PEAK 0.966003
INDEX 00 04:55:14
FILE "02 - Red.flac" WAVE
INDEX 01 00:00:00
TRACK 03 AUDIO
TITLE "Treacherous"
PERFORMER "Taylor Swift"
ISRC USCJY1231038
REM COMMENT "Big Machine / BMR310450A / US / 2012 / Target Exclusive Deluxe Edition"
REM REPLAYGAIN_TRACK_GAIN -8.70 dB
REM REPLAYGAIN_TRACK_PEAK 0.968170
INDEX 00 03:40:62
FILE "03 - Treacherous.flac" WAVE
INDEX 01 00:00:00
TRACK 04 AUDIO
TITLE "I Knew You Were Trouble."
PERFORMER "Taylor Swift"
ISRC USCJY1231039
REM COMMENT "Big Machine / BMR310450A / US / 2012 / Target Exclusive Deluxe Edition"
REM REPLAYGAIN_TRACK_GAIN -8.01 dB
REM REPLAYGAIN_TRACK_PEAK 0.987396
INDEX 00 04:00:58
FILE "04 - I Knew You Were Trouble..flac" WAVE
INDEX 01 00:00:00
TRACK 05 AUDIO
TITLE "All Too Well"
PERFORMER "Taylor Swift"
ISRC USCJY1231021
REM COMMENT "Big Machine / BMR310450A / US / 2012 / Target Exclusive Deluxe Edition"
REM REPLAYGAIN_TRACK_GAIN -8.33 dB
REM REPLAYGAIN_TRACK_PEAK 0.949646
INDEX 00 03:37:73
FILE "05 - All Too Well.flac" WAVE
INDEX 01 00:00:00
TRACK 06 AUDIO
TITLE "22"
PERFORMER "Taylor Swift"
ISRC USCJY1231040
REM COMMENT "Big Machine / BMR310450A / US / 2012 / Target Exclusive Deluxe Edition"
REM REPLAYGAIN_TRACK_GAIN -8.02 dB
REM REPLAYGAIN_TRACK_PEAK 0.960663
INDEX 00 05:27:67
FILE "06 - 22.flac" WAVE
INDEX 01 00:00:00
TRACK 07 AUDIO
TITLE "I Almost Do"
PERFORMER "Taylor Swift"
ISRC USCJY1231026
REM COMMENT "Big Machine / BMR310450A / US / 2012 / Target Exclusive Deluxe Edition"
REM REPLAYGAIN_TRACK_GAIN -7.91 dB
REM REPLAYGAIN_TRACK_PEAK 0.965363
INDEX 00 03:50:10
FILE "07 - I Almost Do.flac" WAVE
INDEX 01 00:00:00
TRACK 08 AUDIO
TITLE "We Are Never Ever Getting Back Together"
PERFORMER "Taylor Swift"
ISRC USCJY1231018
REM COMMENT "Big Machine / BMR310450A / US / 2012 / Target Exclusive Deluxe Edition"
REM REPLAYGAIN_TRACK_GAIN -9.22 dB
REM REPLAYGAIN_TRACK_PEAK 0.863373
INDEX 00 04:02:43
FILE "08 - We Are Never Ever Getting Back Together.flac" WAVE
INDEX 01 00:00:00
TRACK 09 AUDIO
TITLE "Stay Stay Stay"
PERFORMER "Taylor Swift"
ISRC USCJY1231023
REM COMMENT "Big Machine / BMR310450A / US / 2012 / Target Exclusive Deluxe Edition"
REM REPLAYGAIN_TRACK_GAIN -7.85 dB
REM REPLAYGAIN_TRACK_PEAK 0.959595
INDEX 00 03:11:66
FILE "09 - Stay Stay Stay.flac" WAVE
INDEX 01 00:00:00
TRACK 10 AUDIO
TITLE "The Last Time [feat. Gary Lightbody of Snow Patrol]"
PERFORMER "Taylor Swift"
ISRC USCJY1231041
REM COMMENT "Big Machine / BMR310450A / US / 2012 / Target Exclusive Deluxe Edition"
REM REPLAYGAIN_TRACK_GAIN -8.83 dB
REM REPLAYGAIN_TRACK_PEAK 0.965149
INDEX 00 03:24:62
FILE "10 - The Last Time [feat. Gary Lightbody of Snow Patrol].flac" WAVE
INDEX 01 00:00:00
TRACK 11 AUDIO
TITLE "Holy Ground"
PERFORMER "Taylor Swift"
ISRC USCJY1231042
REM COMMENT "Big Machine / BMR310450A / US / 2012 / Target Exclusive Deluxe Edition"
REM REPLAYGAIN_TRACK_GAIN -7.50 dB
REM REPLAYGAIN_TRACK_PEAK 0.953339
INDEX 00 04:58:22
FILE "11 - Holy Ground.flac" WAVE
INDEX 01 00:00:00
TRACK 12 AUDIO
TITLE "Sad Beautiful Tragic"
PERFORMER "Taylor Swift"
ISRC USCJY1231024
REM COMMENT "Big Machine / BMR310450A / US / 2012 / Target Exclusive Deluxe Edition"
REM REPLAYGAIN_TRACK_GAIN -3.89 dB
REM REPLAYGAIN_TRACK_PEAK 0.987244
INDEX 00 03:21:64
FILE "12 - Sad Beautiful Tragic.flac" WAVE
INDEX 01 00:00:00
TRACK 13 AUDIO
TITLE "The Lucky One"
PERFORMER "Taylor Swift"
ISRC USCJY1231043
REM COMMENT "Big Machine / BMR310450A / US / 2012 / Target Exclusive Deluxe Edition"
REM REPLAYGAIN_TRACK_GAIN -7.63 dB
REM REPLAYGAIN_TRACK_PEAK 0.963593
INDEX 00 04:43:51
FILE "13 - The Lucky One.flac" WAVE
INDEX 01 00:00:00
TRACK 14 AUDIO
TITLE "Everything Has Changed [feat. Ed Sheeran]"
PERFORMER "Taylor Swift"
ISRC USCJY1231044
REM COMMENT "Big Machine / BMR310450A / US / 2012 / Target Exclusive Deluxe Edition"
REM REPLAYGAIN_TRACK_GAIN -8.29 dB
REM REPLAYGAIN_TRACK_PEAK 0.961975
INDEX 00 04:00:10
FILE "14 - Everything Has Changed [feat. Ed Sheeran].flac" WAVE
INDEX 01 00:00:00
TRACK 15 AUDIO
TITLE "Starlight"
PERFORMER "Taylor Swift"
ISRC USCJY1231022
REM COMMENT "Big Machine / BMR310450A / US / 2012 / Target Exclusive Deluxe Edition"
REM REPLAYGAIN_TRACK_GAIN -7.77 dB
REM REPLAYGAIN_TRACK_PEAK 0.959076
INDEX 00 04:03:70
FILE "15 - Starlight.flac" WAVE
INDEX 01 00:00:00
TRACK 16 AUDIO
TITLE "Begin Again"
PERFORMER "Taylor Swift"
ISRC USCJY1231045
REM COMMENT "Big Machine / BMR310450A / US / 2012 / Target Exclusive Deluxe Edition"
REM REPLAYGAIN_TRACK_GAIN -6.96 dB
REM REPLAYGAIN_TRACK_PEAK 0.949646
INDEX 00 03:37:62
FILE "16 - Begin Again.flac" WAVE
INDEX 01 00:00:00
Содержание индексной карты (.CUE) CD2

TITLE "Red - Target Exclusive Bonus CD"
PERFORMER "Taylor Swift"
CATALOG 0843930007110
REM GENRE "Rock"
REM DATE "2012"
REM DISCNUMBER 1
REM TOTALDISCS 1
REM DISCID 3F05F106
REM REPLAYGAIN_ALBUM_GAIN -8.24 dB
REM REPLAYGAIN_ALBUM_PEAK 0.979034
FILE "01 - The Moment I Knew.flac" WAVE
TRACK 01 AUDIO
TITLE "The Moment I Knew"
PERFORMER "Taylor Swift"
ISRC USCJY1231025
REM COMMENT "Big Machine / BMR310450A / US / 2012 / Target Exclusive Deluxe Edition"
REM REPLAYGAIN_TRACK_GAIN -8.14 dB
REM REPLAYGAIN_TRACK_PEAK 0.970337
INDEX 01 00:00:00
TRACK 02 AUDIO
TITLE "Come Back... Be Here"
PERFORMER "Taylor Swift"
ISRC USCJY1231046
REM COMMENT "Big Machine / BMR310450A / US / 2012 / Target Exclusive Deluxe Edition"
REM REPLAYGAIN_TRACK_GAIN -8.51 dB
REM REPLAYGAIN_TRACK_PEAK 0.956696
INDEX 00 04:45:41
FILE "02 - Come Back... Be Here.flac" WAVE
INDEX 01 00:00:00
TRACK 03 AUDIO
TITLE "Girl At Home"
PERFORMER "Taylor Swift"
ISRC USCJY1231027
REM COMMENT "Big Machine / BMR310450A / US / 2012 / Target Exclusive Deluxe Edition"
REM REPLAYGAIN_TRACK_GAIN -8.21 dB
REM REPLAYGAIN_TRACK_PEAK 0.978638
INDEX 00 03:42:52
FILE "03 - Girl At Home.flac" WAVE
INDEX 01 00:00:00
TRACK 04 AUDIO
TITLE "Treacherous [Original Demo Recording]"
PERFORMER "Taylor Swift"
ISRC USCJY1231047
REM COMMENT "Big Machine / BMR310450A / US / 2012 / Target Exclusive Deluxe Edition"
REM REPLAYGAIN_TRACK_GAIN -7.09 dB
REM REPLAYGAIN_TRACK_PEAK 0.964386
INDEX 00 03:40:23
FILE "04 - Treacherous [Original Demo Recording].flac" WAVE
INDEX 01 00:00:00
TRACK 05 AUDIO
TITLE "Red [Original Demo Recording]"
PERFORMER "Taylor Swift"
ISRC USCJY1231048
REM COMMENT "Big Machine / BMR310450A / US / 2012 / Target Exclusive Deluxe Edition"
REM REPLAYGAIN_TRACK_GAIN -9.28 dB
REM REPLAYGAIN_TRACK_PEAK 0.979034
INDEX 00 03:59:53
FILE "05 - Red [Original Demo Recording].flac" WAVE
INDEX 01 00:00:00
TRACK 06 AUDIO
TITLE "State Of Grace [Acoustic Version]"
PERFORMER "Taylor Swift"
ISRC USCJY1231049
REM COMMENT "Big Machine / BMR310450A / US / 2012 / Target Exclusive Deluxe Edition"
REM REPLAYGAIN_TRACK_GAIN -2.11 dB
REM REPLAYGAIN_TRACK_PEAK 0.947144
INDEX 00 03:46:20
FILE "06 - State Of Grace [Acoustic Version].flac" WAVE
INDEX 01 00:00:00
Музыка / Lossless / Электронная музыка
СКАЧАТЬ БЕСПЛАТНО  [583.0 MB]


27
окт
2012

Taylor Swift - Red (Deluxe Edition) [2012, Pop, Country, MP3]

Формат: MP3, tracks, 320kbps
Год выпуска: 2012
Страна: USA
Жанр: Pop, Country
Продолжительность: 01:30:40
Описание: CD1, 01 01. State of Grace 02. Red 03. Treacherous 04. I Knew You Were Trouble 05. All Too Well 06. 22 07. I Almost Do 08. We Are Never Ever Getting Back Together 09. Stay Stay Stay 10. The Last Time (feat. Gary Lightbody of Snow Patrol) 11. Holy Ground 12. Sad Beautiful Tragic 13. The Lucky One 14. Everything Has Changed (feat. Ed Sheeran) 15. Starlight 16. Begin Again CD2, 00 01. The Moment I Knew 02. Come Back...Be Here 03. Girl At Home 04. Treacherous [Original Demo ...

10
янв
2012

Taylor Swift - Mean [2011, Pop, Country, HDTV]

Формат: HDTV, TS, MPEG2, AC3
Песня: Mean
Жанр: Pop, Country
Продолжительность: 00:04:04
Год выпуска: 2011
Видео: MPEG4 Video, 1920x1080, YUV (16:9), 29.97 fps, 18.1 Mbps, 0.242 bit/pixel
Аудио: 48.0 kHz, AC3, 2 ch, ~ 384 Kbps
Доп. информация: Тейлор Элисон Свифт — американская кантри певица и актриса. Автор песен, часто в соавторстве с другими поэтами и композиторами. В январе 2010 года Nielsen SoundScan назвал её наиболее успешным цифровым исполнителем в истории музыки (34,3 млн.цифровых продаж). В июне 2011 года Тейлор Свифт и Кэрри Андервуд стали единственными двумя представителями жанра ...

07
фев
2012

Taylor Swift - Ours [2011, Pop, Country, HDTVRip]

Формат: HDTVRip, MKV, Другой MPEG4, AAC
Песня: Ours
Жанр: Pop, Country
Продолжительность: 00:04:06
Год выпуска: 2011
Видео: MPEG4 Video, 1280x720, YUV (16:9), 23.97 fps, 6144 Kbps, 0.121 bit/pixel
Аудио: 44.1 kHz, AAC, 2 ch, ~ 196 Kbps
Доп. информация: Тейлор Элисон Свифт — американская кантри певица и актриса. Автор песен, часто в соавторстве с другими поэтами и композиторами. В январе 2010 года Nielsen SoundScan назвал её наиболее успешным цифровым исполнителем в истории музыки (34,3 млн.цифровых продаж). В июне 2011 года Тейлор Свифт и Кэрри Андервуд стали единственными двумя представител ...

10
янв
2012

Taylor Swift - You Belong With Me [2009, Pop, Country, HDTV]

Формат: HDTV, MKV, Другой MPEG4, AC3
Песня: You Belong With Me
Жанр: Pop, Country
Продолжительность: 00:03:46
Год выпуска: 2009
Видео: MPEG4 Video, 1920x1080, YUV (16:9), 23.97 fps, 8192 Kbps, 0.161 bit/pixel
Аудио: 48.0 kHz, AC3, 2 ch, ~ 384 Kbps
Доп. информация: Тейлор Элисон Свифт — американская кантри певица и актриса. Автор песен, часто в соавторстве с другими поэтами и композиторами. В январе 2010 года Nielsen SoundScan назвал её наиболее успешным цифровым исполнителем в истории музыки (34,3 млн.цифровых продаж). В июне 2011 года Тейлор Свифт и Кэрри Андервуд стали единственными двумя ...

25
апр
2012

Taylor Swift - Дискография [2006-2010, Pop, Country, MP3]

Формат: MP3, tracks, 320kbps
Год выпуска: 2006-2010
Страна: USA
Жанр: Pop, Country
Продолжительность: 05:04:44
Описание: 2006 - Taylor Swift, 00 01. Tim McGraw 02. Picture To Burn 03. Teardrops On My Guitar 04. A Place In This World 05. Cold As You Are 06. The Outside 07. Tied Together With A Smile 08. Stay Beautiful 09. Should've Said No 10. Mary's Song (Oh My My My) 11. Our Song Deluxe Edition: 12. I'm Only Me When I'm With You 13. Invisible 14. A Perfectly Good Heart 15. Taylor's 1st Phone Call With Tim McGraw 2008 - Fearless, 01 01. Fearless 02. Fifteen 03. Love Story ...

02
янв
2012

Taylor Swift - Crazier [2009, Pop, BDRip]

Формат: BDRip, MKV, Другой MPEG4, AC3
Песня: Crazier
Жанр: Pop
Продолжительность: 00:03:15
Год выпуска: 2009
Видео: MPEG4 Video, 1920x1032, YUV (16:9), 23.97 fps, 13.7 Mbps, 0.289 bit/pixel
Аудио: 48.0 kHz, AC3, 6 ch, ~ 448 Kbps
Доп. информация: Тейлор Элисон Свифт — американская кантри певица и актриса. Автор песен, часто в соавторстве с другими поэтами и композиторами. В январе 2010 года Nielsen SoundScan назвал её наиболее успешным цифровым исполнителем в истории музыки (34,3 млн.цифровых продаж). В июне 2011 года Тейлор Свифт и Кэрри Андервуд стали единственными двумя представителями жан ...

24
ноя
2017

Taylor Swift - reputation [2017, Pop, MP3]

Формат: MP3, tracks, 320kbps
Год выпуска: 2017
Страна: USA
Жанр: Pop
Продолжительность: 00:55:47
Описание: 01. ...Ready For It? 02. End Game (feat. Ed Sheeran & Future) 03. I Did Something Bad 04. Dont Blame Me 05. Delicate 06. Look What You Made Me Do 07. So It Goes... 08. Gorgeous 09. Getaway Car 10. King of My Heart 11. Dancing With Our Hands Tied 12. Dress 13. This Is Why We Cant Have Nice Things 14. Call It What You Want 15. New Years Day

09
янв
2012

Taylor Swift - Mine [2010, Pop, Country, HDTV]

Формат: HDTV, MP4, Другой MPEG4, AAC
Песня: Mine
Жанр: Pop, Country
Продолжительность: 00:03:55
Год выпуска: 2010
Видео: MPEG4 Video, 1920x1080, YUV (16:9), 24.39 fps, 19.8 Mbps, 0.074 bit/pixel
Аудио: 44.1 kHz, AAC, 2 ch, ~ 151 Kbps
Доп. информация: Тейлор Элисон Свифт — американская кантри певица и актриса. Автор песен, часто в соавторстве с другими поэтами и композиторами. В январе 2010 года Nielsen SoundScan назвал её наиболее успешным цифровым исполнителем в истории музыки (34,3 млн.цифровых продаж). В июне 2011 года Тейлор Свифт и Кэрри Андервуд стали единственными двумя представителям ...

08
дек
2010

Swift Taylor - Speak Now [2010, Pop, Country, MP3]

Формат: MP3, tracks, 320kbps
Год выпуска: 2010
Страна: USA
Жанр: Pop, Country
Продолжительность: 01:06:55
Описание: 1. Mine 2. Sparks Fly 3. Back To December 4. Speak Now 5. Dear John 6. Mean 7. The Story Of Us 8. Never Grow Up 9. Enchanted 10. Better Than Revenge 11. Innocent 12. Haunted 13. Last Kiss 14. Long Live 15. Ours 16. If This Was A Movie 17. Superman 18. Back To December (Acoustic) 19. Haunted (Acoustic) 20. Mine (US Version) 21. Back To December (US Version) 22. The Story Of Us(US version)

16
июн
2013

Taylor Swift - Speak Now (Target Exclusive Deluxe Edition) [2010, Pop, Country, FLAC]

Формат: FLAC, tracks, lossless
Год выпуска: 2010
Страна: US
Жанр: Pop, Country
Продолжительность: 01:32:25
Описание: Disc 1 - Album: 01. Mine 02. Sparks Fly 03. Back to December 04. Speak Now 05. Dear John 06. Mean 07. The Story of Us 08. Never Grow Up 09. Enchanted 10. Better Than Revenge 11. Innocent 12. Haunted 13. Last Kiss 14. Long Live Disc 2 - Target Exclusive Deluxe Edition Bonus CD: 01. Ours 02. If This Was a Movie 03. Superman 04. Back to December (acoustic) 05. Haunted (acoustic) 06. Mine (POP mix)
Доп. информация: Издатель (лейбл): Big Machine Records Об исполнителе (альбоме) Т ...

16
июн
2013

Taylor Swift - Fearless (Platinum Edition) [2009, Pop, Country, FLAC]

Формат: FLAC, tracks, lossless
Год выпуска: 2009
Страна: US
Жанр: Pop, Country
Продолжительность: 01:19:45
Описание: 01. Jump Then Fall [03:58] 02. Untouchable [05:12] 03. Forever & Always (Piano Version) [04:28] 04. Come In With The Rain [03:59] 05. Superstar [04:23] 06. The Other Side Of The Door [03:58] 07. Fearless [04:03] 08. Fifteen [04:55] 09. Love Story [03:56] 10. Hey Stephen [04:16] 11. White Horse [03:55] 12. You Belong With Me [03:52] 13. Breathe (Feat. Colbie Caillat) [04:25] 14. Tell Me Why [03:22] 15. You're Not Sorry [04:23] 16. The Way I Loved You [04:05] 17. Forever & Always ...

13
янв
2012

Taylor Swift - Journey To Fearless [2011, Pop, Country, BDRip]

Формат: BDRip, MKV, Другой MPEG4, DTS
Песня: Journey to Fearless
Жанр: Pop, Country
Продолжительность: 02:10:51
Год выпуска: 2011
Видео: MPEG4 Video, 1280x720, YUV (16:9), 29.97 fps, 4443 Kbps, 0.156 bit/pixel
Аудио: 48.0 kHz, DTS, 6 ch, ~ 1510 Kbps
Доп. информация: Тейлор Элисон Свифт — американская кантри певица и актриса. Автор песен, часто в соавторстве с другими поэтами и композиторами. В январе 2010 года Nielsen SoundScan назвал её наиболее успешным цифровым исполнителем в истории музыки (34,3 млн.цифровых продаж). В июне 2011 года Тейлор Свифт и Кэрри Андервуд стали единственными двум ...

10
янв
2012

Taylor Swift - White Horse [2009, Pop, Country, HDTV]

Формат: HDTV, TS, Другой MPEG4, AC3
Песня: White Horse
Жанр: Pop, Country
Продолжительность: 00:04:03
Год выпуска: 2009
Видео: MPEG4 Video, 1920x1080, YUV (16:9), 29.97 fps, 4840 Kbps, 0.104 bit/pixel
Аудио: 48.0 kHz, AC3, 2 ch, ~ 384 Kbps
Доп. информация: Тейлор Элисон Свифт — американская кантри певица и актриса. Автор песен, часто в соавторстве с другими поэтами и композиторами. В январе 2010 года Nielsen SoundScan назвал её наиболее успешным цифровым исполнителем в истории музыки (34,3 млн.цифровых продаж). В июне 2011 года Тейлор Свифт и Кэрри Андервуд стали единственными двумя представ ...

29
мар
2015

Taylor Swift - Blank Space [2014, Pop, WEBRip 1080p]

Формат: WEBRip, MP4, H.264, AAC
Песня: Blank Space
Жанр: Pop
Продолжительность: 00:04:32
Год выпуска: 2014
Видео: 1920x1080р (16:9), 23.976 fps, AVC (x264) High@L4.0, ~ 900kbps avg, 0.018 bit/pixel
Аудио: 44.1 kHz, AAC, (Front: L R) , 2 ch ~ 944Kbps avg
Доп. информация: MediaInfoGeneral Complete name : D:Taylor Swift - Blank Space.mp4 Format : dash Codec ID : dash File size : 62.7 MiB Duration : 4mn 32s Overall bit rate : 1 929 Kbps Encoded date : UTC 2014-11-13 17:15:49 Tagged date : UTC 2014-11-13 17:15:49 Video ID : 1 Format : AVC Format/Info : Advanced Video Codec Codec ID : avc1 Codec ...

14
янв
2011

Taylor Swift - Back To December [2011, Pop, HDTVRip]

Формат: HDTVRip, MPEG, Другой MPEG4, AAC
Песня: Back To December
Жанр: Pop
Продолжительность: 00:05:14
Год выпуска: 2011
Видео: MPEG4 Video, 1280x720, YUV (16:9), 24.39fps, 5971 kbps, 0.055 bit/pixel
Аудио: 44.1kHz, AAC, 2 ch, ~221 kbps avg
Доп. информация: Тейлор Элисон Свифт (англ. Taylor Alison Swift, род. 13 декабря 1989, Вайомиссинг, Пенсильвания, США) — американская исполнительница песен в стиле поп и кантри, актриса. Если хотите сказать "Спасибо", жмите "+" мне в [Профиль]