28
мар
2015

Каста - Музыка из альбомов [2005, Инструментал, FLAC]

Каста - Музыка из альбомов
Формат: FLAC, (tracks + .cue), lossless
Год выпуска: 2005
Страна: Россия
Жанр: Инструментал
Продолжительность: 01:19:32
Описание:

Треклист
01. На порядок выше
02. Горячее Время
03. Мы берем это на улицах
04. Ревность
05. Наши люди
06. Что нам делать в Греции
07. Сестра
08. Про Макса
09. Время
10. Черви ненависти
11. Вечер красит город
12. Гончая
13. Слово за слово
14. Юго-восточная Европа
15. Пир
16. Горячие трубы
17. Сказка
18. Летопись
19. Свободный стиль
20. Сколько воинов
21. Феникс
22. Призрак судного дня
23. Последний трек
24. Затмение
25. Нашим пацанам посвящается
26. Людям врядли
27. Бабка
28. Как создавался стиль
29. Кто будет пить с нами
30. Трехмерные рифмы
31. Радость битвы
32. Для великих открытий
33. Искусственный человек
34. Пляски
35. Под одним небом
36. Рефлекс борьбы
37. Пристань
38. Фальшивые Эм Си
39. Язычество
40. Секрет


Log EAC
Exact Audio Copy V1.0 beta 3 from 29. August 2011

Отчёт EAC об извлечении, выполненном 4. марта 2014, 16:09

Каста / Музыка из альбомов

Дисковод: HL-DT-STDVDRAM GU61N Adapter: 2 ID: 0

Режим чтения : Достоверность
Использование точного потока : Да
Отключение кэша аудио : Да
Использование указателей C2 : Нет

Коррекция смещения при чтении : 6
Способность читать области Lead-in и Lead-out : Нет
Заполнение пропущенных сэмплов тишиной : Да
Удаление блоков с тишиной в начале и конце : Нет
При вычислениях CRC использовались нулевые сэмплы : Да
Интерфейс : Встроенный Win32-интерфейс для Win NT/2000
Обработка зазоров : Добавлено к предыдущему треку

Выходной формат : Пользовательский кодировщик
Выбранный битрейт : 128 kBit/s
Качество : Высокий
Добавление ID3-тега : Нет
Утилита сжатия : C:Program Files (x86)Exact Audio CopyFlacflac.exe
Дополнительные параметры : -V -8 -T "Genre=%genre%" -T "Artist=%artist%" -T "Title=%title%" -T "Album=%albumtitle%" -T "Date=%year%" -T "Tracknumber=%tracknr%" %source%

TOC извлечённого CD

Трек | Старт | Длительность | Начальный сектор | Конечный сектор
---------------------------------------------------------------------
1 | 0:00.00 | 2:46.53 | 0 | 12502
2 | 2:46.53 | 2:52.62 | 12503 | 25464
3 | 5:39.40 | 2:46.49 | 25465 | 37963
4 | 8:26.14 | 2:15.24 | 37964 | 48112
5 | 10:41.38 | 2:57.48 | 48113 | 61435
6 | 13:39.11 | 2:00.45 | 61436 | 70480
7 | 15:39.56 | 2:01.62 | 70481 | 79617
8 | 17:41.43 | 2:00.27 | 79618 | 88644
9 | 19:41.70 | 1:56.02 | 88645 | 97346
10 | 21:37.72 | 2:01.49 | 97347 | 106470
11 | 23:39.46 | 1:51.61 | 106471 | 114856
12 | 25:31.32 | 2:07.52 | 114857 | 124433
13 | 27:39.09 | 1:47.48 | 124434 | 132506
14 | 29:26.57 | 1:14.20 | 132507 | 138076
15 | 30:41.02 | 2:01.73 | 138077 | 147224
16 | 32:43.00 | 1:39.73 | 147225 | 154722
17 | 34:22.73 | 1:39.73 | 154723 | 162220
18 | 36:02.71 | 1:59.62 | 162221 | 171207
19 | 38:02.58 | 1:28.72 | 171208 | 177879
20 | 39:31.55 | 2:03.49 | 177880 | 187153
21 | 41:35.29 | 1:39.01 | 187154 | 194579
22 | 43:14.30 | 1:58.19 | 194580 | 203448
23 | 45:12.49 | 1:51.17 | 203449 | 211790
24 | 47:03.66 | 1:59.73 | 211791 | 220788
25 | 49:03.64 | 1:10.66 | 220789 | 226104
26 | 50:14.55 | 2:11.31 | 226105 | 235960
27 | 52:26.11 | 1:49.71 | 235961 | 244206
28 | 54:16.07 | 1:58.60 | 244207 | 253116
29 | 56:14.67 | 1:48.38 | 253117 | 261254
30 | 58:03.30 | 1:48.30 | 261255 | 269384
31 | 59:51.60 | 1:56.55 | 269385 | 278139
32 | 61:48.40 | 2:05.01 | 278140 | 287515
33 | 63:53.41 | 2:05.55 | 287516 | 296945
34 | 65:59.21 | 1:57.46 | 296946 | 305766
35 | 67:56.67 | 1:51.58 | 305767 | 314149
36 | 69:48.50 | 1:45.38 | 314150 | 322062
37 | 71:34.13 | 2:05.13 | 322063 | 331450
38 | 73:39.26 | 2:04.14 | 331451 | 340764
39 | 75:43.40 | 1:48.08 | 340765 | 348872
40 | 77:31.48 | 2:01.25 | 348873 | 357972

Трек 1

Имя файла C:UsersЯDesktopКаста - Музыка из альбомов (2005, Respect Production, RPCD 034)1 На порядок выше.wav

Длина предзазора 0:00:02.00

Пиковый уровень 100.0 %
Скорость извлечения 2.8 X
Качество трека 100.0 %
CRC теста CFFB1F9F
CRC копии CFFB1F9F
Копирование... OK

Трек 2

Имя файла C:UsersЯDesktopКаста - Музыка из альбомов (2005, Respect Production, RPCD 034)2 Горячее Время.wav

Пиковый уровень 100.0 %
Скорость извлечения 3.0 X
Качество трека 100.0 %
CRC теста CDD8724B
CRC копии CDD8724B
Копирование... OK

Трек 3

Имя файла C:UsersЯDesktopКаста - Музыка из альбомов (2005, Respect Production, RPCD 034)3 Мы берем это на улицах.wav

Пиковый уровень 100.0 %
Скорость извлечения 2.7 X
Качество трека 99.9 %
CRC теста 826E2072
CRC копии 826E2072
Копирование... OK

Трек 4

Имя файла C:UsersЯDesktopКаста - Музыка из альбомов (2005, Respect Production, RPCD 034)4 Ревность.wav

Пиковый уровень 100.0 %
Скорость извлечения 3.1 X
Качество трека 100.0 %
CRC теста 30C0A2E8
CRC копии 30C0A2E8
Копирование... OK

Трек 5

Имя файла C:UsersЯDesktopКаста - Музыка из альбомов (2005, Respect Production, RPCD 034)5 Наши люди.wav

Пиковый уровень 100.0 %
Скорость извлечения 3.0 X
Качество трека 99.9 %
CRC теста F1BE7284
CRC копии F1BE7284
Копирование... OK

Трек 6

Имя файла C:UsersЯDesktopКаста - Музыка из альбомов (2005, Respect Production, RPCD 034)6 Что нам делать в Греции.wav

Пиковый уровень 100.0 %
Скорость извлечения 3.4 X
Качество трека 100.0 %
CRC теста 09BBD91D
CRC копии 09BBD91D
Копирование... OK

Трек 7

Имя файла C:UsersЯDesktopКаста - Музыка из альбомов (2005, Respect Production, RPCD 034)7 Сестра.wav

Пиковый уровень 100.0 %
Скорость извлечения 2.8 X
Качество трека 99.9 %
CRC теста 012BF944
CRC копии 012BF944
Копирование... OK

Трек 8

Имя файла C:UsersЯDesktopКаста - Музыка из альбомов (2005, Respect Production, RPCD 034)8 Про Макса.wav

Пиковый уровень 100.0 %
Скорость извлечения 1.5 X
Качество трека 100.0 %
CRC теста 1AB95EA4
CRC копии 1AB95EA4
Копирование... OK

Трек 9

Имя файла C:UsersЯDesktopКаста - Музыка из альбомов (2005, Respect Production, RPCD 034)9 Время.wav

Пиковый уровень 100.0 %
Скорость извлечения 1.5 X
Качество трека 100.0 %
CRC теста 4811C5E9
CRC копии 4811C5E9
Копирование... OK

Трек 10

Имя файла C:UsersЯDesktopКаста - Музыка из альбомов (2005, Respect Production, RPCD 034)10 Черви ненависти.wav

Пиковый уровень 100.0 %
Скорость извлечения 3.7 X
Качество трека 100.0 %
CRC теста AC044FBE
CRC копии AC044FBE
Копирование... OK

Трек 11

Имя файла C:UsersЯDesktopКаста - Музыка из альбомов (2005, Respect Production, RPCD 034)11 Вечер красит город.wav

Пиковый уровень 100.0 %
Скорость извлечения 1.6 X
Качество трека 100.0 %
CRC теста C2E784FA
CRC копии C2E784FA
Копирование... OK

Трек 12

Имя файла C:UsersЯDesktopКаста - Музыка из альбомов (2005, Respect Production, RPCD 034)12 Гончая.wav

Пиковый уровень 100.0 %
Скорость извлечения 1.7 X
Качество трека 100.0 %
CRC теста 59493A20
CRC копии 59493A20
Копирование... OK

Трек 13

Имя файла C:UsersЯDesktopКаста - Музыка из альбомов (2005, Respect Production, RPCD 034)13 Слово за слово.wav

Пиковый уровень 98.8 %
Скорость извлечения 1.7 X
Качество трека 100.0 %
CRC теста 625008E5
CRC копии 625008E5
Копирование... OK

Трек 14

Имя файла C:UsersЯDesktopКаста - Музыка из альбомов (2005, Respect Production, RPCD 034)14 Юго-восточная Европа.wav

Пиковый уровень 100.0 %
Скорость извлечения 1.5 X
Качество трека 100.0 %
CRC теста F93E5169
CRC копии F93E5169
Копирование... OK

Трек 15

Имя файла C:UsersЯDesktopКаста - Музыка из альбомов (2005, Respect Production, RPCD 034)15 Пир.wav

Пиковый уровень 100.0 %
Скорость извлечения 1.8 X
Качество трека 100.0 %
CRC теста 8CB052CE
CRC копии 8CB052CE
Копирование... OK

Трек 16

Имя файла C:UsersЯDesktopКаста - Музыка из альбомов (2005, Respect Production, RPCD 034)16 Горячие трубы.wav

Пиковый уровень 100.0 %
Скорость извлечения 1.7 X
Качество трека 100.0 %
CRC теста CAC9C432
CRC копии CAC9C432
Копирование... OK

Трек 17

Имя файла C:UsersЯDesktopКаста - Музыка из альбомов (2005, Respect Production, RPCD 034)17 Сказка.wav

Пиковый уровень 100.0 %
Скорость извлечения 1.7 X
Качество трека 100.0 %
CRC теста 36F61622
CRC копии 36F61622
Копирование... OK

Трек 18

Имя файла C:UsersЯDesktopКаста - Музыка из альбомов (2005, Respect Production, RPCD 034)18 Летопись.wav

Пиковый уровень 100.0 %
Скорость извлечения 1.5 X
Качество трека 99.9 %
CRC теста A12A2C14
CRC копии A12A2C14
Копирование... OK

Трек 19

Имя файла C:UsersЯDesktopКаста - Музыка из альбомов (2005, Respect Production, RPCD 034)19 Свободный стиль.wav

Пиковый уровень 100.0 %
Скорость извлечения 1.3 X
Качество трека 99.8 %
CRC теста 482AD3FD
CRC копии 482AD3FD
Копирование... OK

Трек 20

Имя файла C:UsersЯDesktopКаста - Музыка из альбомов (2005, Respect Production, RPCD 034)20 Сколько воинов.wav

Пиковый уровень 100.0 %
Скорость извлечения 1.9 X
Качество трека 100.0 %
CRC теста EA99F7D6
CRC копии EA99F7D6
Копирование... OK

Трек 21

Имя файла C:UsersЯDesktopКаста - Музыка из альбомов (2005, Respect Production, RPCD 034)21 Феникс.wav

Пиковый уровень 100.0 %
Скорость извлечения 1.9 X
Качество трека 100.0 %
CRC теста ED7D5BBA
CRC копии ED7D5BBA
Копирование... OK

Трек 22

Имя файла C:UsersЯDesktopКаста - Музыка из альбомов (2005, Respect Production, RPCD 034)22 Призрак судного дня.wav

Пиковый уровень 100.0 %
Скорость извлечения 2.0 X
Качество трека 100.0 %
CRC теста 091C2EBE
CRC копии 091C2EBE
Копирование... OK

Трек 23

Имя файла C:UsersЯDesktopКаста - Музыка из альбомов (2005, Respect Production, RPCD 034)23 Последний трек.wav

Пиковый уровень 100.0 %
Скорость извлечения 1.5 X
Качество трека 99.9 %
CRC теста 7CD01687
CRC копии 7CD01687
Копирование... OK

Трек 24

Имя файла C:UsersЯDesktopКаста - Музыка из альбомов (2005, Respect Production, RPCD 034)24 Затмение.wav

Пиковый уровень 100.0 %
Скорость извлечения 2.0 X
Качество трека 100.0 %
CRC теста B83842AD
CRC копии B83842AD
Копирование... OK

Трек 25

Имя файла C:UsersЯDesktopКаста - Музыка из альбомов (2005, Respect Production, RPCD 034)25 Нашим пацанам посвящается.wav

Пиковый уровень 100.0 %
Скорость извлечения 1.8 X
Качество трека 100.0 %
CRC теста D211A908
CRC копии D211A908
Копирование... OK

Трек 26

Имя файла C:UsersЯDesktopКаста - Музыка из альбомов (2005, Respect Production, RPCD 034)26 Людям врядли.wav

Пиковый уровень 100.0 %
Скорость извлечения 2.1 X
Качество трека 100.0 %
CRC теста F4E5E13A
CRC копии F4E5E13A
Копирование... OK

Трек 27

Имя файла C:UsersЯDesktopКаста - Музыка из альбомов (2005, Respect Production, RPCD 034)27 Бабка.wav

Пиковый уровень 100.0 %
Скорость извлечения 2.1 X
Качество трека 100.0 %
CRC теста B5CC2F71
CRC копии B5CC2F71
Копирование... OK

Трек 28

Имя файла C:UsersЯDesktopКаста - Музыка из альбомов (2005, Respect Production, RPCD 034)28 Как создавался стиль.wav

Пиковый уровень 98.8 %
Скорость извлечения 2.1 X
Качество трека 100.0 %
CRC теста 0A30376B
CRC копии 0A30376B
Копирование... OK

Трек 29

Имя файла C:UsersЯDesktopКаста - Музыка из альбомов (2005, Respect Production, RPCD 034)29 Кто будет пить с нами.wav

Пиковый уровень 100.0 %
Скорость извлечения 2.0 X
Качество трека 100.0 %
CRC теста F1234BB7
CRC копии F1234BB7
Копирование... OK

Трек 30

Имя файла C:UsersЯDesktopКаста - Музыка из альбомов (2005, Respect Production, RPCD 034)30 Трехмерные рифмы.wav

Пиковый уровень 100.0 %
Скорость извлечения 2.1 X
Качество трека 100.0 %
CRC теста A965721A
CRC копии A965721A
Копирование... OK

Трек 31

Имя файла C:UsersЯDesktopКаста - Музыка из альбомов (2005, Respect Production, RPCD 034)31 Радость битвы.wav

Пиковый уровень 98.6 %
Скорость извлечения 2.2 X
Качество трека 100.0 %
CRC теста 559A6AFC
CRC копии 559A6AFC
Копирование... OK

Трек 32

Имя файла C:UsersЯDesktopКаста - Музыка из альбомов (2005, Respect Production, RPCD 034)32 Для великих открытий.wav

Пиковый уровень 100.0 %
Скорость извлечения 2.2 X
Качество трека 100.0 %
CRC теста 5CC31FCB
CRC копии 5CC31FCB
Копирование... OK

Трек 33

Имя файла C:UsersЯDesktopКаста - Музыка из альбомов (2005, Respect Production, RPCD 034)33 Искусственный человек.wav

Пиковый уровень 100.0 %
Скорость извлечения 2.3 X
Качество трека 100.0 %
CRC теста 104F5938
CRC копии 104F5938
Копирование... OK

Трек 34

Имя файла C:UsersЯDesktopКаста - Музыка из альбомов (2005, Respect Production, RPCD 034)34 Пляски.wav

Пиковый уровень 100.0 %
Скорость извлечения 2.3 X
Качество трека 100.0 %
CRC теста F62C166A
CRC копии F62C166A
Копирование... OK

Трек 35

Имя файла C:UsersЯDesktopКаста - Музыка из альбомов (2005, Respect Production, RPCD 034)35 Под одним небом.wav

Пиковый уровень 100.0 %
Скорость извлечения 2.2 X
Качество трека 100.0 %
CRC теста EBBEE7FC
CRC копии EBBEE7FC
Копирование... OK

Трек 36

Имя файла C:UsersЯDesktopКаста - Музыка из альбомов (2005, Respect Production, RPCD 034)36 Рефлекс борьбы.wav

Пиковый уровень 100.0 %
Скорость извлечения 2.2 X
Качество трека 100.0 %
CRC теста 9D43B2E6
CRC копии 9D43B2E6
Копирование... OK

Трек 37

Имя файла C:UsersЯDesktopКаста - Музыка из альбомов (2005, Respect Production, RPCD 034)37 Пристань.wav

Пиковый уровень 100.0 %
Скорость извлечения 1.9 X
Качество трека 99.9 %
CRC теста 39246C13
CRC копии 39246C13
Копирование... OK

Трек 38

Имя файла C:UsersЯDesktopКаста - Музыка из альбомов (2005, Respect Production, RPCD 034)38 Фальшивые Эм Си.wav

Пиковый уровень 98.8 %
Скорость извлечения 1.9 X
Качество трека 99.9 %
CRC теста BE8EEFD1
CRC копии BE8EEFD1
Копирование... OK

Трек 39

Имя файла C:UsersЯDesktopКаста - Музыка из альбомов (2005, Respect Production, RPCD 034)39 Язычество.wav

Пиковый уровень 100.0 %
Скорость извлечения 2.3 X
Качество трека 100.0 %
CRC теста 0F965AC2
CRC копии 0F965AC2
Копирование... OK

Трек 40

Имя файла C:UsersЯDesktopКаста - Музыка из альбомов (2005, Respect Production, RPCD 034)40 Секрет.wav

Пиковый уровень 100.0 %
Скорость извлечения 2.4 X
Качество трека 100.0 %
CRC теста E5612486
CRC копии E5612486
Копирование... OK

Ошибок не произошло

Конец отчёта

==== Контрольная сумма отчёта E2365367C425258A305420F7768933FC50CD69F04F96357F2FE9BF65420774C8 ====
Музыка / Lossless / Электронная музыка
СКАЧАТЬ БЕСПЛАТНО  [466.3 MB]


28
мар
2015

Каста - Инструментальная Музыка (при уч. Ансамбль Ростовской Консерватории) [2011, Инструментал, FLAC]

Формат: FLAC, (tracks + .cue), lossless
Год выпуска: 2011
Страна: Россия
Жанр: Инструментал
Продолжительность: 01:08:09
Описание: 01. Куда Надо Смотреть 02. В Супермаркете 03. Ды-Ды-Дым 04. Наши Люди 05. Встреча 06. Юго-Восточная Европа 07. Вокруг Шум 08. Кореша 09. Номерок 10. Нормально Все 11. Ревность 12. На Крыльях Любви / Песня Для Радио / Из Окна 13. На Порядок Выше 14. Радиосигналы 15. Сестра 16. Гончая 17. Горячее Время 18. Какой-то Вася 19. Песенка Винни-Пуха Log EACExact Audio Copy V1.0 beta 3 from 29. August 2011 Отчёт EAC об извлечении, выполненном 7. июля 2014, 1:04 Каста и ...

15
авг
2011

Каста и Ансамбль Ростовской Консерватории - Инструментальная Музыка [2011, Instrumental Hip-Hop, MP3]

Формат: MP3, tracks, 320kbps
Год выпуска: 2011
Страна: Россия
Жанр: Instrumental Hip-Hop
Продолжительность: 01:07:35
Описание: 01. Куда надо смотреть [03:52] 02. В супермаркете [03:40] 03. Ды-Ды-Дым [03:52] 04. Наши Люди [03:37] 05. Встреча [02:54] 06. Юго-Восточная Европа [03:59] 07. Вокруг шум [03:43] 08. Кореша [03:49] 09. Номерок [03:19] 10. Нормально все [03:32] 11. Ревность [03:01] 12. На крыльях любви, Песня для радио, Из окна [05:14] 13. На порядок выше [03:59] 14. Радиосигналы [03:52] 15. Сестра [03:29] 16. Гончая [03:33] 17. Горячее время [03:25] 18. Какой-то вася [02:11] 19. Песенка ...

05
ноя
2007

Инструментальная музыка.(30 альбомов) все хиты! (2005) [mp3, 256]

Страна: Россия
Год выпуска: 2005
Жанр: Инструментальная музыка
Продолжительность: 38 часов 22 минуты
Формат: MP3
Битрейт аудио: 256 Kbps, 44100 kHz Трэклист 1. P.Mauriat - From Souvenirs ti Souvinirs (2:50) 2. R.King - Primavera (3:09) 3. A.Hassan - Arabian affair #4 (3:43) 4. A.Ventura - Per lucia (5:00) 5. R.King - Tum Balalaika (2:00) 6. G.Nourris - La chanson d'Orhee (2:53) 7. R.Clayderman - A comme amour (3:16) 8. S.Preux - From the 7 cities (5:48) 9. O.Libert - Barselona nights (4:05) 10. Various - Ennio Morricone / Chi Mai (5:06) 11. F Papetty - Strangers in the night (2:39) ...

24
мая
2014

Контра (В .Гогин) - Песни из редких альбомов [1990-2004, Шансон, MP3]

Формат: MP3, tracks, 128-320kbps
Год выпуска: 1990-2004
Страна: Беларусь
Жанр: Шансон
Продолжительность: 00:54:56
Описание: 01. В чём же наша вина,господа офицеры 02. Батька Махно 03. Волюшка 04. Чайки 05. Максимка-пулемет 06. Конь 07. Щучьи потроха 08. Между океанами 09. Сочи 10. Блюз,Максимка пулемёт (Юрмала) 11. Бабы-последнее дело... 12. Украина гол (на украинском) 13. Батька Махно,Понты (Юрмала) Записи из моего Архива

20
ноя
2011

Эффект Моцарта - Музыка для новорожденных. Музыка для малышей. Музыка для детей [1999, Classic, MP3]

Формат: MP3, tracks, 192kbps-256kbps
Год выпуска: 1999
Страна: Германия
Жанр: Classic
Продолжительность: 02:29:10
Описание: Музыка для новорожденных - 192 kbps, 00 Треклист 1. Rondo in C Major 2. Finale Molto allegro V from Sinfonie in D 3. Variations on Ah vous dirai-je Maman 4. Allegro assai IX from Lodron Night Music 5. Theme Variations from Seranade No 10 B Major 6. Romance & Adagio from Serenade No 10 B Major 7. Andante II from Serenade No 3 in D Major 8. Andante grazioso V from Serenade No 3 D Major 9. Andante II from Serenade No 4 in D Major 10. Adagio III from Divertimento in D ...

03
мая
2007

(Авторская песня) Сергей и Татьяна Никитины - Сборник из 9 альбомов (2002) [mp3, 192]

Страна: СССР
Год выпуска: 2002
Жанр: Бардовская песня
Продолжительность: 8 часов 16 минут
Формат: MP3
Битрейт аудио: 192 kb/s
Трэклист: 01. Квартет п/у Сергея Никитина (1967) 02. Квинтет п/у Сергея Никитина (1971-75) 03. Запись шестидесятых и семидесятых годов 04. Брич-Мулла (1997) 05. Девочка и пластилин (1998) 06. Со мною вот что происходит (1999) 07. Татьяна и Сергей Никитины - Из серии "Российские барды" 08. Резиновый ежик (2002) 09. Черно-белое кино (2002)
Доп. информация: НИКИТИН Сергей Яковлевич родился 8 марта 1944 г. в Москве; 1962 окончил среднюю школу 1962-68 учеба на физическом фак ...

02
окт
2009

Песни группы Plain White T's из разных альбомов[2006, Punk, MP3]

Формат: MP3, tracks, 256-320kbps
Год выпуска: 2006-2008
Страна: США
Жанр: Punk / Rock
Продолжительность: 00:14:35 1. Hey There Delilah 2. Hate (i really don't like you) 3. Someday 4. 1, 2, 3, 4

11
апр
2009

Каста - The Best [2009, Rap, Hip-Hop]

Формат: MP3, tracks, 320kbps
Год выпуска: 2009
Страна: Россия
Жанр: Rap, Hip-Hop
Продолжительность: 01:18:48
Описание: 01 На порядок выше 02 Мы берем это на улицах 03 Ревность 04 Наши люди 05 Сестра 06 Вокруг шум 07 Юго-восточная Европа 08 Горячее время 09 Ды-ды-дым 10 Радиосигналы 11 Про Макса 12 Гончая 13 Сказка 14 По приколу 15 Куда надо смотреть 16 Нашим пацанам посвящается 17 Встреча 18 Номерок п/у Крестная Семья 19 Сколько воинов 20 Под одним небом 21 По голове себе постучи 22 Тоска (Змей/Грани)
Доп. информация: В состав пластинки вошли треки, которые знают наизусть сотни тысяч людей, ко ...

26
мар
2015

Каста - The Best (лучшее) [2009, Рэп, Хип-хоп, FLAC]

Формат: FLAC, (tracks + .cue), lossless
Год выпуска: 2009
Страна: Россия
Жанр: Рэп, Хип-хоп
Продолжительность: 01:19:37
Описание: 01. На порядок выше 02. Ревность 03. Наши люди 04. Мы берем это на улицах 05. Вокруг шум 06. Горячее время 07. Сестра 08. Радиосигналы 09. Про Макса 10. Юго-восточная Европа 11. Куда надо смотреть 12. Гончая 13. Ды-ды-дым 14. Сказка 15. Номерок уч. Крестная Семья 16. Нашим пацанам посвящается 17. Встреча 18. По приколу 19. Под одним небом 20. Тоска 21. Сколько воинов 22. По голове себе постучи Log EACExact Audio Copy V1.0 beta 3 from 29. August 2011 Отчёт EAC о ...

16
июл
2009

Каста

Формат: HDTV, AVI, XviD, MP3
Исполнитель: Каста
Песня: Клипы
Жанр: Rap
Продолжительность: 46:11
Год выпуска: 2002-2009
Видео: 720x576 (1.25:1), 25 fps, XviD MPEG-4 ~3458 kbps avg, 0.36 bit/pixel
Аудио: 48 kHz, MPEG Layer 3, 2 ch, ~256.00 kbps avg
Доп. информация: Каста - Вокруг шум Каста - Встреча Каста - Горячее время Каста - Мы берем это на улицах Каста - На Порядок Выше Каста - Наши Люди Каста - Про Макса Каста - Радиосигналы Каста - Сестра Каста - Я остаюсь такимже Каста ft. Густаво - Глупо Но Класс Каста ft. Крестная Семья - Номерок Хамиль ft. Песочные люди - Черви ненависти.

15
фев
2011

Каста - Метла [2011, Hip-Hop, DVDScreener]

Формат: DVDScreener, MPEG, Другой MPEG4, AAC
Песня: Метла
Жанр: Hip-Hop
Продолжительность: 00:04:21
Год выпуска: 2011
Видео: 854x480 (16:9), 24 fps, другой MPEG-4 ~2543 Kbps avg, 0.26 bit/pixel
Аудио: 44.1 kHz, AAC, 2 ch, ~152 kbps avg
Доп. информация: Пемьера состоялась в ночь с 29 на 30 января по МУЗ-ТВ
Режиссер: Виктор
Вилкс, оператор: Д. Грибанов, П. Владимирский. Снято в Риге, студия "Vilks Post". Рекорд-лейбл "Respect Production"

20
дек
2008

Каста-Радиосигналы [2008, Рэп]

Формат: DVDRip, AVI, DivX, MP3
Исполнитель: Каста
Песня: Радиосигналы
Жанр: Рэп
Продолжительность: 03:48
Год выпуска: 2008
Видео: DivX 5 720x480 25.00fps 1070Kbps
Аудио: MPEG Audio Layer 3 44100Hz stereo 95Kbps

04
дек
2008

Каста-Встреча [2008, Рэп]

Формат: DVDRip, AVI, XviD, MP3
Исполнитель: Каста
Песня: Встреча
Жанр: Рэп
Продолжительность: 03:23
Год выпуска: 2008
Видео: XVID 592x336 25.00fps 2155Kbps
Аудио: MPEG Audio Layer 3 44100Hz stereo 256Kbps

07
июл
2010

Каста - ХЗ [2010, Rap, FLAC]

Формат: FLAC, tracks, lossless
Год выпуска: 2010
Страна: Россия
Жанр: Rap
Продолжительность: 01:07:26
Описание: 01 Это прет (муз. Прометей) 02 Метла (муз. Влади) 03 ХЗ (муз. Прометей) 04 Пятница (муз. Прометей и Влади) 05 Когда я пишу (муз. Прометей и Влади) 06 Закрытый космос (муз. Прометей и Влади) 07 Шу-Бу-Дам /уч. Крестная семья, Искра (муз. DJ Хобот) 08 Прыгать высоко (муз. Влади) 09 Миллиард лет /уч. Влади и Шым (муз. Влади) 10 Самый счастливый человек (муз. Музаскат) 11 В зоопарке (скит) 12 Бананы, гориллы (муз. Прометей и Влади) 13 Встретимся у холодильника (муз. DJ Хобот) 14 Заза и Б ...

07
окт
2009

Каста - Сестра [2005, Rap, DVDRip]

Формат: DVDRip, AVI, DivX, MP3
Песня: Сестра
Жанр: Rap
Продолжительность: 03:30
Год выпуска: 2005
Видео: DivX 5 352x288 25.00fps
Аудио: MPEG Audio Layer 3 48000Hz stereo 128Kbps