25
дек
2016

Erasure - 4. Singles (5CD Box Set, Remastered) [2001, House, Synth-pop, Trance, Electronic, FLAC]

Erasure - 4. Singles (5CD Box Set, Remastered)
Формат: FLAC, (tracks + .cue), lossless
Год выпуска: 2001
Страна: EU
Жанр: House, Synth-pop, Trance, Electronic
Продолжительность: 03:18:21
Описание:
CD 1 Chorus 00
Erasure - 4. Singles 1. Chorus (04:31)
2. Over The Rainbow (03:31)
3. Chorus (Pure Trance Mix) (05:14)
4. Snappy (The Spice Has Risen Mix) (05:16)
5. Chorus (Transdental Trance Mix) (05:19)
6. Snappy (12" Remix Edit) (05:20)
7. Chorus (Aggressive Trance Mix) (08:50)

eac
Exact Audio Copy V1.0 beta 3 from 29. August 2011

EAC extraction logfile from 10. September 2016, 13:18

Erasure / EBX 4 [CD1] Chorus

Used drive : ATAPI DVD A DH16A6S Adapter: 2 ID: 1

Read mode : Secure
Utilize accurate stream : Yes
Defeat audio cache : Yes
Make use of C2 pointers : No

Read offset correction : 6
Overread into Lead-In and Lead-Out : No
Fill up missing offset samples with silence : Yes
Delete leading and trailing silent blocks : No
Null samples used in CRC calculations : Yes
Used interface : Native Win32 interface for Win NT & 2000
Gap handling : Appended to previous track

Used output format : User Defined Encoder
Selected bitrate : 1024 kBit/s
Quality : High
Add ID3 tag : No
Command line compressor : C:Program FilesExact Audio CopyFlacflac.exe
Additional command line options : -8 -V -T "ARTIST=%artist%" -T "TITLE=%title%" -T "ALBUM=%albumtitle%" -T "DATE=%year%" -T "TRACKNUMBER=%tracknr%" -T "GENRE=%genre%" -T "PERFORMER=%albuminterpret%" -T "COMPOSER=%composer%" %haslyrics%--tag-from-file=LYRICS="%lyricsfile%"%haslyrics% -T "ALBUMARTIST=%albumartist%" -T "DISCNUMBER=%cdnumber%" -T "TOTALDISCS=%totalcds%" -T "TOTALTRACKS=%numtracks%" -T "COMMENT=%comment%" %source% -o %dest%

TOC of the extracted CD

Track | Start | Length | Start sector | End sector
---------------------------------------------------------
1 | 0:00.00 | 4:31.25 | 0 | 20349
2 | 4:31.25 | 3:30.53 | 20350 | 36152
3 | 8:02.03 | 5:14.02 | 36153 | 59704
4 | 13:16.05 | 5:16.30 | 59705 | 83434
5 | 18:32.35 | 5:19.28 | 83435 | 107387
6 | 23:51.63 | 5:20.20 | 107388 | 131407
7 | 29:12.08 | 8:50.15 | 131408 | 171172

Track 1

Filename C:EAC ripsebx44.11 - Chorus.wav

Pre-gap length 0:00:02.00

Peak level 100.0 %
Extraction speed 1.1 X
Track quality 100.0 %
Test CRC 06ED26BD
Copy CRC 06ED26BD
Accurately ripped (confidence 11) [84E92244] (AR v2)
Copy OK

Track 2

Filename C:EAC ripsebx44.12 - Over The Rainbow.wav

Pre-gap length 2:03:46.80

Peak level 100.0 %
Extraction speed 1.0 X
Track quality 100.0 %
Test CRC 78284132
Copy CRC 78284132
Accurately ripped (confidence 12) [F8C8D85A] (AR v2)
Copy OK

Track 3

Filename C:EAC ripsebx44.13 - Chorus [Pure Trance Mix].wav

Pre-gap length 2:03:46.13

Peak level 100.0 %
Extraction speed 1.0 X
Track quality 99.9 %
Test CRC 0BC9D26E
Copy CRC 0BC9D26E
Accurately ripped (confidence 11) [D6F1E625] (AR v2)
Copy OK

Track 4

Filename C:EAC ripsebx44.14 - Snappy [The Spice Has Risen Mix].wav

Pre-gap length 2:03:46.29

Peak level 100.0 %
Extraction speed 1.0 X
Track quality 99.9 %
Test CRC DC804599
Copy CRC DC804599
Accurately ripped (confidence 11) [AE54FF7D] (AR v2)
Copy OK

Track 5

Filename C:EAC ripsebx44.15 - Chorus [Transdental Trance Mix].wav

Pre-gap length 2:03:46.29

Peak level 100.0 %
Extraction speed 1.0 X
Track quality 99.9 %
Test CRC 69F26BCE
Copy CRC 69F26BCE
Accurately ripped (confidence 11) [A5DEE5B3] (AR v2)
Copy OK

Track 6

Filename C:EAC ripsebx44.16 - Snappy.wav

Pre-gap length 2:03:46.90

Peak level 100.0 %
Extraction speed 1.1 X
Track quality 100.0 %
Test CRC 4ED917CE
Copy CRC 4ED917CE
Accurately ripped (confidence 12) [87E659BA] (AR v2)
Copy OK

Track 7

Filename C:EAC ripsebx44.17 - Chorus [Aggressive Trance Mix].wav

Pre-gap length 2:03:46.48

Peak level 100.0 %
Extraction speed 1.0 X
Track quality 99.9 %
Test CRC 9F50E198
Copy CRC 9F50E198
Accurately ripped (confidence 11) [DD816A72] (AR v2)
Copy OK

All tracks accurately ripped

No errors occurred

End of status report

==== Log checksum D676632D164B5876A0ACA4A1014E2CA3FF0B059190CD5FA6ED8577B010FE35FD ====
CD 2 Love To Hate You 00
Erasure - 4. Singles 1. Love To Hate You (03:58 )
2. Vitamin C (03:38 )
3. Love To Hate You (12" Mix) (05:52)
4. Vitamin C (12" Mix) (05:11)
5. La La La (04:13)
6. Love To Hate You (Bruce Forest Mix) (07:37)

eac
Exact Audio Copy V1.0 beta 3 from 29. August 2011

EAC extraction logfile from 10. September 2016, 14:18

Erasure / EBX 4 [CD2] Love To Hate You

Used drive : ATAPI DVD A DH16A6S Adapter: 2 ID: 1

Read mode : Secure
Utilize accurate stream : Yes
Defeat audio cache : Yes
Make use of C2 pointers : No

Read offset correction : 6
Overread into Lead-In and Lead-Out : No
Fill up missing offset samples with silence : Yes
Delete leading and trailing silent blocks : No
Null samples used in CRC calculations : Yes
Used interface : Native Win32 interface for Win NT & 2000
Gap handling : Appended to previous track

Used output format : User Defined Encoder
Selected bitrate : 1024 kBit/s
Quality : High
Add ID3 tag : No
Command line compressor : C:Program FilesExact Audio CopyFlacflac.exe
Additional command line options : -8 -V -T "ARTIST=%artist%" -T "TITLE=%title%" -T "ALBUM=%albumtitle%" -T "DATE=%year%" -T "TRACKNUMBER=%tracknr%" -T "GENRE=%genre%" -T "PERFORMER=%albuminterpret%" -T "COMPOSER=%composer%" %haslyrics%--tag-from-file=LYRICS="%lyricsfile%"%haslyrics% -T "ALBUMARTIST=%albumartist%" -T "DISCNUMBER=%cdnumber%" -T "TOTALDISCS=%totalcds%" -T "TOTALTRACKS=%numtracks%" -T "COMMENT=%comment%" %source% -o %dest%

TOC of the extracted CD

Track | Start | Length | Start sector | End sector
---------------------------------------------------------
1 | 0:00.00 | 3:58.30 | 0 | 17879
2 | 3:58.30 | 3:37.53 | 17880 | 34207
3 | 7:36.08 | 5:52.25 | 34208 | 60632
4 | 13:28.33 | 5:10.67 | 60633 | 83949
5 | 18:39.25 | 4:12.73 | 83950 | 102922
6 | 22:52.23 | 7:37.30 | 102923 | 137227

Track 1

Filename C:EAC ripsebx44.21 - Love To Hate You.wav

Pre-gap length 0:00:02.00

Peak level 100.0 %
Extraction speed 1.6 X
Track quality 99.9 %
Test CRC 6A02A757
Copy CRC 6A02A757
Accurately ripped (confidence 11) [AF85369B] (AR v2)
Copy OK

Track 2

Filename C:EAC ripsebx44.22 - Vitamin C.wav

Pre-gap length 0:00:01.53

Peak level 100.0 %
Extraction speed 2.0 X
Track quality 100.0 %
Test CRC 70237833
Copy CRC 70237833
Accurately ripped (confidence 12) [42D3BCA5] (AR v2)
Copy OK

Track 3

Filename C:EAC ripsebx44.23 - Love To Hate You [Remixed By Paul Dakeyne].wav

Pre-gap length 0:00:01.77

Peak level 100.0 %
Extraction speed 2.3 X
Track quality 100.0 %
Test CRC 0BFD06D1
Copy CRC 0BFD06D1
Accurately ripped (confidence 11) [C41EAAF5] (AR v2)
Copy OK

Track 4

Filename C:EAC ripsebx44.24 - Vitamin C [Remixed By Paul Dakeyne].wav

Pre-gap length 0:00:01.97

Peak level 100.0 %
Extraction speed 2.5 X
Track quality 100.0 %
Test CRC 16B1D982
Copy CRC 16B1D982
Accurately ripped (confidence 11) [3C3B2DA4] (AR v2)
Copy OK

Track 5

Filename C:EAC ripsebx44.25 - La La La.wav

Pre-gap length 0:00:01.40

Peak level 100.0 %
Extraction speed 2.3 X
Track quality 99.9 %
Test CRC 113D6E6B
Copy CRC 113D6E6B
Accurately ripped (confidence 12) (AR v2)
Copy OK

Track 6

Filename C:EAC ripsebx44.26 - Love To Hate You [Bruce Forest Mix].wav

Pre-gap length 0:00:01.46

Peak level 100.0 %
Extraction speed 3.1 X
Track quality 100.0 %
Test CRC 43D70E56
Copy CRC 43D70E56
Accurately ripped (confidence 11) [4C849EF5] (AR v2)
Copy OK

All tracks accurately ripped

No errors occurred

End of status report

==== Log checksum 4B70ED680A81DEC28F8204656CBEC95ACAE76231B7679F49805ACD303868494C ====
CD 3 Am I Right? 00
Erasure - 4. Singles 01. Am I Right? (04:20)
02. Carry On Clangers (Full Length) (04:05)
03. Let It Flow (04:24)
04. Waiting For Sex (Full Length) (04:09)
05. Am I Right? (Dave Bascombe Remix) (04:33)
06. Am I Right? (The Grid Remix) (06:41)
07. Love To Hate You (LFO Modulated Filter Mix) (05:58 )
08. Chorus (Vegan Mix) (05:29)
09. B3 (04:16)
10. Perfect Stranger (Acoustic) (02:10)

eac
Exact Audio Copy V1.0 beta 3 from 29. August 2011

EAC extraction logfile from 10. September 2016, 16:14

Erasure / EBX 4 [CD3] Am I Right?

Used drive : ATAPI DVD A DH16A6S Adapter: 2 ID: 1

Read mode : Secure
Utilize accurate stream : Yes
Defeat audio cache : Yes
Make use of C2 pointers : No

Read offset correction : 6
Overread into Lead-In and Lead-Out : No
Fill up missing offset samples with silence : Yes
Delete leading and trailing silent blocks : No
Null samples used in CRC calculations : Yes
Used interface : Native Win32 interface for Win NT & 2000
Gap handling : Appended to previous track

Used output format : User Defined Encoder
Selected bitrate : 1024 kBit/s
Quality : High
Add ID3 tag : No
Command line compressor : C:Program FilesExact Audio CopyFlacflac.exe
Additional command line options : -8 -V -T "ARTIST=%artist%" -T "TITLE=%title%" -T "ALBUM=%albumtitle%" -T "DATE=%year%" -T "TRACKNUMBER=%tracknr%" -T "GENRE=%genre%" -T "PERFORMER=%albuminterpret%" -T "COMPOSER=%composer%" %haslyrics%--tag-from-file=LYRICS="%lyricsfile%"%haslyrics% -T "ALBUMARTIST=%albumartist%" -T "DISCNUMBER=%cdnumber%" -T "TOTALDISCS=%totalcds%" -T "TOTALTRACKS=%numtracks%" -T "COMMENT=%comment%" %source% -o %dest%

TOC of the extracted CD

Track | Start | Length | Start sector | End sector
---------------------------------------------------------
1 | 0:00.00 | 4:20.23 | 0 | 19522
2 | 4:20.23 | 4:04.60 | 19523 | 37882
3 | 8:25.08 | 4:23.42 | 37883 | 57649
4 | 12:48.50 | 4:08.48 | 57650 | 76297
5 | 16:57.23 | 4:32.60 | 76298 | 96757
6 | 21:30.08 | 6:41.12 | 96758 | 126844
7 | 28:11.20 | 5:57.40 | 126845 | 153659
8 | 34:08.60 | 5:29.30 | 153660 | 178364
9 | 39:38.15 | 4:16.25 | 178365 | 197589
10 | 43:54.40 | 2:10.30 | 197590 | 207369

Track 1

Filename C:EAC ripsebx44.31 - Am I Right.wav

Pre-gap length 0:00:02.00

Peak level 100.0 %
Extraction speed 1.0 X
Track quality 100.0 %
Test CRC 9D677733
Copy CRC 9D677733
Accurately ripped (confidence 11) [47D00748] (AR v2)
Copy OK

Track 2

Filename C:EAC ripsebx44.32 - Carry On Clangers [Full Length].wav

Pre-gap length 2:03:57.49

Peak level 100.0 %
Extraction speed 1.1 X
Track quality 100.0 %
Test CRC 0344F4B8
Copy CRC 0344F4B8
Accurately ripped (confidence 13) [31FE202D] (AR v2)
Copy OK

Track 3

Filename C:EAC ripsebx44.33 - Let It Flow.wav

Pre-gap length 2:03:57.69

Peak level 100.0 %
Extraction speed 1.1 X
Track quality 100.0 %
Test CRC F66D1227
Copy CRC F66D1227
Accurately ripped (confidence 12) [5E578F4C] (AR v2)
Copy OK

Track 4

Filename C:EAC ripsebx44.34 - Waiting For Sex [Full Length].wav

Pre-gap length 2:03:58.16

Peak level 100.0 %
Extraction speed 0.9 X
Track quality 99.9 %
Test CRC D726D601
Copy CRC D726D601
Accurately ripped (confidence 13) [FE803E2D] (AR v2)
Copy OK

Track 5

Filename C:EAC ripsebx44.35 - Am I Right [Dave Bascombe Remix].wav

Pre-gap length 2:03:57.62

Peak level 100.0 %
Extraction speed 1.0 X
Track quality 100.0 %
Test CRC 9DA849EF
Copy CRC 9DA849EF
Accurately ripped (confidence 12) [BC9C2240] (AR v2)
Copy OK

Track 6

Filename C:EAC ripsebx44.36 - Am I Right [The Grid Remix].wav

Pre-gap length 2:03:58.09

Peak level 100.0 %
Extraction speed 1.1 X
Track quality 100.0 %
Test CRC BF4AE666
Copy CRC BF4AE666
Accurately ripped (confidence 11) [060D6DDD] (AR v2)
Copy OK

Track 7

Filename C:EAC ripsebx44.37 - Love To Hate You [LFO Modulated Filter Mix].wav

Pre-gap length 2:03:57.85

Peak level 100.0 %
Extraction speed 1.0 X
Track quality 99.9 %
Test CRC 26AE0E53
Copy CRC 26AE0E53
Accurately ripped (confidence 11) [2AB19A6F] (AR v2)
Copy OK

Track 8

Filename C:EAC ripsebx44.38 - Chorus [Vegan Mix].wav

Pre-gap length 2:03:57.85

Peak level 100.0 %
Extraction speed 1.1 X
Track quality 100.0 %
Test CRC 3C087BA9
Copy CRC 3C087BA9
Accurately ripped (confidence 11) [0E61FCD0] (AR v2)
Copy OK

Track 9

Filename C:EAC ripsebx44.39 - B3.wav

Pre-gap length 2:03:57.58

Peak level 100.0 %
Extraction speed 1.0 X
Track quality 100.0 %
Test CRC B9DACD1B
Copy CRC B9DACD1B
Accurately ripped (confidence 13) [95806F99] (AR v2)
Copy OK

Track 10

Filename C:EAC ripsebx44.310 - Perfect Stranger [Acoustic].wav

Pre-gap length 2:03:57.98

Peak level 100.0 %
Extraction speed 1.8 X
Track quality 100.0 %
Test CRC 9F4C6FEC
Copy CRC 9F4C6FEC
Accurately ripped (confidence 12) [276AE19D] (AR v2)
Copy OK

All tracks accurately ripped

No errors occurred

End of status report

==== Log checksum DFB75F4D7C02296A4FD04478C4372D7B8D9DDE808A9B7AB0269BA30E4D800383 ====
CD 4 Breath Of Life 00
Erasure - 4. Singles 1. Breath Of Life (7" Mix) (03:58 )
2. Breath Of Life (Swiss Mix) (04:35)
3. Breath Of Life (Accapella Dub Remix) (04:42)
4. Breath Of Live (Divine Inspiration Mix) (06:42)
5. Breath Of Life (Umbilical Mix) (04:30)
6. Breath Of Life (Elixir Mix) (06:31)
7. Breath Of Life (Stripped Mix) (04:36)

eac
Exact Audio Copy V1.0 beta 3 from 29. August 2011

EAC extraction logfile from 10. September 2016, 17:26

Erasure / EBX 4 [CD4] Breath Of Life

Used drive : ATAPI DVD A DH16A6S Adapter: 2 ID: 1

Read mode : Secure
Utilize accurate stream : Yes
Defeat audio cache : Yes
Make use of C2 pointers : No

Read offset correction : 6
Overread into Lead-In and Lead-Out : No
Fill up missing offset samples with silence : Yes
Delete leading and trailing silent blocks : No
Null samples used in CRC calculations : Yes
Used interface : Native Win32 interface for Win NT & 2000
Gap handling : Appended to previous track

Used output format : User Defined Encoder
Selected bitrate : 1024 kBit/s
Quality : High
Add ID3 tag : No
Command line compressor : C:Program FilesExact Audio CopyFlacflac.exe
Additional command line options : -8 -V -T "ARTIST=%artist%" -T "TITLE=%title%" -T "ALBUM=%albumtitle%" -T "DATE=%year%" -T "TRACKNUMBER=%tracknr%" -T "GENRE=%genre%" -T "PERFORMER=%albuminterpret%" -T "COMPOSER=%composer%" %haslyrics%--tag-from-file=LYRICS="%lyricsfile%"%haslyrics% -T "ALBUMARTIST=%albumartist%" -T "DISCNUMBER=%cdnumber%" -T "TOTALDISCS=%totalcds%" -T "TOTALTRACKS=%numtracks%" -T "COMMENT=%comment%" %source% -o %dest%

TOC of the extracted CD

Track | Start | Length | Start sector | End sector
---------------------------------------------------------
1 | 0:00.00 | 3:58.05 | 0 | 17854
2 | 3:58.05 | 4:35.03 | 17855 | 38482
3 | 8:33.08 | 4:42.07 | 38483 | 59639
4 | 13:15.15 | 6:42.08 | 59640 | 89797
5 | 19:57.23 | 4:30.12 | 89798 | 110059
6 | 24:27.35 | 6:30.70 | 110060 | 139379
7 | 30:58.30 | 4:36.08 | 139380 | 160087

Track 1

Filename C:EAC ripsebx44.41 - Breath Of Life [7'' Mix].wav

Pre-gap length 0:00:02.00

Peak level 100.0 %
Extraction speed 2.7 X
Track quality 99.9 %
Test CRC 98E5C867
Copy CRC 98E5C867
Accurately ripped (confidence 11) [1742DF15] (AR v2)
Copy OK

Track 2

Filename C:EAC ripsebx44.42 - Breath Of Life [Swiss Mix].wav

Pre-gap length 0:00:01.82

Peak level 100.0 %
Extraction speed 3.9 X
Track quality 100.0 %
Test CRC DC3CAAC0
Copy CRC DC3CAAC0
Accurately ripped (confidence 11) [35625EEC] (AR v2)
Copy OK

Track 3

Filename C:EAC ripsebx44.43 - Breath Of Life [Accapella Dub Remix].wav

Pre-gap length 0:00:01.70

Peak level 100.0 %
Extraction speed 4.3 X
Track quality 100.0 %
Test CRC 698D7355
Copy CRC 698D7355
Accurately ripped (confidence 11) [59E79AD2] (AR v2)
Copy OK

Track 4

Filename C:EAC ripsebx44.44 - Breath Of Life [Divine Inspiration Mix].wav

Pre-gap length 0:00:01.62

Peak level 100.0 %
Extraction speed 4.9 X
Track quality 100.0 %
Test CRC 1812EA45
Copy CRC 1812EA45
Accurately ripped (confidence 11) [DE110472] (AR v2)
Copy OK

Track 5

Filename C:EAC ripsebx44.45 - Breath Of Life [Umbilical Mix].wav

Pre-gap length 0:00:02.04

Peak level 100.0 %
Extraction speed 5.1 X
Track quality 100.0 %
Test CRC 8E3A939F
Copy CRC 8E3A939F
Accurately ripped (confidence 11) [654B4B5E] (AR v2)
Copy OK

Track 6

Filename C:EAC ripsebx44.46 - Breath Of Life [Elixir Mix].wav

Pre-gap length 0:00:02.00

Peak level 100.0 %
Extraction speed 5.7 X
Track quality 100.0 %
Test CRC 5D1FD836
Copy CRC 5D1FD836
Accurately ripped (confidence 11) [E1144F46] (AR v2)
Copy OK

Track 7

Filename C:EAC ripsebx44.47 - Breath Of Life [Stripped Mix].wav

Pre-gap length 0:00:02.00

Peak level 100.0 %
Extraction speed 5.6 X
Track quality 100.0 %
Test CRC 8400E2F8
Copy CRC 8400E2F8
Accurately ripped (confidence 11) [F0A4552F] (AR v2)
Copy OK

All tracks accurately ripped

No errors occurred

End of status report

==== Log checksum C060928F61DE33F90C2EB32840E776CB616E37D01C7D6A0E38686B826195650D ====
CD 5 Abba-Esque 00
Erasure - 4. Singles 1. Lay All Your Love On Me (04:46)
2. S.O.S. (03:46)
3. Take A Chance On Me (03:47)
4. Voulez Vous (05:31)
5. Voulez Vous (Brain Stem Death Test Mix) (05:47)
6. Lay All Your Love On Me (No Panties Mix) (05:51)
7. Take A Chance On Me (Take A Trance On Me Mix) (13:24)
8. S.O.S. (Perimeter Mix) (05:17)

eac
Exact Audio Copy V1.0 beta 3 from 29. August 2011

EAC extraction logfile from 10. September 2016, 18:31

Erasure / EBX 4 [CD5] ABBA-Esque

Used drive : ATAPI DVD A DH16A6S Adapter: 2 ID: 1

Read mode : Secure
Utilize accurate stream : Yes
Defeat audio cache : Yes
Make use of C2 pointers : No

Read offset correction : 6
Overread into Lead-In and Lead-Out : No
Fill up missing offset samples with silence : Yes
Delete leading and trailing silent blocks : No
Null samples used in CRC calculations : Yes
Used interface : Native Win32 interface for Win NT & 2000
Gap handling : Appended to previous track

Used output format : User Defined Encoder
Selected bitrate : 1024 kBit/s
Quality : High
Add ID3 tag : No
Command line compressor : C:Program FilesExact Audio CopyFlacflac.exe
Additional command line options : -8 -V -T "ARTIST=%artist%" -T "TITLE=%title%" -T "ALBUM=%albumtitle%" -T "DATE=%year%" -T "TRACKNUMBER=%tracknr%" -T "GENRE=%genre%" -T "PERFORMER=%albuminterpret%" -T "COMPOSER=%composer%" %haslyrics%--tag-from-file=LYRICS="%lyricsfile%"%haslyrics% -T "ALBUMARTIST=%albumartist%" -T "DISCNUMBER=%cdnumber%" -T "TOTALDISCS=%totalcds%" -T "TOTALTRACKS=%numtracks%" -T "COMMENT=%comment%" %source% -o %dest%

TOC of the extracted CD

Track | Start | Length | Start sector | End sector
---------------------------------------------------------
1 | 0:00.00 | 4:46.00 | 0 | 21449
2 | 4:46.00 | 3:45.65 | 21450 | 38389
3 | 8:31.65 | 3:47.00 | 38390 | 55414
4 | 12:18.65 | 5:31.35 | 55415 | 80274
5 | 17:50.25 | 5:46.55 | 80275 | 106279
6 | 23:37.05 | 5:51.05 | 106280 | 132609
7 | 29:28.10 | 13:24.20 | 132610 | 192929
8 | 42:52.30 | 5:17.35 | 192930 | 216739

Track 1

Filename C:EAC ripsebx44.51 - Lay All Your Love On Me.wav

Pre-gap length 0:00:02.00

Peak level 100.0 %
Extraction speed 1.9 X
Track quality 100.0 %
Test CRC 178A55E0
Copy CRC 178A55E0
Accurately ripped (confidence 11) [EA7A8E6A] (AR v2)
Copy OK

Track 2

Filename C:EAC ripsebx44.52 - S.O.S..wav

Pre-gap length 0:00:01.73

Peak level 100.0 %
Extraction speed 2.1 X
Track quality 100.0 %
Test CRC EE4655A4
Copy CRC EE4655A4
Accurately ripped (confidence 12) [7F9E7162] (AR v2)
Copy OK

Track 3

Filename C:EAC ripsebx44.53 - Take A Chance On Me.wav

Pre-gap length 0:00:02.00

Peak level 100.0 %
Extraction speed 2.2 X
Track quality 100.0 %
Test CRC C5408043
Copy CRC C5408043
Accurately ripped (confidence 11) [9FBA541E] (AR v2)
Copy OK

Track 4

Filename C:EAC ripsebx44.54 - Voulez Vous.wav

Pre-gap length 0:00:01.66

Peak level 100.0 %
Extraction speed 2.6 X
Track quality 100.0 %
Test CRC A79591F5
Copy CRC A79591F5
Accurately ripped (confidence 11) [7F744793] (AR v2)
Copy OK

Track 5

Filename C:EAC ripsebx44.55 - Voulez Vous [Brain Stern Death Test Mix].wav

Pre-gap length 0:00:01.73

Peak level 100.0 %
Extraction speed 2.8 X
Track quality 100.0 %
Test CRC 979863BD
Copy CRC 979863BD
Accurately ripped (confidence 11) [1C215ADB] (AR v2)
Copy OK

Track 6

Filename C:EAC ripsebx44.56 - Lay All Your Love On Me [No Panties Mix].wav

Pre-gap length 0:00:01.86

Peak level 100.0 %
Extraction speed 3.0 X
Track quality 100.0 %
Test CRC 7F5D0B96
Copy CRC 7F5D0B96
Accurately ripped (confidence 11) [20C7EE51] (AR v2)
Copy OK

Track 7

Filename C:EAC ripsebx44.57 - Take A Chance On Me [Take A Trance On Me Mix].wav

Pre-gap length 0:00:01.93

Peak level 100.0 %
Extraction speed 3.5 X
Track quality 100.0 %
Test CRC 6DB945EA
Copy CRC 6DB945EA
Accurately ripped (confidence 11) [8A279C4B] (AR v2)
Copy OK

Track 8

Filename C:EAC ripsebx44.58 - S.O.S. [Perimeter Mix].wav

Pre-gap length 0:00:01.93

Peak level 100.0 %
Extraction speed 3.5 X
Track quality 100.0 %
Test CRC EF73F7A9
Copy CRC EF73F7A9
Accurately ripped (confidence 11) [66F64FC8] (AR v2)
Copy OK

All tracks accurately ripped

No errors occurred

End of status report

==== Log checksum 24158522456E2EB3ACDE3F0C0897577AB2FCCE20AAD35E9DCB848DDCF804D25A ====
Музыка / Lossless / Электронная музыка
СКАЧАТЬ БЕСПЛАТНО  [1.4 GB]


25
дек
2016

Erasure - 3. Singles (5CD Box Set, Remastered) [2001, Synth-pop, House, Trance, Disco, Vocal, Electronic, Pop, FLAC]

Формат: FLAC, (tracks + .cue), lossless
Год выпуска: 2001
Страна: EU
Жанр: Synth-pop, House, Trance, Disco, Vocal, Electronic, Pop
Продолжительность: 03:46:06
Описание: CD 1 Crackers International 001. Stop! (03:02) 2. The Hardest Part (03:44) 3. Knocking On Your Door (02:57) 4. She Won't Be Home (03:31) 5. The Hardest Part (12" Mix) (05:06) 6. Knocking On Your Door (12" Mix) (04:00) 7. Stop! (12" Remix) (05:47) 8. Knocking On Your Door (06:06) 9. God Rest Ye Merry Gentlemen (03:10) eacExact Audio Copy V1.0 beta 3 from 29. August 2011 EAC extraction logfile from 9. September 2016, 7:21 Erasu ...

25
дек
2016

Erasure - 2. Singles (5CD Box Set, Remastered) [1999, Electronic, Pop, Synth-pop, House, FLAC]

Формат: FLAC, (tracks + .cue), lossless
Год выпуска: 1999
Страна: UK
Жанр: Electronic, Pop, Synth-pop, House
Продолжительность: 03:34:51
Описание: CD 1 Victim Of Love 001. Victim Of Love (Remix) (03:44) 2. The Soldier's Return (03:07) 3. Victim Of Love (Extended) (07:12) 4. The Soldier's Return (The Return Of The Radical Radcliffe Mix) (05:06) 5. Victim Of Love (Dub Mix) (03:36) 6. Victim Of Love (Vixen Vitesse Mix) (05:50) 7. The Soldier's Return (The Machinery Mix) (04:19) 8. If I Could (Japanese Mix) (03:48 ) 9. Don't Dance (Live) (03:59) 10. Leave Me To Bleed (Live) (03:36) eacExact Audio ...

09
мар
2012

Simon Garfunkel - The Columbia Studio Recordings 1964-1970 (5CD Box Set) Remastered [2010, Rock, Folk-Rock, FLAC]

Формат: FLAC, (image + .cue), lossless
Год выпуска: 2010
Страна: USA
Жанр: Rock, Folk-Rock
Продолжительность: 03:15:11
Описание: 1964 - Wednesday Morning, 3 A.M. (00
Трeклист: 01. You Can Tell The World 02:49 02. Last Night I Had The Strangest Dream 02:13 03. Bleecker Street 02:47 04. Sparrow 02:51 05. Benedictus 02:41 06. The Sound Of Silence 03:09 07. He Was My Brother 02:52 08. Peggy-O 02:28 09. Go Tell It On The Mountain 02:09 10. The Sun Is Burning 02:50 11. The Times They Are A-Changin' 02:55 12. Wednesday Morning, 3 A.M. 02:23 Bonus Tracks: 13. Bleecker Street (Demo) 02:46 14. He Was ...

19
мая
2014

Soundgarden - Superunknown: The Singles (Limited Collector's Edition, 5CD Box Set) [2014, Grunge, Alternative Rock, MP3]

Формат: MP3, tracks, 320kbps
Год выпуска: 2014
Страна: USA
Жанр: Grunge, Alternative Rock
Продолжительность: 01:41:57
Описание: CD1 Spoonman 00 01. Spoonman (04:04) 02. Fresh Tendrils (04:14) 03. Cold Bitch (04:58) 04. Exit Stonehenge (01:19)CD2 The Day I Tried To Live 00 01. The Day I Tried To Live (05:17) 02. Like Suicide (Acoustic) (06:07) 03. Kickstand (Live Aug 20 1993) (01:57) 04. Limo Wreck [05:42]CD3 Black Hole Sun 00 01. Black Hole Sun (05:16) 02. Jesus Christ Pose (Live Aug. 11 1993) (07:04) 03. Beyond The Wheel (Live Aug. 18 1993) (05:53) 04. Fell On Black Days (Live Aug. 16 1993) ...

30
июл
2011

Jeff Beck 2 Box Sets / 10 Albums (2008 Original Album Classics 5CD Box/2010 Original Album Classics (5CD Box Set) [2008 / 2010, Blues rock, Hard Rock, Progressive Rock, FLAC]

Формат: FLAC, (image + .cue), lossless
Год выпуска: 2008 / 2010
Страна: England
Жанр: Blues rock, Jazz fusion, Instrumental Rock, Hard Rock, Progressive Rock
Продолжительность: 06:58:48
Описание: 2008 Original Album Classics (5CD Box Set Epic Records) 1971 Jeff Beck Group (Rough & Ready) 00 1. Got The Feeling 2. Situation 3. Short Business 4. Max's Tune 5. I've Been Used 6. New Ways / Train Train 7. Jody EACExact Audio Copy V1.0 beta 2 from 29. April 2011 EAC extraction logfile from 24. July 2011, 13:44 Jeff Beck Group / Rough And Ready Used drive : HL-DT-STDVDRAM GSA-H60N Adapter: 2 ID: ...

16
мая
2012

Cheap Trick - 2 Box Sets / 10 Albums (2008 Original Album Classics 5CD Box/2011 Original Album Classics (5CD Box Set) [2008 / 2011, Rock, Hard Rock

Формат: FLAC, (image + .cue), lossless
Год выпуска: 2008 / 2011
Страна: USA
Жанр: Rock, Hard Rock
Продолжительность: 08:12:46
Описание: 2008 Original Album Classics (5CD Box Set Legacy, Epic Records) 1977 Cheap Trick 0 01. ELO Kiddies 02. Daddy Should Have Stayed In High School 03. Taxman, Mr. Thief 04. Cry, Cry 05. Oh, Candy 06. Hot Love 07. Speak Now Or Forever Hold Your Peace 08. He's A Whore 09. Mandocello 10. The Ballad Of TV Violence (I'm Not The Only Boy) Bonus Tracks 11. Lovin' Money 12. I Want You To Want Me 13. Lookout 14. You're All Talk 15. I Dig Go-Go Girls EAC Exact Audio Cop ...

13
сен
2016

Alcatrazz - The Ultimate Fortress Rock Set (5CD Box Set) [2016, Hard Rock, FLAC]

Формат: FLAC, (image + .cue), lossless
Год выпуска: 2016
Страна: UK
Жанр: Hard Rock
Продолжительность: 05:51:15
Описание: 1983 No Parole From Rock'n'Roll 01 01. Island In The Sun 02. General Hospital 03. Jet To Jet 04. Hiroshima Mon Amour 05. Kree Nakoorie 06. Incubus 07. Too Young To Die, Too Drunk To Live 08. Big Foot 09. Starcarr Lane 10. Suffer Me Bonus Tracks 11. Kree Nakoorie 12. Starcarr Lane 13. Island In The Sun 14. Big Foot 15. Hiroshima Mon Amour 16. General Hospital 17. Incubus 18. Suffer Me 19. Too Young To Die, Too Drunk To Live 20. Jet To Jet eac Exact Audio Copy V1.0 beta 3 f ...

14
июн
2011

Jefferson Airplane - 2 Box Sets / 8 Albums Original (5CD + 3CD Box Set) [2008 - 2011, Psychedelic rock, FLAC]

Формат: FLAC, (image + .cue), lossless
Год выпуска: 2008 - 2011
Страна: USA
Жанр: Psychedelic rock, blues-rock
Продолжительность: 07:44:55
Описание:
Доп. информация: 2008 Original Album Classics (5CD Box Set) 1966 - Jefferson Airplane Takes Off 01 01. Blues From An Airplane 02. Let Me In 03. Bringing Me Down 04. It's No Secret 05. Tobacco Road 06. Come Up The Year 07. Run Around 08. Let's Get Together 09. Don't Slip Away 10. Chauffeur Blues 11. And I Like It Bonus Tracks 12. Runnin' Round This World 13. High Flying Bird 14. It's Alright 15. Go To Her (Early Version) 16. Let Me In (Original ...

20
ноя
2016

Rammstein - XXI (The Vinyl Box Set - 14 LP Box, Remastered) [2015, Industrial Metal, MP3]

Формат: MP3, tracks, 320kbps
Год выпуска: 2015
Страна: Germany
Жанр: Industrial Metal
Продолжительность: 05:51:34
Описание: Herzeleid - 1995 (0001. Wollt ihr das Bett in Flammen Sehen 02. Der Meister 03. Weisses Fleisch 04. Asche zu Asche 05. Seemann 06. Du Riechst So Gut 07. Das Alte Leid 08. Heirate Mich 09. Herzeleid 10. Laichzeit 11. RammsteinSehnsucht - 1997 (0001. Sehnsucht 02. Engel 03. Tier 04. Bestrafe Mich 05. Du Hast 06. Buck Dich 07. Spiel Mit Mir 08. Klavier 09. Alter Mann 10. Eifersucht 11. Kuss Mich[Fellfrosch]Mutter - 2001 (0001. Mein Herz Brennt 02. Links ...

17
авг
2013

John Mayer - Box Set (5CD) [2013, Rock, MP3]

Формат: MP3, tracks, 320kbps
Год выпуска: 2013
Страна: США
Жанр: Rock
Продолжительность: 04:43:26
Описание: 2001- Room For Squares (00 01 - No Such Thing [03:49] 02 - Why Georgia [04:26] 03 - My Stupid Mouth [03:42] 04 - Your Body Is a Wonderland [04:07] 05 - Neon [04:19] 06 - City Love [03:57] 07 - 83 [04:48] 08 - 3x5 [04:48] 09 - Love Song for No One [03:19] 10 - Back to You [03:59] 11 - Great Indoors [03:33] 12 - Not Myself [03:38] 13 - St. Patrick's Day [05:23] 14 - Lenny [02:08] 15 - The Wind Cries Mary (Live at the X-Lounge) [03:36] 2003 - Heavier Things (00 01 - Clarity [04:29] 02 - Bi ...

02
дек
2010

The Hollies - StarCollection (Box set 5CD) [2010, Rock, RockBeat, FLAC]

Формат: FLAC, (image + .cue), lossless
Год выпуска: 2010
Страна: UK
Жанр: Rock, RockBeat
Продолжительность: 06:31:47
Описание: The Hollies - StarCollection / Треклист CD:1 ============================= 01. Daddy Don't Mind [0:03:35.27] 02. Hope [0:03:12.29] 03. Layin' To The Music [0:02:30.48] 04. The Day That Curly Billy Shot Down Crazy Sam McGee [0:04:27.55] 05. Shine On Me [0:04:32.66] 06. Tip Of The Iceberg [0:04:08.50] 07. How Do I Survive [0:04:00.37] 08. If The Lights Go Out [0:03:29.13] 09. Live It Up [0:04:25.72] 10. Long Cool Woman In A Black Dress [0:03:18.02] 11. Suspended Animat ...

16
ноя
2018

Whitesnake - Unzipped (5CD Box Set) [2018, Rock, Hard Rock, FLAC]

Формат: FLAC, (image + .cue), lossless
Год выпуска: 2018
Страна: England
Жанр: Rock, Hard Rock
Продолжительность: 04:45:11
Описание: CD1 Unzipped... In The Studio 01. Love Is Blind (Remastered) 02. One Of These Days (Acoustic Version) 03. All The Time In The World (Remastered) 04. Wherever You May Go 05. Easier Said Than Done (Acoustic Version) 06. Fare Thee Well (Acoustic Version) 07. Summer Rain (Unzipped Version) 08. Forevermore (Unzipped Version) 09. 'Till The End Of Time (Remastered) Bonus Tracks: 10. Wherever You May Go (Instrumental Strings Only) 11. Love Is Blind (Instrumental Strings ...

29
ноя
2016

Geordie - The Albums (5CD Box Set) [2016, Rock, Glam Rock, Hard Rock, Blues-Rock, MP3]

Формат: MP3, tracks, 320kbps
Год выпуска: 2016
Страна: UK
Жанр: Rock, Glam Rock, Hard Rock, Blues-Rock
Продолжительность: 04:04:54
Описание: 1973 - Hope You Like It / Geordie (0101. Keep On Rockin' 03:19 02. Give You Till Monday 03:57 03. Hope You Like It 03:39 04. Don't Do That 03:11 05. All Because Of You 02:49 06. Old Time Rocker 03:21 07. Oh Lord 05:08 08. Natural Born Loser 04:13 09. Strange Man 03:30 10. Ain't It Just Like A Woman 03:55 11. Geordie's Lost His Liccie 03:36 Bonus Tracks: 12. Francis Was A Rocker 02:56 13. Can You Do It 03:14 14. Rad Eyed Lady 03:07 15. Elect ...

03
янв
2011

Magnum - The Gathering 5CD Box Set [2010, Rock, Hard Rock, FLAC]

Формат: FLAC, (image + .cue), lossless
Год выпуска: 2010
Страна: UK
Жанр: Rock, Hard Rock, Progressive Rock, Melodic Rock
Продолжительность: 06:29:44
Описание: CD 1 01
Трэклист: 01. Stormbringer 03:33 02. Find The Time (Kingdom Of Madness Session Outtake) 03:05 03. In The Beginning 07:53 04. Baby Rock Me 04:05 05. Universe 03:47 06. Invasion 03:24 07. Kingdom Of Madness (Alternative Version) 03:57 08. Great Adventure 04:53 09. Changes (7'' Single Remix) 04:12 10. The Battle 02:11 11. All Of My Life 04:42 12. If I Could Live Forever (Live) 04:07 13. Foolish Heart (Live) 03:09 14. Lords Of Cha ...

23
сен
2012

Candlemass - Doomology (5CD Box set) [2010, Doom Metal, MP3]

Формат: MP3, tracks, 320kbps
Год выпуска: 2010
Страна: Sweden
Жанр: Doom Metal
Продолжительность: 05:02:10
Описание: Disc One First Gig Ever in Jönköping, 1987 01. Intro 02:14 02. Crystal Ball 05:00 03. Under the Oak 06:52 04. Bewitched 06:19 05. Demon's Gate 09:26 06. The Well of Souls 07:28 07. A Sorcerer's Pledge 10:54 08. Solitude 06:46 Disc Two Buckley Tivoli, 1988 01. Mirror Mirror 05:38 02. Bewitched 04:22 03. Solitude 06:09 04. The Bells of Acheron 05:33 05. At the Gallows End 05:52 06. Demon's Gate 08:50 07. Bearer of Pain 06:50 08. Samarithan 05:44 09. A Cry From the Cryp ...