21
мая
2015

Застольные песни Поём Хором - Имена на все времена [2014, Народные, APE]

Застольные песни Поём Хором - Имена на все времена
Формат: APE, (tracks + .cue), lossless
Год выпуска: 2014
Страна: Россия
Жанр: Народные
Продолжительность: 01:16:15
Описание:
01. Воронежские девчата - Тонкая рябина
02. Академический хор русской песни - Светит месяц
03. Воронежские девчата - Калинка
04. Россияночка - То не ветер ветку клонит
05. хор им. Пятницкого - По диким степям Забайкалья
06. Кубанский казачий хор - Чёрный ворон
07. хор Нижегородского женского духовного училища - Вниз по матушке, по Волге
08. Академический хор русской песни - Однозвучно гремит колокольчик
09. Сибирский русский народный хор - Шумел камыш
10. Уральский русский народный хор - Под окном черемуха колышется
11. Ансамбль русской песни - Хаз-Булат удалой
12. Краснознамённый ансамбль - Во поле берёзка стояла
13. Воронежский народный хор - Ой, мороз, мороз
14. хор п.у. Н.Афонского, солист Николай Гедда - Коробейники
15. Сибирский русский народный хор - Зачем сидишь до полуночи
16. хор им.Пятницкого - Ой, со вечора, с полуночи
17. русский народный хор Бийского котельного завода - Выйду на улицу
18. Академический хор русской песни - Ой, при лужку, при лужке
19. Воронежские девчата - Степь да степь кругом
20. Академический хор русской песни - По Дону гуляет казак молодой
21. Воронежские девчата - Порушка-Параня
22. Кубанский казачий хор - Распрягайте, хлопцы, к


Отчет ЕАС
Exact Audio Copy V1.0 beta 1 from 15. November 2010

EAC extraction logfile from 7. April 2015, 13:37

Various / Застольные песни Поем хором

Used drive : Optiarc DVD RW AD-5260S Adapter: 2 ID: 0

Read mode : Secure
Utilize accurate stream : Yes
Defeat audio cache : Yes
Make use of C2 pointers : No

Read offset correction : 48
Overread into Lead-In and Lead-Out : No
Fill up missing offset samples with silence : Yes
Delete leading and trailing silent blocks : No
Null samples used in CRC calculations : Yes
Used interface : Native Win32 interface for Win NT & 2000
Gap handling : Appended to previous track

Used output format : Internal WAV Routines
Sample format : 44.100 Hz; 16 Bit; Stereo

TOC of the extracted CD

Track | Start | Length | Start sector | End sector
---------------------------------------------------------
1 | 0:00.00 | 3:48.58 | 0 | 17157
2 | 3:48.58 | 3:15.52 | 17158 | 31834
3 | 7:04.35 | 3:31.49 | 31835 | 47708
4 | 10:36.09 | 4:28.50 | 47709 | 67858
5 | 15:04.59 | 4:21.27 | 67859 | 87460
6 | 19:26.11 | 4:05.11 | 87461 | 105846
7 | 23:31.22 | 2:55.46 | 105847 | 119017
8 | 26:26.68 | 4:27.28 | 119018 | 139070
9 | 30:54.21 | 3:37.56 | 139071 | 155401
10 | 34:32.02 | 5:25.37 | 155402 | 179813
11 | 39:57.39 | 3:21.14 | 179814 | 194902
12 | 43:18.53 | 3:12.50 | 194903 | 209352
13 | 46:31.28 | 2:07.00 | 209353 | 218877
14 | 48:38.28 | 2:27.55 | 218878 | 229957
15 | 51:06.08 | 3:09.19 | 229958 | 244151
16 | 54:15.27 | 2:43.46 | 244152 | 256422
17 | 56:58.73 | 3:19.59 | 256423 | 271406
18 | 60:18.57 | 3:00.58 | 271407 | 284964
19 | 63:19.40 | 4:03.30 | 284965 | 303219
20 | 67:22.70 | 3:39.67 | 303220 | 319711
21 | 71:02.62 | 1:42.00 | 319712 | 327361
22 | 72:44.62 | 3:40.62 | 327362 | 343923

Track 1

Filename D:Temp1. Воронежские девчата - Тонкая рябина - Воронежские девчата - Тонкая рябина.wav

Pre-gap length 0:00:02.00

Peak level 79.9 %
Extraction speed 2.1 X
Track quality 99.9 %
Test CRC E7891046
Copy CRC E7891046
Track not present in AccurateRip database
Copy OK

Track 2

Filename D:Temp2. Академический хор русской песни - Светит месяц - Академический хор русской песни - Светит месяц.wav

Peak level 98.8 %
Extraction speed 2.6 X
Track quality 100.0 %
Test CRC 88C61424
Copy CRC 88C61424
Track not present in AccurateRip database
Copy OK

Track 3

Filename D:Temp3. Воронежские девчата - Калинка - Воронежские девчата - Калинка.wav

Peak level 91.6 %
Extraction speed 2.8 X
Track quality 100.0 %
Test CRC F28B403D
Copy CRC F28B403D
Track not present in AccurateRip database
Copy OK

Track 4

Filename D:Temp4. Россияночка - То не ветер ветку клонит - Россияночка - То не ветер ветку клонит.wav

Peak level 72.2 %
Extraction speed 3.1 X
Track quality 100.0 %
Test CRC BADAC21E
Copy CRC BADAC21E
Track not present in AccurateRip database
Copy OK

Track 5

Filename D:Temp5. хор им. Пятницкого - По диким степям Забайкалья - хор им. Пятницкого - По диким степям Забайкалья.wav

Peak level 92.7 %
Extraction speed 3.3 X
Track quality 100.0 %
Test CRC 0B1E6846
Copy CRC 0B1E6846
Track not present in AccurateRip database
Copy OK

Track 6

Filename D:Temp6. Кубанский казачий хор - Чёрный ворон - Кубанский казачий хор - Чёрный ворон.wav

Peak level 80.7 %
Extraction speed 3.5 X
Track quality 100.0 %
Test CRC 366497AE
Copy CRC 366497AE
Track not present in AccurateRip database
Copy OK

Track 7

Filename D:Temp7. хор Нижегородского женского духовного училища - Вниз по матушке, по Волге - хор Нижегородского женского духовного училища - Вниз по матушке, по Волге.wav

Peak level 85.7 %
Extraction speed 3.4 X
Track quality 100.0 %
Test CRC BC4BF9CA
Copy CRC BC4BF9CA
Track not present in AccurateRip database
Copy OK

Track 8

Filename D:Temp8. Академический хор русской песни - Однозвучно гремит колокольчик - Академический хор русской песни - Однозвучно гремит колокольчик.wav

Peak level 81.8 %
Extraction speed 3.9 X
Track quality 100.0 %
Test CRC 72DF60F7
Copy CRC 72DF60F7
Track not present in AccurateRip database
Copy OK

Track 9

Filename D:Temp9. Сибирский русский народный хор - Шумел камыш - Сибирский русский народный хор - Шумел камыш.wav

Peak level 71.7 %
Extraction speed 3.8 X
Track quality 100.0 %
Test CRC D648491A
Copy CRC D648491A
Track not present in AccurateRip database
Copy OK

Track 10

Filename D:Temp10. Уральский русский народный хор - Под окном черемуха колышется - Уральский русский народный хор - Под окном черемуха колышется.wav

Peak level 81.6 %
Extraction speed 4.3 X
Track quality 100.0 %
Test CRC 233754ED
Copy CRC 233754ED
Track not present in AccurateRip database
Copy OK

Track 11

Filename D:Temp11. Ансамбль русской песни - Хаз-Булат удалой - Ансамбль русской песни - Хаз-Булат удалой.wav

Peak level 81.1 %
Extraction speed 4.1 X
Track quality 100.0 %
Test CRC 4D729639
Copy CRC 4D729639
Track not present in AccurateRip database
Copy OK

Track 12

Filename D:Temp12. Краснознамённый ансамбль - Во поле берёзка стояла - Краснознамённый ансамбль - Во поле берёзка стояла.wav

Peak level 98.3 %
Extraction speed 4.3 X
Track quality 100.0 %
Test CRC 5B59D738
Copy CRC 5B59D738
Track not present in AccurateRip database
Copy OK

Track 13

Filename D:Temp13. Воронежский народный хор - Ой, мороз, мороз - Воронежский народный хор - Ой, мороз, мороз.wav

Peak level 77.9 %
Extraction speed 4.0 X
Track quality 100.0 %
Test CRC 0AE07241
Copy CRC 0AE07241
Track not present in AccurateRip database
Copy OK

Track 14

Filename D:Temp14. хор п - у Н.Афонского, солист Николай Гедда - Коробейники.wav

Peak level 93.8 %
Extraction speed 3.5 X
Track quality 99.9 %
Test CRC 6409A12B
Copy CRC 6409A12B
Track not present in AccurateRip database
Copy OK

Track 15

Filename D:Temp15. Сибирский русский народный хор - Зачем сидишь до полуночи - Сибирский русский народный хор - Зачем сидишь до полуночи.wav

Peak level 83.7 %
Extraction speed 3.8 X
Track quality 99.9 %
Test CRC C329C91F
Copy CRC C329C91F
Track not present in AccurateRip database
Copy OK

Track 16

Filename D:Temp16. хор им.Пятницкого - Ой, со вечора, с полуночи - хор им.Пятницкого - Ой, со вечора, с полуночи.wav

Peak level 89.2 %
Extraction speed 4.4 X
Track quality 100.0 %
Test CRC 691434C8
Copy CRC 691434C8
Track not present in AccurateRip database
Copy OK

Track 17

Filename D:Temp17. русский народный хор Бийского котельного завода - Выйду на улицу - русский народный хор Бийского котельного завода - Выйду на улицу.wav

Peak level 98.8 %
Extraction speed 4.8 X
Track quality 100.0 %
Test CRC 86366458
Copy CRC 86366458
Track not present in AccurateRip database
Copy OK

Track 18

Filename D:Temp18. Академический хор русской песни - Ой, при лужку, при лужке - Академический хор русской песни - Ой, при лужку, при лужке.wav

Peak level 98.8 %
Extraction speed 4.8 X
Track quality 100.0 %
Test CRC 9661BAAD
Copy CRC 9661BAAD
Track not present in AccurateRip database
Copy OK

Track 19

Filename D:Temp19. Воронежские девчата - Степь да степь кругом - Воронежские девчата - Степь да степь кругом.wav

Peak level 75.5 %
Extraction speed 4.5 X
Track quality 99.9 %
Test CRC 9B4960CA
Copy CRC 9B4960CA
Track not present in AccurateRip database
Copy OK

Track 20

Filename D:Temp20. Академический хор русской песни - По Дону гуляет казак молодой - Академический хор русской песни - По Дону гуляет казак молодой.wav

Peak level 71.7 %
Extraction speed 5.1 X
Track quality 100.0 %
Test CRC 0D9C7B6C
Copy CRC 0D9C7B6C
Track not present in AccurateRip database
Copy OK

Track 21

Filename D:Temp21. Воронежские девчата - Порушка-Параня - Воронежские девчата - Порушка-Параня.wav

Peak level 98.8 %
Extraction speed 4.5 X
Track quality 100.0 %
Test CRC B6C07138
Copy CRC B6C07138
Track not present in AccurateRip database
Copy OK

Track 22

Filename D:Temp22. Кубанский казачий хор - Распрягайте, хлопцы, коней - Кубанский казачий хор - Распрягайте, хлопцы, коней.wav

Peak level 92.6 %
Extraction speed 4.6 X
Track quality 99.9 %
Test CRC E18B780E
Copy CRC E18B780E
Track not present in AccurateRip database
Copy OK

None of the tracks are present in the AccurateRip database

No errors occurred

End of status report

==== Log checksum C6AAFEFF68501390CDF492F6BB8B770AAAD42DC29CB26C649996D86071800135 ====
Музыка / Lossless / Шансон
СКАЧАТЬ БЕСПЛАТНО  [325.0 MB]


19
мая
2015

Евдокимов Евгений - Имена на все времена [2015, Шансон, MP3]

Формат: MP3, tracks, 320kbps
Год выпуска: 2015
Страна: СССР, Украина, Германия
Жанр: Шансон
Продолжительность: 00:34:46
Описание: 01. Петька-Свист 02. Серафима 03. Домой, Володька 04. Морячка Ванда 05. За дядю Ваню 06. Цыганка Рада 07. Таня спать ложится – Н. Шепилов 08. Ксения 09. Марья Петровна 10. Машенька – В. Матвеева 11. Самогонщица Лукерья – Н. Шепилов 12. Оксана
Доп. информация: Спасибо за разрешение на публикацию
Ник: МихалычЪ Релиз представляет
Группа:

26
мая
2015

Евгений Евдокимов - Имена на все времена-2 [2015, Шансон, MP3]

Формат: MP3, tracks, 320kbps
Год выпуска: 2015
Страна: СССР, Украина, Германия
Жанр: Шансон
Продолжительность: 00:29:47
Описание: 01. Соня и Беня - Слова С. Васильев 02. Медсестра Анюта - Слова М. Французов 03. Я теперь Анастасия - Слова Т. Дашкевич 04. Песенка про Митю 05. Лёва 06. Ванечка - Слова В. Ржанникова 07. Девчонку эту звали Анкой - Слова М. Карамушко 08. Варя, Варенька 09. Людмила 10. Даже девушка милая, Надя
Доп. информация: Спасибо за разрешение на публикацию
Ник: МихалычЪ Релиз представляет
Группа:

17
ноя
2009

VA - Золотой Шлягер. Имена на все времена [2008, Pop, MP3]

Формат: MP3, tracks, 256kbps
Год выпуска: 2008
Страна: Россия
Жанр: Pop
Продолжительность: 05:52:48 Треклист 001. Вадим Мулерман - Лада 002. Мария Пахоменко - Ненаглядный мой 003. Николай Рыбников - Когда весна придёт 004. Квартет "Аккорд" - Возвращайся 005. Муслим Магомаев - Королева красоты 006. Ольга Вардашева и Людмила Невзгляд - Момчета 007. Радмила Караклаич - Буду! 008. Полад Бюль-Бюль оглы - Позвони 009. Алла Иошпе - Осенние листья 010. Клавдия Шульженко - На тот большак 011. Георг Отс - Ария Мистера Икс 012. Анна Герман - Когда цвели сады 013. Эдуард Хиль - Зима 014. Людмила Сенчина ...

26
янв
2014

VA - Кумиры 80-х Имена на все времена [2014, Pop, MP3]

Формат: MP3, tracks, 128kbps
Год выпуска: 2014
Страна: All World
Жанр: Pop
Продолжительность: 12:26:11
Описание: Треклист001. Вячеслав Малежик - Гадалка 002. Gazebo - Lunatic 003. Александр Серов и Ольга Зарубина - Круиз 004. Ricchi E Poveri - Voulez Vous Danser 005. Ион Суручану - Незабудка 006. Flirts - Passion 007. Валерий Леонтьев и Лайма Вайкуле - Вернисаж 008. Alphaville - Dance With Me 009. Лев Лещенко - Ни минуты покоя 010. Rick Astley - Together Forever 011. Николай Караченцов - Ты меня на рассвете разбудишь 012. Status Quo - In The Army Now 013. Михаил Муромов - Странная Женщина 014. ...

19
апр
2008

VA - Еврохит на все времена [2005,Popmusic,MP3]

Страна: РОССИЯ
Год выпуска: 2005
Жанр: Pop
Продолжительность: 11:07:00
Формат: MP3
Битрейт аудио: 192 кbps stereo Трэклист Disco - Laid Back - Sunshine Reggae Disco - F.R.David - Words Disco - Ricchi e Povery - Cosa Sei Disco - Eddy Huntington - U.S.S.R. Disco - Julio Eglesias - Nathalie Disco - Joy - Valerie Disco - George Michael - Careless Whisper Disco - Grace Jones - I've Seen That Face Befor Disco - Modern Tallking - Brother Louie Disco - Ottawan - Hands Up Disco - Laura Branigan - Self Control Disco - Demis Roussos - From Souvenir Disco - Madonna - Laisla Bonita Disco - Fancy - Flames O ...

12
ноя
2016

VA - Хорошая Музыка на Все Времена [2016, Pop, Rock, MP3]

Формат: MP3, tracks, 320kbps
Год выпуска: 2016
Страна: All World
Жанр: Pop, Rock
Продолжительность: 02:01:39
Описание: Треклист01. Eurithmics - Sweet dreams 02. Madonna - This Used To Be My Playground 03. Tony Braxton - Unbreak My Heart 04. Joe Dassin - A Toi 05. Gary Moore - Still Got The Blues 06. Desireless - Voyage 07. Smokie - What Can I Do 08. Iggy Pop - In The Death Car 09. Julio Iglesias - Nostalgie 10. Cretu - You Favourite Toy 11. Nick Cave and The Bad Sees - Where The Wild Roses Grow 12. Eagles - Hotel California 13. D. Russel - Paradise 14. Tanita Tikaram - And I Think of You 15. J ...

29
мая
2015

Сергей Трофимов - Хиты на все Времена (Самое лучшее) [2014, Шансон, MP3]

Формат: MP3, tracks, 320kbps
Год выпуска: 2014
Страна: Россия
Жанр: Шансон
Продолжительность: 01:17:13
Описание: 01. ЧБ 02. Московская песня 03. Лети 04. Не рассказывай 05. Город в пробках 06. Город Сочи 07. Интернет 08. Не покидай меня 09. Умничка 10. Остров по имени Счастье 11. Я привык улыбаться людям 12. Ветер в голове 13. Первая любовь 14. Снегири 15. Ветерок 16. Дальнобойная 17. Голуби 18. За друзей 19. Я скучаю по тебе 20. Как мне сейчас хорошо

08
июл
2010

VA - Русский рок на все времена [2010, Rock, MP3]

Формат: MP3, tracks, 128-192 kbps
Год выпуска: 2010
Страна: Россия
Жанр: Rock
Продолжительность: 11:04:16
Описание: Треклист 001. Ддт - Дождь 002. Б.Гребенщиков - Никита Рязанский 003. Чайф - Не Спеши 004. Аквариум - Скорбец (Radio Edit) 005. Ундервуд - Парабеллум 006. Тараканы! - Кто-То Из Нас Двоих 007. Смысловые Галлюцинации - Вечно Молодой 008. Ария - Воля И Разум 2005 (Бутусов, Кинчев, Самойловы И Шевчук) 009. Танцы Минус - Город 010. Мумий Тролль - Это По Любви 011. Ночные Снайперы - 31-Я Весна 012. Рондо - Нас Венчает Гроза 013. Гражданская Оборона - Про Мишутку (Песенка Для Янки) 014. ...

28
июн
2018

Сборник - Русский рок на все времена (19CD Edit.) [2018, Рок, MP3]

Формат: MP3, tracks, 224kbps
Год выпуска: 2018
Страна: СССР-Россия
Жанр: Рок
Продолжительность: 138:00:00
Описание: Треклист CD 1, 224 kbps, 07:20:00 0001. Агата Кристи-Вечная Любовь 0002. 7Б-Осень 0003. Аквариум-Бурлак 0004. F.P.G.-Весть 0005. Александр Иванов-Город ждет 0006. Алиса-Rock n roll жесток 0007. Ария-Свобода 0008. the Пауки-1000 Чертей 0009. Тёплая Трасса-Простая жизнь 0010. Калинов Мост-Всадники 0011. Браво-Ray Davies 0012. Бригадный Подряд-Welcome aboard 0013. В.Бутусов-Чай в подстаканнике 0014. Владимир Кузьмин-Весна-мотоциклетная пора 0015. Gorky Park-All Roads 0016. Ва-Банкъ ...

15
ноя
2007

Эпидемия-Эльфийская Рукопись:Сказание На Все Времена (2007) [mp3, 320]

Страна: Россия
Год выпуска: 2007
Жанр: Fantsy Power Metal-Opera
Продолжительность: 1:04:13
Формат: MP3
Битрейт аудио: 320
Трэклист: 1. Эпидемия - Пролог (2:09) 2. Эпидемия - Звездный Портал (5:21) 3. Эпидемия - Владыки Гор (5:24) 4. Эпидемия - Исповедь Первого Бога (4:46) 5. Эпидемия - Сказание Снегов (1:43) 6. Эпидемия - Нити Судьбы (5:39) 7. Эпидемия - Без Сердца И Души (8:31) 8. Эпидемия - Океан Пустоты (5:06) 9. Эпидемия - Сказание Огня (0:46) 10. Эпидемия - Остров Драконов (4:31) 11. Эпидемия - Сказание На Все Времена (12:43) 12. Эпидемия - Солнца Свет (5:03) 13. Эпидемия - В Небеса (2:31 ...

17
сен
2016

Сборник - РУССКИЙ РОК НА ВСЕ ВРЕМЕНА (5CD Edit.) [2015, Рок, MP3]

Формат: MP3, tracks, 224kbps
Год выпуска: 2015
Страна: СССР-Россия
Жанр: Рок
Продолжительность: 36:40:00
Описание: Треклист CD 1, 224 kbps, 07:30:00 001. Аквариум-Беспечный русский бродяга 002. Кино-Муравейник 003. Алиса-Rock-n-roll это не работа 004. ДДТ-Актриса Весна 005. Браво-Если бы на Марсе 006. Константин Никольский-Мой друг художник и поэт 007. Крематорий-2001 год 008. Мамульки Bend-Верность 009. Монгол Шуудан-Ехали казаки 010. Мономах-Давайте делать что-то 011. Наутилус Помпилиус-Во время дождя 012. Разные Люди-Такие дела 013. Центр-Бесполезная песня 014. ЧайФ-В городе трех революций ...

07
авг
2011

VA - 100 Лучших гитарных соло на все времена [1998, Rock, Rock&Roll, Southern Rock, Grunge, Blues, Hard Rock, Metal, Heavy Metal, MP3]

Формат: MP3, tracks, 320kbps
Год выпуска: 1998
Страна: International
Жанр: Rock, Rock&Roll, Southern Rock, Grunge, Blues, Hard Rock, Metal, Heavy Metal
Продолжительность: 09:42:18
Описание: Треклист 1. Led Zeppelin - Stairway To Heaven (8:02) 2. Van Halen - Eruption (1:43) 3. Lynyrd Skynyrd - Free Bird (9:05) 4. Pink Floyd - Comfortably Numb (6:24) 5. The Jimi Hendrix Experience - All Along The Watchtower (4:00) 6. Guns N' Roses - November Rain (8:57) 7. Metallica - One (7:27) 8. The Eagles - Hotel California (6:30) 9. Ozzy Osbourne - Crazy Train (4:50) 10. Cream - Crossroads (4:13 ...

04
окт
2013

VA - Disco 80-х. 200 хитов на все времена [2013, Pop ,Disco, MP3]

Формат: MP3, tracks, 128kbps
Год выпуска: 2013
Страна: All World
Жанр: Pop, Disco
Продолжительность: 12:46:36
Описание: Треклист001 Dschings Khan - Moscau 002 Комбинация - Russian Girl 003 Desireless - Voyage,Voyage 004 Мираж - Музыка Нас Связала 005 Modern Talking - Brother Louie 006 Рома Жуков - Я Люблю Вас Девочки,Я Люблю Вас Мальчики 007 Boney M - Rasputin 008 Веселые Ребята - Розовые Розы 009 Bad Boys Blue - Youre A Women 010 Ласковый Май - Розовый Вечер 011 Arabesgue - Midnight Dancer 012 Александр Серов - Мадонна 013 Afric Simone - Hafanana 014 Крис Кельми - Ночное Рандеву 015 C.C.Ca ...

11
дек
2009

Застольные песни [2009, Retro, MP3]

Формат: MP3, tracks, 320kbps
Год выпуска: 2009
Страна: Россия
Жанр: Retro
Продолжительность: 04:27:22 [br] [br] [br] [br] [br]
Застольные песниТреклист: 01. О.Воронец – «Ромашки спрятались» 02. Е.Шаврина – «Ой, мороз, мороз» 03. анс. «Слобода» - « Ах, зачем эта ночь так была хороша» 04. анс. «Крапива» - «Виновата ли я» 05. Н.Крыгина – «Ах, Самара городок» 06. И.Суржиков – «По Дону гуляет» 07. Уральский хор – «Уральская рябинушка» 08. Р.Неменова – «Лен, мой лен» 09. Трио «Рябинушка» - «Вот кто-то с горочки спустился…» 10. «Воронежские девчата» - «Тонкая рябина» 11. Л.Зыкина – «Оренбургский пух ...

22
авг
2016

Макаровна (Алёна Герасимова) - Застольные песни [2006, Шансон, FLAC]

Формат: FLAC, (image + .cue), lossless
Год выпуска: 2006
Страна: Россия
Жанр: Шансон
Продолжительность: 00:47:59
Описание: 01. Улетела птичка 02. Огонёк в окне 03. По объявлению 04. За рекой горят огни… (Купала) 05. Гоп-стоп сдоба (Получила диплом) 06. Венчальная 07. Душистый чай 08. Одинокая 09. Голова, ты моя непутёвая 10. На деревне 11. Голубая мечта-заграница 12. Сеновал 13. Белить потолок? 14. Говорила мамка 15. Продажная (Потерял свою любовь) 16. Его кастрировала жизнь 17. Катерок (Дуэт с Евгением Шапоревым) 18. Посиделки под водочку
Доп. информация: Отчёт EACExact Audio Copy V1.0 be ...