08
сен
2012

В.Высоцкий - 100 лучших песен [2004, Chanson, FLAC]

В.Высоцкий - 100 лучших песен
Формат: FLAC, (image + .cue), lossless
Год выпуска: 2004
Страна: Россия
Жанр: Chanson
Продолжительность: 04:37:01
Описание:
CD 1 - Горящий Смоленск,горящий Рейхстаг 00
В.Высоцкий - 100 лучших песен
01. Он не вернулся из боя 00:03:19
02. Тот, который не стрелял 00:02:44
03. Братские могилы 00:01:17
04. Давно смолкли залпы орудий 00:02:10
05. Сыновья уходят в бой 00:02:28
06. Песня о госпитале 00:01:06
07. Мы вращаем Землю 00:03:16
08. Песня о звездах 00:01:52
09. Песня о Земле 00:02:28
10. Солдаты группы "Центр" 00:01:25
11. Разведка боем 00:02:27
12. Спасите наши души 00:03:55
13. О моем старшине 00:03:02
14. Случай в ресторане 00:01:52
15. Песня летчика 00:02:40
16. Песня самолета-истребителя 00:03:24
17. Песня про Сережку Фомина 00:02:35
18. Высота 00:01:29
19. Письмо 00:02:37
20. Нейтральная полоса 00:02:10
CD 2 - Милый Ваня,я гуляю по Парижу 01
В.Высоцкий - 100 лучших песен
01. Бал-маскарад 00:01:34
02. Письмо в редакцию телевизионной передачи "Очевидное - невероятное" из сумасшедшего дома - с Канатчиковой дачи 00:04:31
03. Посещение Музы, или Песенка плагиатора 00:02:15
04. Песенка о слухах 00:02:52
05. Милицейский протокол 00:03:14
06. Инструкция перед поездкой за рубеж, или Полчаса в месткоме 00:04:47
07. Про речку Вачу и попутчицу Валю 00:03:05
08. Путешествие в прошлое 00:02:59
09. Мой сосед объездил весь Союз 00:01:42
10. Невидимка 00:03:05
11. Поездка в город 00:02:52
12. Жертва телевидения 00:03:59
13. Письмо к другу, или Зарисовка о Париже 00:01:32
14. Товарищи ученые 00:02:38
15. Песня про Джеймса Бонда, агента 007 00:04:58
16. Веселая покойницкая 00:02:54
17. Случай на таможне 00:04:21
18. Песня автозавистника 00:02:45
19. Лекция о международном положении, прочитанная человеком, посаженным на 15 суток за мелкое хулиганство, своим сокамерникам 00:02:51
20. Песня командировочного, или Через десять лет в Аэрофлоте 00:05:28
CD 3 - Лукоморья больше нет 00
В.Высоцкий - 100 лучших песен
01. Песня о Вещем Олеге 00:02:34
02. Странная сказка 00:02:09
03. Про дикого вепря 00:02:30
04. Песня о Вещей Кассандре 00:02:35
05. Песня-сказка о нечисти 00:02:46
06. Куплеты нечистой силы 00:01:19
07. Лукоморья больше нет 00:04:01
08. Выезд Соловья-Разбойника 00:01:39
09. Скоморохи на ярмарке 00:05:36
10. В далеком созвездии Тау Кита 00:03:42
11. Песенка о переселении душ 00:02:08
12. Переворот в мозгах из края в край 00:02:55
13. Песня-сказка про джинна 00:02:59
14. Про черта 00:02:10
15. Песня плотника Иосифа, Девы Марии и Святого Духа 00:02:04
16. Песня про Козла отпущения 00:03:06
17. Марш антиподов 00:01:06
18. Песня об обиженном времени 00:02:17
19. Сивка-Бурка 00:02:01
20. Песенка ни про что, или Что случилось в Африке 00:01:52
CD 4 - Я не люблю фатального исхода 01
В.Высоцкий - 100 лучших песен
01. Банька по-белому 00:07:39
02. Я не люблю 00:02:10
03. Песня о друге 00:02:53
04. Куплеты Бенгальского 00:01:56
05. Москва-Одесса 00:02:42
06. Парус 00:01:24
07. Баллада о борьбе 00:04:09
08. Ноль семь 00:02:27
09. Натянутый канат 00:03:33
10. Тот, кто раньше с нею был 00:02:56
11. Татуировка 00:01:58
12. Большой Каретный 00:01:17
13. Охота на волков 00:03:13
14. Охота на кабанов 00:02:08
15. Баллада о детстве 00:06:05
16. Еще не вечер 00:02:33
17. Корабли 00:02:45
18. О фатальных датах и цифрах 00:02:19
19. Моя цыганская 00:04:36
20. Кони привередливые 00:05:22
CD 5 - Городской романс 00
В.Высоцкий - 100 лучших песен
01. Дорожная история 00:03:00
02. "Я несла свою беду..." 00:02:47
03. Дом хрустальный 00:02:15
04. Белое безмолвие 00:02:10
05. "За меня невеста отрыдает честно..." 00:02:12
06. Чужая колея 00:03:32
07. Городской романс 00:02:28
08. "Здесь лапы у елей дрожат на весу..." 00:03:30
09. Она была в Париже 00:01:44
10. Попутчик 00:02:32
11. У тебя глаза как нож 00:01:24
12. Песня о двух погибших лебедях 00:02:11
13. Я был душой дурного общества 00:02:17
14. "Мне каждый вечер зажигают свечи..." 00:01:57
15. Очи черные. Погоня 00:03:17
16. Очи черные. Старый дом 00:03:09
17. Ой, где я была вчера 00:02:48
18. Иван да Марья 00:00:45
19. Песня Марьи 00:01:10
20. О нашей встрече 00:02:54

Доп. информация:
log.EAC CD 1 - Горящий Смоленск,горящий Рейхстаг
Exact Audio Copy V0.99 prebeta 5 from 4. May 2009

Отчёт EAC об извлечении, выполненном 7. сентября 2012, 19:39

В.Высоцкий / CD-1 Горящий Смоленск, горящий Рейхстаг

Дисковод: MATSHITADVD-RAM UJ890AS Adapter: 0 ID: 1

Режим чтения : Достоверность
Использование точного потока : Да
Отключение кэша аудио : Да
Использование указателей C2 : Нет

Коррекция смещения при чтении : 102
Способность читать области Lead-in и Lead-out : Нет
Заполнение пропущенных сэмплов тишиной : Да
Удаление блоков с тишиной в начале и конце : Нет
При вычислениях CRC использовались нулевые сэмплы : Да
Интерфейс : Встроенный Win32-интерфейс для Win NT/2000

Выходной формат : Пользовательский кодировщик
Выбранный битрейт : 768 kBit/s
Качество : Высокий
Добавление ID3-тэга : Нет
Утилита сжатия : C:Program Files (x86)Exact Audio CopyFLACFLAC.EXE
Дополнительные параметры : -8 -V -T "ARTIST=%a" -T "TITLE=%t" -T "ALBUM=%g" -T "DATE=%y" -T "TRACKNUMBER=%n" -T "GENRE=%m" -T "COMMENT=EAC FLAC -8" %s

TOC извлечённого CD

Трек | Старт | Длительность | Начальный сектор | Конечный сектор
---------------------------------------------------------------------
1 | 0:00.00 | 3:19.28 | 0 | 14952
2 | 3:19.28 | 2:44.48 | 14953 | 27300
3 | 6:04.01 | 1:17.00 | 27301 | 33075
4 | 7:21.01 | 2:10.26 | 33076 | 42851
5 | 9:31.27 | 2:28.67 | 42852 | 54018
6 | 12:00.19 | 1:06.63 | 54019 | 59031
7 | 13:07.07 | 3:16.16 | 59032 | 73747
8 | 16:23.23 | 1:52.31 | 73748 | 82178
9 | 18:15.54 | 2:28.56 | 82179 | 93334
10 | 20:44.35 | 1:25.43 | 93335 | 99752
11 | 22:10.03 | 2:27.51 | 99753 | 110828
12 | 24:37.54 | 3:55.21 | 110829 | 128474
13 | 28:33.00 | 3:02.25 | 128475 | 142149
14 | 31:35.25 | 1:52.36 | 142150 | 150585
15 | 33:27.61 | 2:40.66 | 150586 | 162651
16 | 36:08.52 | 3:24.13 | 162652 | 177964
17 | 39:32.65 | 2:35.33 | 177965 | 189622
18 | 42:08.23 | 1:29.46 | 189623 | 196343
19 | 43:37.69 | 2:37.64 | 196344 | 208182
20 | 46:15.58 | 2:10.70 | 208183 | 218002

Характеристики диапазона извлечения и сообщения об ошибках

Выбранный диапазон

Имя файла D:My DiscCD 1В.Высоцкий - CD-1 Горящий Смоленск, горящий Рейхстаг.wav

Пиковый уровень 98.6 %
Качество диапазона 100.0 %
CRC копии 20D188CE
Копирование... OK

Ошибок не произошло

AccurateRip: сводка

Трек 1 точность не определена (достоверность 1) [68F306CE], AccurateRip вернул [D105F5F1]
Трек 2 точность не определена (достоверность 1) [1B3E5641], AccurateRip вернул
Трек 3 точность не определена (достоверность 1) [F24DF850], AccurateRip вернул [700384B4]
Трек 4 точность не определена (достоверность 1) [F3DC9585], AccurateRip вернул [85D5A3BA]
Трек 5 точность не определена (достоверность 1) [E89B1A82], AccurateRip вернул [CC12C377]
Трек 6 точность не определена (достоверность 1) [C7B88BAB], AccurateRip вернул [464B309D]
Трек 7 точность не определена (достоверность 1) [8D7334A1], AccurateRip вернул [26B6DBDF]
Трек 8 точность не определена (достоверность 1) [8C339852], AccurateRip вернул [1534355D]
Трек 9 точность не определена (достоверность 1) [7BB99ADE], AccurateRip вернул [79985860]
Трек 10 точность не определена (достоверность 1) [0BDBF53D], AccurateRip вернул [CC21116B]
Трек 11 точность не определена (достоверность 1) [56198DB1], AccurateRip вернул [824BF444]
Трек 12 точность не определена (достоверность 1) [84AC44DB], AccurateRip вернул [D69DA132]
Трек 13 точность не определена (достоверность 1) [286A360D], AccurateRip вернул [EA56DFB1]
Трек 14 точность не определена (достоверность 1) [8E1760B6], AccurateRip вернул [38401EAA]
Трек 15 точность не определена (достоверность 1) [49A6227E], AccurateRip вернул
Трек 16 точность не определена (достоверность 1) [A54E30E2], AccurateRip вернул [FD935CBE]
Трек 17 точность не определена (достоверность 1) [FA39333A], AccurateRip вернул [9BB515D1]
Трек 18 точность не определена (достоверность 1) [E972D9E7], AccurateRip вернул [3CD3B224]
Трек 19 точность не определена (достоверность 1) , AccurateRip вернул [18B8F659]
Трек 20 точность не определена (достоверность 1) [5E055FB6], AccurateRip вернул [4FA75B2D]

Ни один трек не прошёл проверки на точность
В вашей базе может быть иной вариант штамповки диска

Конец отчёта
log.EAC CD 2 - Милый Ваня,я гуляю по Парижу
Exact Audio Copy V0.99 prebeta 5 from 4. May 2009

Отчёт EAC об извлечении, выполненном 7. сентября 2012, 20:35

Владимир Высоцкий / CD-2 Милый Ваня, я гуляю по Парижу

Дисковод: MATSHITADVD-RAM UJ890AS Adapter: 0 ID: 1

Режим чтения : Достоверность
Использование точного потока : Да
Отключение кэша аудио : Да
Использование указателей C2 : Нет

Коррекция смещения при чтении : 102
Способность читать области Lead-in и Lead-out : Нет
Заполнение пропущенных сэмплов тишиной : Да
Удаление блоков с тишиной в начале и конце : Нет
При вычислениях CRC использовались нулевые сэмплы : Да
Интерфейс : Встроенный Win32-интерфейс для Win NT/2000

Выходной формат : Пользовательский кодировщик
Выбранный битрейт : 768 kBit/s
Качество : Высокий
Добавление ID3-тэга : Нет
Утилита сжатия : C:Program Files (x86)Exact Audio CopyFLACFLAC.EXE
Дополнительные параметры : -8 -V -T "ARTIST=%a" -T "TITLE=%t" -T "ALBUM=%g" -T "DATE=%y" -T "TRACKNUMBER=%n" -T "GENRE=%m" -T "COMMENT=EAC FLAC -8" %s

TOC извлечённого CD

Трек | Старт | Длительность | Начальный сектор | Конечный сектор
---------------------------------------------------------------------
1 | 0:00.00 | 1:34.09 | 0 | 7058
2 | 1:34.09 | 4:31.73 | 7059 | 27456
3 | 6:06.07 | 2:15.08 | 27457 | 37589
4 | 8:21.15 | 2:52.66 | 37590 | 50555
5 | 11:14.06 | 3:14.34 | 50556 | 65139
6 | 14:28.40 | 4:47.35 | 65140 | 86699
7 | 19:16.00 | 3:05.35 | 86700 | 100609
8 | 22:21.35 | 2:59.49 | 100610 | 114083
9 | 25:21.09 | 1:42.04 | 114084 | 121737
10 | 27:03.13 | 3:05.24 | 121738 | 135636
11 | 30:08.37 | 2:52.60 | 135637 | 148596
12 | 33:01.22 | 3:59.63 | 148597 | 166584
13 | 37:01.10 | 1:32.19 | 166585 | 173503
14 | 38:33.29 | 2:38.34 | 173504 | 185387
15 | 41:11.63 | 4:58.43 | 185388 | 207780
16 | 46:10.31 | 2:54.18 | 207781 | 220848
17 | 49:04.49 | 4:21.59 | 220849 | 240482
18 | 53:26.33 | 2:45.47 | 240483 | 252904
19 | 56:12.05 | 2:51.36 | 252905 | 265765
20 | 59:03.41 | 5:28.68 | 265766 | 290433

Характеристики диапазона извлечения и сообщения об ошибках

Выбранный диапазон

Имя файла D:My DiscCD 2Владимир Высоцкий - CD-2 Милый Ваня, я гуляю по Парижу.wav

Пиковый уровень 100.0 %
Качество диапазона 100.0 %
CRC копии FFBFFC1E
Копирование... OK

Ошибок не произошло

AccurateRip: сводка

Трек 1 точность не определена (достоверность 1) [97C0A5EA], AccurateRip вернул [CEA04327]
Трек 2 точность не определена (достоверность 1) [35AF6B59], AccurateRip вернул [36C5EEAA]
Трек 3 точность не определена (достоверность 1) [DF8FB14C], AccurateRip вернул [D17B96D2]
Трек 4 точность не определена (достоверность 1) [21E6F002], AccurateRip вернул [8CB5F6A3]
Трек 5 точность не определена (достоверность 1) [1A656526], AccurateRip вернул [28BAC927]
Трек 6 точность не определена (достоверность 1) [0B5131EC], AccurateRip вернул [3972D11C]
Трек 7 точность не определена (достоверность 1) [306DA4BD], AccurateRip вернул [5237116B]
Трек 8 точность не определена (достоверность 1) [5916C221], AccurateRip вернул [0C8C11FF]
Трек 9 точность не определена (достоверность 1) [42B4F137], AccurateRip вернул [8276F3D0]
Трек 10 точность не определена (достоверность 1) [1D7E457E], AccurateRip вернул [369F7AA8]
Трек 11 точность не определена (достоверность 1) [87157969], AccurateRip вернул [BCD544FC]
Трек 12 точность не определена (достоверность 1) [E02DDE74], AccurateRip вернул [56374E83]
Трек 13 точность не определена (достоверность 1) [8727B9AD], AccurateRip вернул [EBA3F610]
Трек 14 точность не определена (достоверность 1) [19698319], AccurateRip вернул [8CD6C645]
Трек 15 точность не определена (достоверность 1) [C60A08A1], AccurateRip вернул [C163CD52]
Трек 16 точность не определена (достоверность 1) [ACC99AEC], AccurateRip вернул [6EE98DAF]
Трек 17 точность не определена (достоверность 1) [445CBA36], AccurateRip вернул [C90C12F8]
Трек 18 точность не определена (достоверность 1) [40B50E6F], AccurateRip вернул [70A88841]
Трек 19 точность не определена (достоверность 1) [89AE0C8E], AccurateRip вернул [544E5EDF]
Трек 20 точность не определена (достоверность 1) [03FE6F8A], AccurateRip вернул [3B5DD5B4]

Ни один трек не прошёл проверки на точность
В вашей базе может быть иной вариант штамповки диска

Конец отчёта
log.EAC CD 3 - Лукоморья больше нет
Exact Audio Copy V0.99 prebeta 5 from 4. May 2009

Отчёт EAC об извлечении, выполненном 7. сентября 2012, 21:23

В. Высоцкий / CD3 Лукоморья больше нет

Дисковод: MATSHITADVD-RAM UJ890AS Adapter: 0 ID: 1

Режим чтения : Достоверность
Использование точного потока : Да
Отключение кэша аудио : Да
Использование указателей C2 : Нет

Коррекция смещения при чтении : 102
Способность читать области Lead-in и Lead-out : Нет
Заполнение пропущенных сэмплов тишиной : Да
Удаление блоков с тишиной в начале и конце : Нет
При вычислениях CRC использовались нулевые сэмплы : Да
Интерфейс : Встроенный Win32-интерфейс для Win NT/2000

Выходной формат : Пользовательский кодировщик
Выбранный битрейт : 768 kBit/s
Качество : Высокий
Добавление ID3-тэга : Нет
Утилита сжатия : C:Program Files (x86)Exact Audio CopyFLACFLAC.EXE
Дополнительные параметры : -8 -V -T "ARTIST=%a" -T "TITLE=%t" -T "ALBUM=%g" -T "DATE=%y" -T "TRACKNUMBER=%n" -T "GENRE=%m" -T "COMMENT=EAC FLAC -8" %s

TOC извлечённого CD

Трек | Старт | Длительность | Начальный сектор | Конечный сектор
---------------------------------------------------------------------
1 | 0:00.00 | 2:34.58 | 0 | 11607
2 | 2:34.58 | 2:09.25 | 11608 | 21307
3 | 4:44.08 | 2:30.46 | 21308 | 32603
4 | 7:14.54 | 2:35.44 | 32604 | 44272
5 | 9:50.23 | 2:46.02 | 44273 | 56724
6 | 12:36.25 | 1:19.41 | 56725 | 62690
7 | 13:55.66 | 4:01.19 | 62691 | 80784
8 | 17:57.10 | 1:39.56 | 80785 | 88265
9 | 19:36.66 | 5:36.57 | 88266 | 113522
10 | 25:13.48 | 3:42.73 | 113523 | 130245
11 | 28:56.46 | 2:08.10 | 130246 | 139855
12 | 31:04.56 | 2:55.07 | 139856 | 152987
13 | 33:59.63 | 2:59.56 | 152988 | 166468
14 | 36:59.44 | 2:10.10 | 166469 | 176228
15 | 39:09.54 | 2:04.31 | 176229 | 185559
16 | 41:14.10 | 3:06.22 | 185560 | 199531
17 | 44:20.32 | 1:06.19 | 199532 | 204500
18 | 45:26.51 | 2:17.50 | 204501 | 214825
19 | 47:44.26 | 2:01.32 | 214826 | 223932
20 | 49:45.58 | 1:52.45 | 223933 | 232377

Характеристики диапазона извлечения и сообщения об ошибках

Выбранный диапазон

Имя файла D:My DiscCD 3В. Высоцкий - CD3 Лукоморья больше нет (100 лучших песен).wav

Пиковый уровень 100.0 %
Качество диапазона 100.0 %
CRC копии 1BD67CF7
Копирование... OK

Ошибок не произошло

AccurateRip: сводка

Трек 1 точность не определена (достоверность 1) [3BCC1C50], AccurateRip вернул [9BA68FAE]
Трек 2 точность не определена (достоверность 1) , AccurateRip вернул [64376D15]
Трек 3 точность не определена (достоверность 1) , AccurateRip вернул [3E5F29E6]
Трек 4 точность не определена (достоверность 1) [2B9D5708], AccurateRip вернул [1075FC36]
Трек 5 точность не определена (достоверность 1) [7F51A3A5], AccurateRip вернул [6BF5C9A3]
Трек 6 точность не определена (достоверность 1) [D66A6EA8], AccurateRip вернул [149A31E3]
Трек 7 точность не определена (достоверность 1) [309A68DB], AccurateRip вернул
Трек 8 точность не определена (достоверность 1) [9BF2B466], AccurateRip вернул [990150B0]
Трек 9 точность не определена (достоверность 1) [628E3706], AccurateRip вернул [D16E70FD]
Трек 10 точность не определена (достоверность 1) [8D25A075], AccurateRip вернул [1B2498C8]
Трек 11 точность не определена (достоверность 1) , AccurateRip вернул [7CDBE2D7]
Трек 12 точность не определена (достоверность 1) [990DDA53], AccurateRip вернул [5F853A5B]
Трек 13 точность не определена (достоверность 1) [0A214474], AccurateRip вернул [10CE3F42]
Трек 14 точность не определена (достоверность 1) [983B2C9F], AccurateRip вернул [084A6C56]
Трек 15 точность не определена (достоверность 1) [15B88A65], AccurateRip вернул [52341E92]
Трек 16 точность не определена (достоверность 1) [53159729], AccurateRip вернул [5CF86DEB]
Трек 17 точность не определена (достоверность 1) , AccurateRip вернул [924D582C]
Трек 18 точность не определена (достоверность 1) [7E1EB4E1], AccurateRip вернул [C00E4778]
Трек 19 точность не определена (достоверность 1) [7AF76448], AccurateRip вернул [EA8DBB27]
Трек 20 точность не определена (достоверность 1) [7FFE03E7], AccurateRip вернул [1E9DEA88]

Ни один трек не прошёл проверки на точность
В вашей базе может быть иной вариант штамповки диска

Конец отчёта
log.EAC CD 4 - Я не люблю фатального исхода
Exact Audio Copy V0.99 prebeta 5 from 4. May 2009

Отчёт EAC об извлечении, выполненном 7. сентября 2012, 22:18

В.Высоцкий / CD4 Я не люблю фатального исхода

Дисковод: MATSHITADVD-RAM UJ890AS Adapter: 0 ID: 1

Режим чтения : Достоверность
Использование точного потока : Да
Отключение кэша аудио : Да
Использование указателей C2 : Нет

Коррекция смещения при чтении : 102
Способность читать области Lead-in и Lead-out : Нет
Заполнение пропущенных сэмплов тишиной : Да
Удаление блоков с тишиной в начале и конце : Нет
При вычислениях CRC использовались нулевые сэмплы : Да
Интерфейс : Встроенный Win32-интерфейс для Win NT/2000

Выходной формат : Пользовательский кодировщик
Выбранный битрейт : 768 kBit/s
Качество : Высокий
Добавление ID3-тэга : Нет
Утилита сжатия : C:Program Files (x86)Exact Audio CopyFLACFLAC.EXE
Дополнительные параметры : -8 -V -T "ARTIST=%a" -T "TITLE=%t" -T "ALBUM=%g" -T "DATE=%y" -T "TRACKNUMBER=%n" -T "GENRE=%m" -T "COMMENT=EAC FLAC -8" %s

TOC извлечённого CD

Трек | Старт | Длительность | Начальный сектор | Конечный сектор
---------------------------------------------------------------------
1 | 0:00.00 | 7:39.16 | 0 | 34440
2 | 7:39.16 | 2:10.20 | 34441 | 44210
3 | 9:49.36 | 2:53.37 | 44211 | 57222
4 | 12:42.73 | 1:56.44 | 57223 | 65966
5 | 14:39.42 | 2:42.56 | 65967 | 78172
6 | 17:22.23 | 1:24.19 | 78173 | 84491
7 | 18:46.42 | 4:09.31 | 84492 | 103197
8 | 22:55.73 | 2:27.62 | 103198 | 114284
9 | 25:23.60 | 3:33.41 | 114285 | 130300
10 | 28:57.26 | 2:56.34 | 130301 | 143534
11 | 31:53.60 | 1:58.25 | 143535 | 152409
12 | 33:52.10 | 1:17.49 | 152410 | 158233
13 | 35:09.59 | 3:13.11 | 158234 | 172719
14 | 38:22.70 | 2:08.08 | 172720 | 182327
15 | 40:31.03 | 6:05.51 | 182328 | 209753
16 | 46:36.54 | 2:33.09 | 209754 | 221237
17 | 49:09.63 | 2:45.69 | 221238 | 233681
18 | 51:55.57 | 2:19.73 | 233682 | 244179
19 | 54:15.55 | 4:36.25 | 244180 | 264904
20 | 58:52.05 | 5:22.00 | 264905 | 289054

Характеристики диапазона извлечения и сообщения об ошибках

Выбранный диапазон

Имя файла D:My DiscCD 4В.Высоцкий - CD4 Я не люблю фатального исхода.wav

Пиковый уровень 100.0 %
Качество диапазона 100.0 %
CRC копии B7435E35
Копирование... OK

Ошибок не произошло

AccurateRip: сводка

Трек 1 точность не определена (достоверность 1) [D1D2C952], AccurateRip вернул [98C9B1A2]
Трек 2 точность не определена (достоверность 1) [A76EFA9E], AccurateRip вернул [AA38F1F2]
Трек 3 точность не определена (достоверность 1) [3C8940F0], AccurateRip вернул [D8657ABD]
Трек 4 точность не определена (достоверность 1) [416B36A2], AccurateRip вернул [3AD701AE]
Трек 5 точность не определена (достоверность 1) , AccurateRip вернул [74A52478]
Трек 6 точность не определена (достоверность 1) [774471C9], AccurateRip вернул [CA718ABC]
Трек 7 точность не определена (достоверность 1) [891F3298], AccurateRip вернул [0FC7AF91]
Трек 8 точность не определена (достоверность 1) [F3314111], AccurateRip вернул [212AA24D]
Трек 9 точность не определена (достоверность 1) [3A52ECC4], AccurateRip вернул [6471E7AF]
Трек 10 точность не определена (достоверность 1) [FFB6AB25], AccurateRip вернул [54CC635C]
Трек 11 точность не определена (достоверность 1) [7F8B453B], AccurateRip вернул [7E7B9A71]
Трек 12 точность не определена (достоверность 1) [298D01DD], AccurateRip вернул [D769C599]
Трек 13 точность не определена (достоверность 1) [BA9DEE18], AccurateRip вернул [97B4FCAE]
Трек 14 точность не определена (достоверность 1) [39245E8C], AccurateRip вернул [6B069005]
Трек 15 точность не определена (достоверность 1) [D91A2AD0], AccurateRip вернул [6C57854A]
Трек 16 точность не определена (достоверность 1) [2AF955F0], AccurateRip вернул [4B36F0F1]
Трек 17 точность не определена (достоверность 1) [D4950FBE], AccurateRip вернул [315EC6A3]
Трек 18 точность не определена (достоверность 1) [242E2F94], AccurateRip вернул [A269A437]
Трек 19 точность не определена (достоверность 1) [13B3C72F], AccurateRip вернул [735CE1CC]
Трек 20 точность не определена (достоверность 1) [5CC8936C], AccurateRip вернул [2192BA18]

Ни один трек не прошёл проверки на точность
В вашей базе может быть иной вариант штамповки диска

Конец отчёта
log.EAC CD 5 - Городской романс
Exact Audio Copy V0.99 prebeta 5 from 4. May 2009

Отчёт EAC об извлечении, выполненном 8. сентября 2012, 4:00

В. Высоцкий / CD5 Городской романс (100 лучших песен)

Дисковод: MATSHITADVD-RAM UJ890AS Adapter: 0 ID: 1

Режим чтения : Достоверность
Использование точного потока : Да
Отключение кэша аудио : Да
Использование указателей C2 : Нет

Коррекция смещения при чтении : 102
Способность читать области Lead-in и Lead-out : Нет
Заполнение пропущенных сэмплов тишиной : Да
Удаление блоков с тишиной в начале и конце : Нет
При вычислениях CRC использовались нулевые сэмплы : Да
Интерфейс : Встроенный Win32-интерфейс для Win NT/2000

Выходной формат : Пользовательский кодировщик
Выбранный битрейт : 768 kBit/s
Качество : Высокий
Добавление ID3-тэга : Нет
Утилита сжатия : C:Program Files (x86)Exact Audio CopyFLACFLAC.EXE
Дополнительные параметры : -8 -V -T "ARTIST=%a" -T "TITLE=%t" -T "ALBUM=%g" -T "DATE=%y" -T "TRACKNUMBER=%n" -T "GENRE=%m" -T "COMMENT=EAC FLAC -8" %s

TOC извлечённого CD

Трек | Старт | Длительность | Начальный сектор | Конечный сектор
---------------------------------------------------------------------
1 | 0:00.00 | 3:00.00 | 0 | 13499
2 | 3:00.00 | 2:47.13 | 13500 | 26037
3 | 5:47.13 | 2:15.50 | 26038 | 36212
4 | 8:02.63 | 2:10.39 | 36213 | 46001
5 | 10:13.27 | 2:12.14 | 46002 | 55915
6 | 12:25.41 | 3:32.05 | 55916 | 71820
7 | 15:57.46 | 2:28.67 | 71821 | 82987
8 | 18:26.38 | 3:30.53 | 82988 | 98790
9 | 21:57.16 | 1:44.32 | 98791 | 106622
10 | 23:41.48 | 2:32.22 | 106623 | 118044
11 | 26:13.70 | 1:24.16 | 118045 | 124360
12 | 27:38.11 | 2:11.45 | 124361 | 134230
13 | 29:49.56 | 2:17.25 | 134231 | 144530
14 | 32:07.06 | 1:57.12 | 144531 | 153317
15 | 34:04.18 | 3:17.62 | 153318 | 168154
16 | 37:22.05 | 3:09.54 | 168155 | 182383
17 | 40:31.59 | 2:48.44 | 182384 | 195027
18 | 43:20.28 | 0:45.02 | 195028 | 198404
19 | 44:05.30 | 1:10.53 | 198405 | 203707
20 | 45:16.08 | 2:54.01 | 203708 | 216758

Характеристики диапазона извлечения и сообщения об ошибках

Выбранный диапазон

Имя файла D:My DiscCD 5В. Высоцкий - CD5 Городской романс (100 лучших песен).wav

Пиковый уровень 100.0 %
Качество диапазона 100.0 %
CRC копии 713A7D55
Копирование... OK

Ошибок не произошло

AccurateRip: сводка

Трек 1 точность не определена (достоверность 1) [D2287B4C], AccurateRip вернул [8A9D97D7]
Трек 2 точность не определена (достоверность 1) [D5051C82], AccurateRip вернул [5A4B6834]
Трек 3 точность не определена (достоверность 1) [6FF817A1], AccurateRip вернул [53B623DC]
Трек 4 точность не определена (достоверность 1) [08309E0E], AccurateRip вернул [480C363C]
Трек 5 точность не определена (достоверность 1) [859F0AF0], AccurateRip вернул
Трек 6 точность не определена (достоверность 1) [8330D7D9], AccurateRip вернул [2FFBDECA]
Трек 7 точность не определена (достоверность 1) [F8FF59A4], AccurateRip вернул [EB4B7569]
Трек 8 точность не определена (достоверность 1) [10A1EAA9], AccurateRip вернул [DFB33EF4]
Трек 9 точность не определена (достоверность 1) [2C82D33D], AccurateRip вернул [078AB416]
Трек 10 точность не определена (достоверность 1) [3616DE91], AccurateRip вернул [BC7837AB]
Трек 11 точность не определена (достоверность 1) [570F0F96], AccurateRip вернул [BFBA1ADB]
Трек 12 точность не определена (достоверность 1) [C2057C14], AccurateRip вернул [F05F4E27]
Трек 13 точность не определена (достоверность 1) [5F74A0DC], AccurateRip вернул [87AB03CC]
Трек 14 точность не определена (достоверность 1) [DC1CB0C3], AccurateRip вернул [A790E779]
Трек 15 точность не определена (достоверность 1) , AccurateRip вернул [8D86822E]
Трек 16 точность не определена (достоверность 1) [208513D3], AccurateRip вернул [0CBFBD5F]
Трек 17 точность не определена (достоверность 1) [97F0F7AC], AccurateRip вернул [954D86C7]
Трек 18 точность не определена (достоверность 1) [8C643AD1], AccurateRip вернул [965E6F34]
Трек 19 точность не определена (достоверность 1) [862ADDFB], AccurateRip вернул [D5D27DAE]
Трек 20 точность не определена (достоверность 1) [7ABAF8E5], AccurateRip вернул [00FF2646]

Ни один трек не прошёл проверки на точность
В вашей базе может быть иной вариант штамповки диска

Конец отчёта
Музыка / Lossless / Шансон
СКАЧАТЬ БЕСПЛАТНО  [1.3 GB]


23
сен
2011

VA - Best Of Love -100 лучших песен в истории [2009, Dance, Pop, MP3]

Формат: MP3, tracks, 320kbps
Год выпуска: 2009
Страна: All world
Жанр: Dance, Pop
Продолжительность: 06:36:26
Описание: Трек лист01. Marvin Gaye - Let's Get It On (4:01) 02. Bette Midler - Rose, The (3:41) 03. Elvis Presley - Love Me Tender (2:47) 04. Dido - Thank You (3:45) 05. Extreme - More Than Words (5:34) 06. Sarah Mclachlan - Building A Mystery (4:07) 07. The Beatles - It's Only Love (1:56) 08. Al Green - Let's Stay Together (3:12) 09. Barry White - You're The First, The Last, My Everthing (3:26) 10. Jackson 5 - I'll Be There (3:51) 11. Sinead O'Connor - Nothing Compares 2 U (5:07) 1 ...

23
июл
2016

Александр Маршал - 100 Лучших Песен [2013, Шансон, Поп, Военная песня, MP3]

Формат: MP3, tracks, 256kbps
Год выпуска: 2013
Страна: Россия
Жанр: Шансон, Поп, Военная песня
Продолжительность: 06:27:48
Описание: Треклист001. Отец солдата 002. Будем жить 003. Батя 004. Солдаты неба 005. Медаль 006. Серебрится рассвет 007. Вожак 008. Не забыть 009. Срочник 010. Приказ назад 011. Кавказский пленник 012. Сука 013. Горец 014. Снайпер 015. Рота 016. Волчонок 017. Крестный ход 018. Спасибо тебе 019. Уходят близкие 020. Особый 021. Саня 022. Профессионал 023. Минуты затишья 024. Берег 025. Последний листок 026. Волчицы 027. Пацаны 028. Неотправленное письмо 029. Барак 030. Кол ...

03
янв
2014

Наутилус Помпилиус - 100 Лучших Песен [2013, Рок, MP3]

Формат: MP3, tracks, 320kbps
Год выпуска: 2013
Страна: Россия
Жанр: Рок
Продолжительность: 06:27:24
Описание: Треклист01. Скованные одной цепью 02. Шар цвета хаки 03. Эта музыка будет вечной 04. Дыхание 05. Доктор твоего тела 06. Я хочу быть с тобой 07. Музыка на песке 08. Казанова 09. После и снова 10. Путь 11. Фанта-джюс 12. Летучий фрегат 13. Я не вернусь 14. Автор 15. Анабасис 16. Квадратные глаза 17. Пингвинья ревность 18. Она есть 19. Превращение 20. Свидание 21. Никто мне не поверит 22. Алчи-Алчи 23. Идиллия 24. В который раз я вижу R'N'R 25. Кто я? 26. Апельсиновый день 27. Атлантид ...

05
мая
2015

VA - 100 Лучших романтических песен [2015, Pop, Rock, R&b, Soul, MP3]

Формат: MP3, tracks, 320kbps
Год выпуска: 2015
Страна: All World
Жанр: Pop, Rock, R&b, Soul
Продолжительность: 07:44:10
Описание: Tracklist001. Evanescence - My Immortal (04:24) 002. Chicago - If You Leave Me Now (03:58 ) 003. Mariah Carey - Without you (03:36) 004. Joe Cocker - My Father's Son (04:31) 005. George Benson - New Day (04:28 ) 006. Kenny Rogers - This Woman (03:58 ) 007. Madonna - Frozen (06:12) 008. Rainbow - Catch The Rainbow (06:43) 009. Barbra Streisand - Woman in love (03:52) 010. Sting - Shape Of My Heart (04:37) 011. Chris Isaak - Blue Hotel (03:10) 012. Black - Wonderful L ...

29
мар
2013

Стас Михайлов - 100 Лучших Песен [2013, Шансон, MP3]

Формат: MP3, tracks, 256kbps
Год выпуска: 2013
Страна: Россия
Жанр: Шансон
Продолжительность: 06:39:13
Описание: Треклист 01. Свет Звезды 02. Ты одна такая 03. Лети Душа 04. Я Люблю Под Вечер Помечтать 05. Мир Без Тебя 06. Все Для Тебя 07. Приди Ко Мне 08. Половинка 09. Странник 10. Ну Вот И Все 11. Душа 12. Без Тебя 13. Моя Любовь 14. Свеча 15. Жизнь-Река 16. Отпускаю 17. Где Ты 18. К Тебе Иду 19. Ветер Бродяга 20. Не Вдвоем 21. Позывные На Любовь 22. Жди 23. Париж, Париж 24. Женщина-Обман 25. Живу И Таю 26. Быть Хочу Счастливым 27. Знай Об Этом 28. Звездой На Небо 29. Забудь 30. Ах, Как Хоч ...

18
сен
2013

Сборник - 100 Лучших дворовых песен [2013, Шансон, MP3]

Формат: MP3, tracks, 256kbps
Год выпуска: 2013
Страна: Россия
Жанр: Шансон
Продолжительность: 06:12:21
Описание: Треклист01. Андрей Бандера - Клен 02. Стас Михайлов - Трамвай 03. Елена Ваенга - Кокаин 04. Артур – Ветер гонит злые тучи 05. Гоша Самойлов - Шёл трамвай десятый номер 06. Анатолий Полотно - Увяли розы 07. Андрей Климнюк - Ты сейчас далеко 08. Раиса Отрадная - Облака крылатые 09. Шан-Хай Солнечный зайчик (Remix) 10. Наташа Северская – Черная моль 11. Александр Маршал И Надежда Бабкина - Черный ворон 12. Владимир Харламов - Белая берёза 13. Рада Рай - Вишня 14. Евгений Росс и Евге ...

12
сен
2009

100 Лучших песен про жизнь [2009, Шансон, MP3]

Формат: MP3, tracks, 192kbps
Год выпуска: 2009
Страна: Россия
Жанр: Шансон
Продолжительность: 06:44:45
Описание: Треклист001 . В. Курас - Капельки 002 . С. Шнуров - Скорость 003 . А. Марцынкевич - Завидую 004 . М. Шуфутинский - Пропажа 005 . Л. Успенская И Гр. Штар - Гитара 006 . М. Круг И И. Круг - Тебе Моя Последняя Любовь 007 . О. Алябин - Черешня 008 . Бутырка - Сероглазая Шалунья 009 . Ф. Карманов И А. Полотно - Гоп-Стоп, Сало 010 . Ж. Барс - Любить До Слез 011 . Трофим - Весенний Блюз 012 . С. Михайлов - Свеча 013 . К. Огонек - Дорога Моей Жизни 014 . В. Петлюра - Ну Как Же Так Вышло 015 ...

30
июл
2016

Александр Заборский - 100 лучших песен [2016, Шансон, MP3]

Формат: MP3, tracks, 320kbps
Год выпуска: 2016
Страна: Россия
Жанр: Шансон
Продолжительность: 05:42:21
Описание: Треклист01. Начальник
Барабанов.(3:46) 02. Случилось это раннею весною.(2:55) 03. Ты распечатал срок.(3:20) 04. Петроград весь в дыму.(5:35) 05. Урка в космосе.(3:54) 06. Ах, ты зона.(3:29) 07.
В лифте.(2:36) 08. Я сын рабочего подпольного партийца.(2:36) 09. Девушка в синем берете.(3:46) 10. За что Шарлотта кокнула
Марата.(1:46) 11. Шлю тебе,
Тамара.(2:24) 12.
Шел столыпин.(4:23) 13. Конвой торопит, не дает проститься.(2:25) 14. На волю будто в омут.(1:44) 15. Наиграй мне, малоле ...

13
янв
2014

Михаил Круг - 100 Лучших Песен [2013, Шансон, MP3]

Формат: MP3, tracks, 256kbps
Год выпуска: 2013
Страна: Россия
Жанр: Шансон
Продолжительность: 06:09:57
Описание: Треклист001. Электричка 002. Девочка - пай 003. Кольщик 004. Дороги 005. Фраер 006. Добрая, глупая, давняя 007. Кумовая 008. Осенний дождь 009. Не спалила, любила 010. Жиган - Лимон 011. А сечку жрите сами 012. День как день 013. Пусти меня, Мама 014. Зек - рэп 015. Это было вчера 016. Селигер 017. Тишина 018. Зона - СПИДу нет! 019. У каких ворот 020. Светочка 021. Прокурору зеленому - слава! 022. Милый мой город 023. Водочку пьём... 024. Воробьи 025. Маравихер 026. Я люблю тебя, к ...

27
янв
2017

Елена Ваенга - 100 Лучших Песен [2013, Шансон, MP3]

Формат: MP3, tracks, 256kbps
Год выпуска: 2013
Страна: Россия
Жанр: Шансон
Продолжительность: 05:49:07
Описание: Треклист001. Курю 002. Абсент 003. Где была 004. Принцесса 005. Лодочка 006. Клавиши 007. Шопен 008. Дюны 009. Аэропорт 010. Желаю 011. Золотая рыбка 012. Тайга 013. Оловянное сердце 014. Жаль 015. Ты 016. Говори, говори... 017. Реснички 018. Радуга 019. Мосты 020. Внутри 021. Гуцулочка 022. Неформат 023. Перрон 024. Лапки 025. Ванечка 026. Океаны 027. Белая птица 028. Косолапая любовь 029. Ягода 030. Тополя 031. Пашка 032. Соломон 033. Виски 034. Ленточка 035. Ордынка 036. Весточ ...

14
апр
2010

VA - 100 лучших детских песен [2009, Детские песни, MP3]

Формат: MP3, tracks, 320kbps
Год выпуска: 2009
Страна: Россия
Жанр: Детские песни
Продолжительность: 13:41:25
Треклист: Часть 1 03 001. Золотая горка 002. Любимый папа 003. Птичка 004. Храбрый зайчик 005. Пых-пых самовар 006. Крутится скакалка 007. Настоящая метла 008. Виноватая тучка 009. Кабы не было зимы 010. Необитаемый остров 011. Осьминожки 012. Песня Рыбы-Пилы 013. Да здравствует сюрприз! 014. Куда ты, тропинка, меня привела? 015. Песня Синеглазки 016. Танец маленьких утят 017. А, как известно, мы - народ горячий 018. Дождя не боимся 019. Разве это не чудо 020. Песенка о лете 021. Песн ...

31
окт
2016

Александр Спиридонов (Комар) - 100 лучших песен [2016, Шансон, MP3]

Формат: MP3, tracks, 320kbps
Год выпуска: 2016
Страна: Россия
Жанр: Шансон
Продолжительность: 04:23:05
Описание: Треклист01. Вспоминая жизнь свою прошедшую... 00:04:07 02. Я не знаю, что ты мне напишешь... 00:04:32 03. Заблистали капельки хрустальные... 00:02:49 04. Бабочка красивая. 00:01:50 05. Это Было В Гренаде. 00:03:06 06. Я Пишу Тебе Милая. 00:01:51 07. Белые Туфельки. 00:03:41 08. Хризантемы. 00:02:12 09. Не плачь, гитара моя 00:01:37 10. Была Весна. 00:02:13 11. Чьи Там Кони Стоят У Ворот. 00:02:10 12. Чиримэ. 00:03:15 13. Искры камина. 00:02:14 14. Бирюзовые златы колечки. 00:02:24 ...

28
окт
2016

Аркадий Северный - 100 лучших песен [2016, Шансон, MP3]

Формат: MP3, tracks, 320kbps
Год выпуска: 2016
Страна: Россия
Жанр: Шансон
Продолжительность: 07:16:31
Описание: Треклист01. Здравствуйте, мое почтение.(2:51) 02. Купцы из
Касимова.(2:53) 03. Будут Вам и небо голубое.(6:29) 04. Тяжело ли, строго ли.(5:25) 05. Не забыть мне русую головку.(4:07) 06. За окном кудрявая белая акация.(4:33) 07. Что-то часто мне снятся друзья.(4:14) 08.
Три пути.(6:52) 09. Отшумели зелёные травы....(3:03) 10. Ты вошла в мою судьбу.(3:56) 11. По пыльной дороге, под солнцем палящим.(6:17) 12.
Колода карт.(6:45) 13. В саду на ветви пел тихонько скворушка.(4:51) 14. Са ...

17
апр
2010

VA - Золотой Граммофон. 100 лучших песен [2010, Pop, MP3]

Формат: MP3, tracks, 256kbps
Год выпуска: 2010
Страна: Россия
Жанр: Pop
Продолжительность: 06:01:36 Треклист 001 Корни - Лепесток 002 Лолита - Остановите землю 003 Денис Майданов - Вечная любовь (Amareta Full Remix) 004 Вика Крутая & DJ Serge - Убегу 005 Игорь Николаев и Юля Проскурякова - SMS 006 DJ Yankovski - Ландыши 007 Ангел-А - Блондинка 008 БиС - Мистер DJ 009 Демо - Первый поцелуй 010 Митя Фомин - Две земли 011 Кирилл Андреев - С тобой 012 Анна Седокова - Селяви 013 Челси - Точка возврата 014 Павла - Алло (Global Deejays Remix) 015 ВИА Гра - Анти-гейша 016 Мираж - Музыка нас связала 2 ...

17
ноя
2013

Сборник - 100 Лучших Песен о Любви [2013, Шансон, MP3]

Формат: MP3, tracks, 256-320kbps
Год выпуска: 2013
Страна: Россия
Жанр: Шансон
Продолжительность: 06:20:21
Описание: Треклист001. Михаил Шуфутинский - За милых дам 002. Николай Озеров - Прекрасные создания 003. Борис Шварцман - Одной тобою 004. Алексей Романюта - Если рядом ты 005. Вячеслав Мовчан - Она 006. Игорь Корнилов - Цветы 007. Вячеслав Анисимов - Прости меня 008. Владимир Хозяенко - Медовая 009. Александр Дюмин - Роза 010. Группа Бумер - Звезда любви 011. Андрей Климнюк - Вот и встретились 012. Доманин Владимир - Как любить тебя 013. Алексей Крупнов - Любовь без меры 014. Миша Мост ...