20
ноя
2016

OST - The Music of Grand Theft Auto V (Volume 3: The Soundtrack) [2013, Soundtrack, FLAC]

OST - The Music of Grand Theft Auto V (Volume 3: The Soundtrack)
Формат: FLAC, (tracks + .cue), lossless
Год выпуска: 2013
Страна: All World
Жанр: Soundtrack
Продолжительность: 01:14:50
Описание:
Треклист
01. Flying Lotus feat. Niki Randa - The Kill
02. Lee "Scratch" Perry - I Am a Madman
03. Jai Paul - Jasmine
04. George McCrae - I Get Lifted
05. Kausion - What You Wanna Do
06. Charlie Feathers - Can't Hardly Stand It
07. The Weirdos - Life of Crime
08. Mexican Institute of Sound - Es Toy
09. Joe Goddard feat. Valentina - Gabriel (Soulwax Mix)
10. Bootsy Collins - I'd Rather Be With You
11. Bob Seger - Hollywood Nights
12. Dan Croll - From Nowhere (Baardsen Remix)
13. Problem feat. Glasses Malone - Say That Then
14. Waylon Jennings - I Ain't Living Long Like This
15. Yellowman - Nobody Move, Nobody Gets Hurt
16. Simple Minds - All the Things She Said
17. Toro y Moi - Harm in Change
18. Hot Snakes - This Mystic Decade
19. Cashmere Cat - Mirror Maru

Доп. информация:
LOG
Exact Audio Copy V1.0 beta 3 from 29. August 2011

EAC extraction logfile from 20. December 2014, 18:29

Various Artists / Volume 3: The Soundtrack

Used drive : Optiarc DVD RW AD-7240S Adapter: 0 ID: 0

Read mode : Secure
Utilize accurate stream : Yes
Defeat audio cache : Yes
Make use of C2 pointers : No

Read offset correction : 48
Overread into Lead-In and Lead-Out : No
Fill up missing offset samples with silence : Yes
Delete leading and trailing silent blocks : No
Null samples used in CRC calculations : Yes
Used interface : Native Win32 interface for Win NT & 2000
Gap handling : Appended to previous track

Used output format : User Defined Encoder
Selected bitrate : 1024 kBit/s
Quality : High
Add ID3 tag : No
Command line compressor : C:Program Files (x86)FLACflac.exe
Additional command line options : -8 -V -T "ARTIST=%artist%" -T "TITLE=%title%" -T "ALBUM=%albumtitle%" -T "DATE=%year%" -T "TRACKNUMBER=%tracknr%" -T "GENRE=%genre%" -T "PERFORMER=%albuminterpret%" -T "COMPOSER=%composer%" %haslyrics%--tag-from-file=LYRICS="%lyricsfile%"%haslyrics% -T "ALBUMARTIST=%albumartist%" -T "DISCNUMBER=%cdnumber%" -T "TOTALDISCS=%totalcds%" -T "TOTALTRACKS=%numtracks%" -T "COMMENT=%comment%" %source% -o %dest%

TOC of the extracted CD

Track | Start | Length | Start sector | End sector
---------------------------------------------------------
1 | 0:00.00 | 3:27.18 | 0 | 15542
2 | 3:27.18 | 5:50.06 | 15543 | 41798
3 | 9:17.24 | 4:12.02 | 41799 | 60700
4 | 13:29.26 | 2:46.71 | 60701 | 73221
5 | 16:16.22 | 4:10.15 | 73222 | 91986
6 | 20:26.37 | 2:50.18 | 91987 | 104754
7 | 23:16.55 | 2:21.50 | 104755 | 115379
8 | 25:38.30 | 3:17.56 | 115380 | 130210
9 | 28:56.11 | 4:30.65 | 130211 | 150525
10 | 33:27.01 | 4:59.37 | 150526 | 172987
11 | 38:26.38 | 5:02.03 | 172988 | 195640
12 | 43:28.41 | 4:29.07 | 195641 | 215822
13 | 47:57.48 | 2:54.08 | 215823 | 228880
14 | 50:51.56 | 4:47.12 | 228881 | 250417
15 | 55:38.68 | 3:45.08 | 250418 | 267300
16 | 59:24.01 | 4:18.02 | 267301 | 286652
17 | 63:42.03 | 4:01.19 | 286653 | 304746
18 | 67:43.22 | 3:05.31 | 304747 | 318652
19 | 70:48.53 | 4:02.10 | 318653 | 336812

Track 1

Filename C:EAC RipsVarious Artists - The Music of Grand Theft Auto VVolume 3 - The Soundtrack1 - Flying Lotus - The Kill.wav

Pre-gap length 0:00:02.00

Peak level 100.0 %
Extraction speed 2.5 X
Track quality 100.0 %
Test CRC FFD0CF3A
Copy CRC FFD0CF3A
Track not present in AccurateRip database
Copy OK

Track 2

Filename C:EAC RipsVarious Artists - The Music of Grand Theft Auto VVolume 3 - The Soundtrack2 - Lee ''Scratch'' Perry - I Am a Madman.wav

Pre-gap length 0:00:02.00

Peak level 99.9 %
Extraction speed 3.0 X
Track quality 100.0 %
Test CRC 4AE0A7CC
Copy CRC 4AE0A7CC
Track not present in AccurateRip database
Copy OK

Track 3

Filename C:EAC RipsVarious Artists - The Music of Grand Theft Auto VVolume 3 - The Soundtrack3 - Jai Paul - Jasmine.wav

Pre-gap length 0:00:02.00

Peak level 98.8 %
Extraction speed 3.1 X
Track quality 100.0 %
Test CRC 58FAEF43
Copy CRC 58FAEF43
Track not present in AccurateRip database
Copy OK

Track 4

Filename C:EAC RipsVarious Artists - The Music of Grand Theft Auto VVolume 3 - The Soundtrack4 - George McCrae - I Get Lifted.wav

Pre-gap length 0:00:02.00

Peak level 99.9 %
Extraction speed 2.6 X
Track quality 99.9 %
Test CRC 64C4CE7C
Copy CRC 64C4CE7C
Track not present in AccurateRip database
Copy OK

Track 5

Filename C:EAC RipsVarious Artists - The Music of Grand Theft Auto VVolume 3 - The Soundtrack5 - Kausion - What You Wanna Do.wav

Pre-gap length 0:00:02.00

Peak level 100.0 %
Extraction speed 3.4 X
Track quality 100.0 %
Test CRC 145A3F0C
Copy CRC 145A3F0C
Track not present in AccurateRip database
Copy OK

Track 6

Filename C:EAC RipsVarious Artists - The Music of Grand Theft Auto VVolume 3 - The Soundtrack6 - Charlie Feathers - Can't Hardly Stand It.wav

Pre-gap length 0:00:02.00

Peak level 82.9 %
Extraction speed 3.4 X
Track quality 100.0 %
Test CRC 4E429C83
Copy CRC 4E429C83
Track not present in AccurateRip database
Copy OK

Track 7

Filename C:EAC RipsVarious Artists - The Music of Grand Theft Auto VVolume 3 - The Soundtrack7 - The Weirdos - Life of Crime.wav

Pre-gap length 0:00:02.00

Peak level 96.0 %
Extraction speed 3.3 X
Track quality 100.0 %
Test CRC 39978015
Copy CRC 39978015
Track not present in AccurateRip database
Copy OK

Track 8

Filename C:EAC RipsVarious Artists - The Music of Grand Theft Auto VVolume 3 - The Soundtrack8 - Mexican Institute of Sound - Es Toy.wav

Pre-gap length 0:00:02.00

Peak level 100.0 %
Extraction speed 3.7 X
Track quality 100.0 %
Test CRC 1C2696CB
Copy CRC 1C2696CB
Track not present in AccurateRip database
Copy OK

Track 9

Filename C:EAC RipsVarious Artists - The Music of Grand Theft Auto VVolume 3 - The Soundtrack9 - Joe Goddard - Gabriel (Soulwax Mix).wav

Pre-gap length 0:00:02.00

Peak level 98.8 %
Extraction speed 4.0 X
Track quality 100.0 %
Test CRC 1047D6AD
Copy CRC 1047D6AD
Track not present in AccurateRip database
Copy OK

Track 10

Filename C:EAC RipsVarious Artists - The Music of Grand Theft Auto VVolume 3 - The Soundtrack10 - Bootsy Collins - I'd Rather Be With You.wav

Pre-gap length 0:00:02.00

Peak level 99.9 %
Extraction speed 4.3 X
Track quality 100.0 %
Test CRC BCE2C8D9
Copy CRC BCE2C8D9
Track not present in AccurateRip database
Copy OK

Track 11

Filename C:EAC RipsVarious Artists - The Music of Grand Theft Auto VVolume 3 - The Soundtrack11 - Bob Seger - Hollywood Nights.wav

Pre-gap length 0:00:02.00

Peak level 99.9 %
Extraction speed 4.4 X
Track quality 100.0 %
Test CRC F8AFDB6A
Copy CRC F8AFDB6A
Track not present in AccurateRip database
Copy OK

Track 12

Filename C:EAC RipsVarious Artists - The Music of Grand Theft Auto VVolume 3 - The Soundtrack12 - Dan Croll - From Nowhere (Baardsen Remix).wav

Pre-gap length 0:00:02.00

Peak level 99.9 %
Extraction speed 4.6 X
Track quality 100.0 %
Test CRC 79998BE1
Copy CRC 79998BE1
Track not present in AccurateRip database
Copy OK

Track 13

Filename C:EAC RipsVarious Artists - The Music of Grand Theft Auto VVolume 3 - The Soundtrack13 - Problem - Say That Then.wav

Pre-gap length 0:00:02.00

Peak level 99.9 %
Extraction speed 4.4 X
Track quality 100.0 %
Test CRC 0DBD6E5D
Copy CRC 0DBD6E5D
Track not present in AccurateRip database
Copy OK

Track 14

Filename C:EAC RipsVarious Artists - The Music of Grand Theft Auto VVolume 3 - The Soundtrack14 - Waylon Jennings - I Ain't Living Long Like This.wav

Pre-gap length 0:00:02.00

Peak level 99.9 %
Extraction speed 4.4 X
Track quality 99.9 %
Test CRC EE10C5AA
Copy CRC EE10C5AA
Track not present in AccurateRip database
Copy OK

Track 15

Filename C:EAC RipsVarious Artists - The Music of Grand Theft Auto VVolume 3 - The Soundtrack15 - Yellowman - Nobody Move, Nobody Gets Hurt.wav

Pre-gap length 0:00:02.00

Peak level 98.0 %
Extraction speed 4.3 X
Track quality 99.9 %
Test CRC 0E9F4162
Copy CRC 0E9F4162
Track not present in AccurateRip database
Copy OK

Track 16

Filename C:EAC RipsVarious Artists - The Music of Grand Theft Auto VVolume 3 - The Soundtrack16 - Simple Minds - All the Things She Said.wav

Pre-gap length 0:00:02.00

Peak level 100.0 %
Extraction speed 5.2 X
Track quality 100.0 %
Test CRC 25C9946F
Copy CRC 25C9946F
Track not present in AccurateRip database
Copy OK

Track 17

Filename C:EAC RipsVarious Artists - The Music of Grand Theft Auto VVolume 3 - The Soundtrack17 - Toro y Moi - Harm in Change.wav

Pre-gap length 0:00:02.00

Peak level 98.8 %
Extraction speed 5.2 X
Track quality 100.0 %
Test CRC 77040FEC
Copy CRC 77040FEC
Track not present in AccurateRip database
Copy OK

Track 18

Filename C:EAC RipsVarious Artists - The Music of Grand Theft Auto VVolume 3 - The Soundtrack18 - Hot Snakes - This Mystic Decade.wav

Pre-gap length 0:00:02.00

Peak level 100.0 %
Extraction speed 5.1 X
Track quality 100.0 %
Test CRC 935A657C
Copy CRC 935A657C
Track not present in AccurateRip database
Copy OK

Track 19

Filename C:EAC RipsVarious Artists - The Music of Grand Theft Auto VVolume 3 - The Soundtrack19 - Cashmere Cat - Mirror Maru.wav

Pre-gap length 0:00:02.00

Peak level 97.4 %
Extraction speed 5.4 X
Track quality 100.0 %
Test CRC 6EDAC7C9
Copy CRC 6EDAC7C9
Track not present in AccurateRip database
Copy OK

None of the tracks are present in the AccurateRip database

No errors occurred

End of status report

---- CUETools DB Plugin V2.1.3

[CTDB TOCID: UpeiKH3ZueGvqLGcht8v8QOtZUk-] found, Submit result: UpeiKH3ZueGvqLGcht8v8QOtZUk- has been confirmed
[d537f6cf] (1/1) Accurately ripped

==== Log checksum 49CC472DF36974890B35003423D97108AC0726822BC652A85B4DC4B6D4774215 ====

Музыка / Lossless / Саундтреки
СКАЧАТЬ БЕСПЛАТНО  [492.9 MB]


10
окт
2013

OST - The Music of Grand Theft Auto V, Vol. 3: The Soundtrack [2013, Soundtrack, MP3]

Формат: MP3, tracks, 256kbps
Год выпуска: 2013
Страна: All World
Жанр: Soundtrack
Продолжительность: 01:14:10
Описание: Треклист 01. Flying Lotus - The Kill (feat. Niki Rand) (03:25) 02. Lee Scratch Perry - I Am a Madman (05:48) 03. Jai Paul - Jasmine (04:10) 04. George McCrae - I Get Lifted (02:45) 05. Kausion - What You Wanna Do (04:08) 06. Charlie Feathers - Can t Hardly Stand It (02:48) 07. Weirdos - Life of Crime (02:20) 08. Mexican Institute of Sound - Es Toy (03:16) 09. Joe Goddard - Gabriel (feat. Valentina) (Soulwax Mix) (04:29) 10. Bootsy Collins - I d Rather Be With You (04:57) 11. ...

20
ноя
2016

OST - The Music of Grand Theft Auto V (Volume 2: The Score) [2013, Soundtrack, FLAC]

Формат: FLAC, (tracks + .cue), lossless
Год выпуска: 2013
Страна: All World
Жанр: Soundtrack
Продолжительность: 01:19:21
Описание: Треклист01. We Were Set Up 02. A Legitimate Business Man 03. A Haze of Patriotic Fervor 04. Los Santos At Night 05. North Yankton Memories 06. The Grip 07. Mr. Trevor Philips 08. A Bit of an Awkward Situation 09. No Happy Endings 10. His Mentor 11. (Sounds Kind of) Fruity 12. Minor Turbulence 13. Chop the Dog 14. A Lonely Man 15. You Forget a Thousand Things 16. Impotent Rage/Am I Being Clear Now? 17. Fresh Meat 18. Therapy and Other Hobbies 19. Rich Man's Playthin ...

20
ноя
2016

OST - The Music of Grand Theft Auto V (Volume 1: Original Music) [2013, Soundtrack, FLAC]

Формат: FLAC, (tracks + .cue), lossless
Год выпуска: 2013
Страна: All World
Жанр: Soundtrack
Продолжительность: 01:03:48
Описание: Треклист01. Oh No - Welcome To Los Santos 02. BJ the Chicago Kid feat. Freddie Gibbs & Problem - Smokin' and Ridin' 03. Twin Shadow - Old Love / New Love 04. Neon Indian - Change of Coast 05. Wavves - Nine Is God 06. Gangrene - Bassheads 07. Flying Lotus - Stonecutters 08. HEALTH - High Pressure Dave 09. OFF! - What's Next? 10. Tyler, The Creator - Garbage 11. Nite Jewel - Nowhere To Go 12. A$AP Rocky - R - Cali 13. Age of Consent - Colours 14. Marion Band$ feat. N ...

02
окт
2013

OST - The Music of Grand Theft Auto V, Vol. 1 [2013, Soundtrack, MP3]

Формат: MP3, tracks, 320kbps
Год выпуска: 2013
Страна: All World
Жанр: Soundtrack
Продолжительность: 01:03:20
Описание: Треклист01. Oh No - Welcome To Los Santos [02:34] 02. BJ the Chicago Kid - Smokin' and Ridin' (feat. Freddie Gibbs & Problem) [03:32] 03. Twin Shadow - Old Love _ New Love [03:53] 04. Neon Indian - Change of Coast [03:12] 05. Wavves - Nine Is God [04:57] 06. Gangrene - Bassheads [02:45] 07. Flying Lotus - Stonecutters [04:18] 08. HEALTH - High Pressure Dave [03:15] 09. Off - What's Next_ [02:09] 10. Tyler, The Creator - Garbage [03:28] 11. Nite Jewel - Nowhere To Go [03:59] ...

10
окт
2013

OST - The Music of Grand Theft Auto V, Vol. 2: The Score [2013, Soundtrack, MP3]

Формат: MP3, tracks, 256kbps
Год выпуска: 2013
Страна: All World
Жанр: Soundtrack
Продолжительность: 01:14:04
Описание: Треклист 01. We Were Set Up (03:32) 02. A Legitimate Business Man (02:58) 03. A Haze of Patriotic Fervor (05:31) 04. Los Santos At Night (01:43) 05. North Yankton Memories (04:03) 06. The Grip (03:10) 07. Mr. Trevor Philips (04:26) 08. A Bit of an Awkward Situation (04:43) 09. No Happy Endings (05:20) 10. His Mentor (01:27) 11. (Sounds Kind of) Fruity (04:45) 12. Minor Turbulence (04:34) 13. Chop the Dog (04:11) 14. A Lonely Man (03:32) 15. You Forget a Thousand Things (03:36 ...

06
фев
2015

OST - Grand Theft Auto V [2013, Soundtrack, MP3]

Формат: MP3, tracks, 320kbps
Год выпуска: 2013
Страна: All World
Жанр: Soundtrack
Продолжительность: 00:59:50
Описание: 01. Rihanna - Only Girl 02. YG - I'm A Real 1 (Prod. By DJ Mustard) 03. Rihanna feat. Britney Spears - S&M 04. Marion Band$ feat. Nipsey Hussle - Hold Up 05. Tyler the Creator - Garbage 06. Corona - The Rythm Of The Night 07. Daryl Hall And John Oates - Adult Education 08. Pet Shop Boys - West End Girls 09. GTA 5 - Main Theme 10. Clyde Carson - Slow Down (Feat. The Team) 11. Mim Suleiman - Mingi 12. Green Velvet & Harvard Bass - Lazer Beams 13. Pulp - After You (Soulwax Remi ...

09
окт
2007

Soundtrack-Grand Theft Auto Vice City [mp3, 128]

Страна: США
Жанр: OST
Продолжительность: 7:19:58
Формат: MP3
Битрейт аудио: 128
Трэклист: WAVE 103 1. DJ Adam First 1:05 2. Two Tribes / Frankie Goes to Hollywood 3:53 3. Pale Shelter / Tears for Fears 4:24 4. Kids in America / Kim Wilde 3:22 5. Atomic / Blondie 4:38 6. I Ran [So Far Away] / A Flock of Seagulls 3:39 7. [Keep Feeling] Fascination / The Human League 3:42 8. DJ Adam First 0:29 9. 99 Luftballons / Nena 3:51 10. Love My Way / The Psychedelic Furs 3:29 11. Gold / Spandau Ballet 3:47 12. Hyperactive! / Thomas Dolby 4:10 13. Never Say Never / Romeo Void 5:51 14. Sunglasses at Night / ...

02
фев
2010

OST - Big Mike - Grand Theft Audio NY [2008,Soundtrack, MP3]

Формат: MP3, tracks, 192kbps
Год выпуска: 2008
Страна: USA
Жанр: Soundtrack
Продолжительность: 1:08:00
Описание: 1.Lil Wayne- I run this shit 2.Jadakiss-Now and then(full song) 3.Jadakiss&Ci-Where I'm going 4.Jadakiss,Styles P&Sheek Louch-Thats my 5.Styles P-Slow dough 6.Styles P-Make em move back 7.Sheek Louch-Silverback 8.Jay Z-Blow th whistle 9.The Game-Cop killer(sean bell verdict response) 10.Nikki Minja-The baddest bitch 11.Max B-Domain pain 12.Jim Jones-5 boroughs 13.T.I-King is back 14.Young Jeezy-Lollipop 15.Rick Ross feat Yo Gotti-We gettin money 16.Whyteout-Rite where u stand 17.Ma ...

15
мар
2017

OST - Nick Arundel, David Buckley - Batman: Arkham Knight (Volume 1 + Volume 2 Original Soundtrack) [2015, Soundtrack, FLAC]

Формат: FLAC, tracks, lossless
Год выпуска: 2015
Страна: All World
Жанр: Soundtrack
Продолжительность: 01:59:24
Описание: Volume 1 (0101 - David Buckley - Arkham Knight - Main Theme 02 - David Buckley - How it Happened 03 - Nick Arundel - Evening the Odds 04 - David Buckley - Nature Always Wins 05 - Nick Arundel - Pursuit 06 - David Buckley - Clock Tower 07 - Nick Arundel - Invasion 08 - Nick Arundel - Remnants 09 - Nick Arundel - Scum, Criminals, and Worse 10 - David Buckley - Gunrunner 11 - Nick Arundel - On the Hunt 12 - David Buckley - Vendetta 13 - David Buckley - Allegiance 14 - David Bu ...

15
мар
2017

OST - Nick Arundel, David Buckley - Batman: Arkham Knight (Volume 1 + Volume 2 Original Soundtrack) [2015, Soundtrack, MP3]

Формат: MP3, tracks, 320kbps
Год выпуска: 2015
Страна: All World
Жанр: Soundtrack
Продолжительность: 01:59:24
Описание: Volume 1 (0101 - David Buckley - Arkham Knight - Main Theme 02 - David Buckley - How it Happened 03 - Nick Arundel - Evening the Odds 04 - David Buckley - Nature Always Wins 05 - Nick Arundel - Pursuit 06 - David Buckley - Clock Tower 07 - Nick Arundel - Invasion 08 - Nick Arundel - Remnants 09 - Nick Arundel - Scum, Criminals, and Worse 10 - David Buckley - Gunrunner 11 - Nick Arundel - On the Hunt 12 - David Buckley - Vendetta 13 - David Buckley - Allegiance 14 - David Buck ...

15
мар
2017

OST - Nick Arundel, David Buckley - Batman: Arkham Knight (Volume 1 + Volume 2 Original Soundtrack) [2015, Soundtrack, M4A]

Формат: M4A, tracks, 256kbps
Год выпуска: 2015
Страна: All World
Жанр: Soundtrack
Продолжительность: 01:59:24
Описание: Volume 1 (0101 - David Buckley - Arkham Knight - Main Theme 02 - David Buckley - How it Happened 03 - Nick Arundel - Evening the Odds 04 - David Buckley - Nature Always Wins 05 - Nick Arundel - Pursuit 06 - David Buckley - Clock Tower 07 - Nick Arundel - Invasion 08 - Nick Arundel - Remnants 09 - Nick Arundel - Scum, Criminals, and Worse 10 - David Buckley - Gunrunner 11 - Nick Arundel - On the Hunt 12 - David Buckley - Vendetta 13 - David Buckley - Allegiance 14 - David Buck ...

27
апр
2016

OST - Neil Davidge/Kazuma Jinnouchi - Halo 4 (Original Soundtrack Volume 2) [2013, Soundtrack, FLAC]

Формат: FLAC, (trасks), lоsslеss
Год выпуска: 2013
Страна: All Wоrld
Жанр: Sоundtrасk
Продолжительность: 01:21:36
Описание: 01. Atоnеmеnt (3:16) 02. Grаvitу (2:09) 03. Wrесkаgе (3:24) 04. Aliеns (5:30) 05. Kаntеlе Bоw (4:04) 06. Pуlоns (5:39) 07. Esсаpе (3:53) 08. Swаmp (2:48) 09. Push Thrоugh (4:44) 10. Cоnvоу (4:44) 11. Tо Gаlаху (Eхtеndеd) (7:05) 12. Lаskу’s Thеmе (3:55) 13. Fоrеshаdоw (3:35) 14. Clоud Citу (4:36) 15. This Armоur (4:47) 16. Intrudеrs (3:38) 17. Mаntis (4:02) 18. Sасrifiсе (3:03) 19. Nеvеr Fоrgеt (Midnight Vеrsiоn) (4:37) 20. Mаjеstiс (2:08)
Доп. информация: LOGAUDIOCHECKER ...

26
апр
2016

OST - Neil Davidge/Kazuma Jinnouchi - Halo 4 (Original Soundtrack Volume 2) [2013, Soundtrack, MP3]

Формат: MP3, tracks, 320kbps
Год выпуска: 2013
Страна: All World
Жанр: Soundtrack
Продолжительность: 01:21:44
Описание: 01 Atonement 3:16 02 Gravity 2:09 03 Wreckage 3:24 04 Aliens 5:31 05 Kantele Bow 4:04 06 Pylons 5:39 07 Escape 3:57 08 Swamp 2:49 09 Push Through 4:44 10 Convoy 4:44 11 To Galaxy (Extended) 7:04 12 Lasky’s Theme 3:55 13 Foreshadow 3:34 14 Cloud City 4:35 15 This Armour 4:47 16 Intruders 3:39 17 Mantis 4:02 18 Sacrifice 3:02 19 Never Forget (Midnight Version) 4:37 20 Majestic 2:12

05
фев
2013

VA - Auto Matic Music: Electronic Flashback Vol.3 [18.01.2013, House, MP3]

Формат: MP3, tracks + image, 320kbps
Год выпуска: 18.01.2013
Страна: All World
Жанр: House
Продолжительность: 08:49:49
Описание: Tracklist01. DJ Mix - Auto Matic Music 3 1 [67:14] 02. DJ Mix - Auto Matic Music 3 2 [94:46] 03. DJ Mix - Auto Matic Music 3 3 [81:28] 04. Robag Wruhme - Bortonkk [05:59] 05. Ripperton - Lost in Colors (Tobias Welcome Song) (L) [08:50] 06. Robert Babicz - What A Day [09:15] 07. Ada - Every Dog Has Its Night (Metope Remix) [06:53] 08. Saschienne - Unknown (Dixon Mix) [08:54] 09. Rodriguez Jr - Bittersweet [06:28] 10. Goldwill - Sun Francisco [07:57] 11. Davi ...

14
окт
2017

OST - Mr. Robot. Volume 3 [2017, Soundtracks / Score, MP3]

Формат: MP3, tracks, 320kbps
Год выпуска: 2017
Страна: USA
Жанр: Soundtracks / Score
Продолжительность: 01:16:14
Описание: 01. 2.0 1-s4ve-the-w0rld.act (02:29) 02. 2.0 2-FuxSocy.sln (02:33) 03. 2.0 3-j0urnaling.ivs (01:59) 04. 2.0 4-control-1s-an-illusion.amr (02:15) 05. 2.0 5-infiniteloop0finsanity.vox (03:40) 06. 2.0 6-madame3xecutioner.oga (04:09) 07. 2.0 7-jester-actual.dss (02:53) 08. 2.0 8-confid3nce.dct (02:25) 09. 2.0 9-unexpectedpresents.m4b (02:45) 10. 2.0 10-masktakesover.sln (03:59) 11. 2.0 11-music-b0x.mmf (01:09) 12. 2.1 1-prisoner-of-paranoia.ivs (02:20) 13. 2.2 1-hidinginplai ...