22
окт
2017

VA - The Complete History Of The Blues (1920-1962) (4CD Box Set) [2015, Blues, FLAC]

VA - The Complete History Of The Blues (1920-1962) (4CD Box Set)
Формат: FLAC, (image + .cue), lossless
Год выпуска: 2015
Страна: All World
Жанр: Blues
Продолжительность: 05:04:02
Описание:
CD 1 Crazy Blues 01
VA - The Complete History Of The Blues
01. Mamie Smith - Crazy Blues 02:20 (1920)
02. Bessie Smith - Down Hearted Blues 03:25 (1923)
03. Sylvester Weaver - Guitar Rag 03:01 (1927)
04. Ma Rainey - See See Rider 03:12 (1924)
05. Papa Charlie Jackson - Spoonful 02:38 (1925)
06. Bertha "Chippie" Hill with Richard M. Jones - Trouble In Mind 02:41 (1926)
07. Blind Lemon Jefferson - Jack O' Diamond Blues 02:33 (1926)
08. Freddie Spruell - Milk Cow Blues 03:17 (1926)
09. Blind Blake - West Coast Blues 03:09 (1926)
10. Richard Brown - James Alley Blues 03:05 (1927)
11. Luke Jordan - Cocaine Blues 03:22 (1927)
12. Jim Jackson - Jim Jackson's Kansas City Blues 03:12 (1928)
13. Casey Bill Weldon - Hitch Me To Your Buggy And Drive Me Like A Mule 03:03 (1927)
14. Lonnie Johnson - Life Saver Blues 03:04 (1927)
15. Blind Willie Johnson - Nobody's Fault But Mine 03:09 (1928)
16. Meade Lux Lewis - Honky Tonk Train Blues 03:12 (1929)
17. Gus Cannon - Minglewood Blues 03:40 (1928)
18. Tommy Johnson - Cool Drink Of Water Blues 03:33 (1928)
19. Mississippi John Hurt - Frankie 03:20 (1928)
20. Leroy Carr - How Long, How Long Blues 03:05 (1928)
21. Cow Cow Davenport - Cow Cow Blues 03:09 (1928)
22. Ishman Bracey - Leavin' Town Blues 03:26 (1929)
23. Furry Lewis - Casey Jones 03:07 (1929)
24. Frank Stokes - Nehi Mamma Blues 03:04 (1929)
25. Blind Willie McTell - Statesboro Blues 02:32 (1927)

eac
Exact Audio Copy V1.3 from 2. September 2016

EAC extraction logfile from 21. October 2017, 11:57

Various / Complete History Of The Blues (CD1)

Used drive : ATAPI iHAS122 C Adapter: 1 ID: 0

Read mode : Secure
Utilize accurate stream : Yes
Defeat audio cache : Yes
Make use of C2 pointers : No

Read offset correction : 6
Overread into Lead-In and Lead-Out : No
Fill up missing offset samples with silence : Yes
Delete leading and trailing silent blocks : No
Null samples used in CRC calculations : Yes
Used interface : Native Win32 interface for Win NT & 2000

Used output format : Internal WAV Routines
Sample format : 44.100 Hz; 16 Bit; Stereo

TOC of the extracted CD

Track | Start | Length | Start sector | End sector
---------------------------------------------------------
1 | 0:00.00 | 3:20.28 | 0 | 15027
2 | 3:20.28 | 3:29.19 | 15028 | 30721
3 | 6:49.47 | 3:02.63 | 30722 | 44434
4 | 9:52.35 | 3:11.67 | 44435 | 58826
5 | 13:04.27 | 2:42.18 | 58827 | 70994
6 | 15:46.45 | 3:16.68 | 70995 | 85762
7 | 19:03.38 | 2:47.00 | 85763 | 98287
8 | 21:50.38 | 3:20.32 | 98288 | 113319
9 | 25:10.70 | 3:11.09 | 113320 | 127653
10 | 28:22.04 | 3:07.41 | 127654 | 141719
11 | 31:29.45 | 3:25.03 | 141720 | 157097
12 | 34:54.48 | 3:15.56 | 157098 | 171778
13 | 38:10.29 | 3:03.07 | 171779 | 185510
14 | 41:13.36 | 3:06.70 | 185511 | 199530
15 | 44:20.31 | 3:10.39 | 199531 | 213819
16 | 47:30.70 | 3:16.74 | 213820 | 228593
17 | 50:47.69 | 3:45.62 | 228594 | 245530
18 | 54:33.56 | 3:26.54 | 245531 | 261034
19 | 58:00.35 | 3:22.72 | 261035 | 276256
20 | 61:23.32 | 3:01.11 | 276257 | 289842
21 | 64:24.43 | 3:08.38 | 289843 | 303980
22 | 67:33.06 | 3:43.47 | 303981 | 320752
23 | 71:16.53 | 3:06.04 | 320753 | 334706
24 | 74:22.57 | 3:04.21 | 334707 | 348527
25 | 77:27.03 | 2:30.34 | 348528 | 359811

Range status and errors

Selected range

Filename C:UsersLondonDesktopHISTORY OF BLUESVarious - Complete History Of The Blues (CD1).wav

Peak level 94.4 %
Extraction speed 9.7 X
Range quality 100.0 %
Test CRC 65ED09F6
Copy CRC 65ED09F6
Copy OK

No errors occurred

AccurateRip summary

Track 1 accurately ripped (confidence 4) [FEDC1A9E] (AR v2)
Track 2 accurately ripped (confidence 4) [8AB9F92C] (AR v2)
Track 3 accurately ripped (confidence 4) [69F6E979] (AR v2)
Track 4 accurately ripped (confidence 4) [C33E7CA7] (AR v2)
Track 5 accurately ripped (confidence 4) [433B85CE] (AR v2)
Track 6 accurately ripped (confidence 4) [7E8639B0] (AR v2)
Track 7 accurately ripped (confidence 4) [60071B18] (AR v2)
Track 8 accurately ripped (confidence 4) [DFE8C66A] (AR v2)
Track 9 accurately ripped (confidence 4) [6DE58158] (AR v2)
Track 10 accurately ripped (confidence 4) [AE740F54] (AR v2)
Track 11 accurately ripped (confidence 4) [EBD15F3C] (AR v2)
Track 12 accurately ripped (confidence 4) [F6AF7479] (AR v2)
Track 13 accurately ripped (confidence 4) [DD7623FE] (AR v2)
Track 14 accurately ripped (confidence 4) [885CDBFE] (AR v2)
Track 15 accurately ripped (confidence 4) [0BB851D9] (AR v2)
Track 16 accurately ripped (confidence 4) [D45E749E] (AR v2)
Track 17 accurately ripped (confidence 4) [F243C77B] (AR v2)
Track 18 accurately ripped (confidence 4) [7BA43EA5] (AR v2)
Track 19 accurately ripped (confidence 4) [0C38A535] (AR v2)
Track 20 accurately ripped (confidence 4) [92E9FED8] (AR v2)
Track 21 accurately ripped (confidence 4) [989BCAB2] (AR v2)
Track 22 accurately ripped (confidence 4) [0959B5CC] (AR v2)
Track 23 accurately ripped (confidence 4) [9D0FFEFB] (AR v2)
Track 24 accurately ripped (confidence 4) [6541FEC1] (AR v2)
Track 25 accurately ripped (confidence 4) [E08EB30A] (AR v2)

All tracks accurately ripped

End of status report

---- CUETools DB Plugin V2.1.6

[CTDB TOCID: ABi_vuio4R3mfe3f_Q9D4Jcp4dM-] found
Submit result: already submitted
Track | CTDB Status
1 | (15/15) Accurately ripped
2 | (15/15) Accurately ripped
3 | (15/15) Accurately ripped
4 | (15/15) Accurately ripped
5 | (15/15) Accurately ripped
6 | (15/15) Accurately ripped
7 | (15/15) Accurately ripped
8 | (15/15) Accurately ripped
9 | (15/15) Accurately ripped
10 | (15/15) Accurately ripped
11 | (15/15) Accurately ripped
12 | (15/15) Accurately ripped
13 | (15/15) Accurately ripped
14 | (15/15) Accurately ripped
15 | (15/15) Accurately ripped
16 | (15/15) Accurately ripped
17 | (15/15) Accurately ripped
18 | (15/15) Accurately ripped
19 | (15/15) Accurately ripped
20 | (15/15) Accurately ripped
21 | (15/15) Accurately ripped
22 | (15/15) Accurately ripped
23 | (15/15) Accurately ripped
24 | (15/15) Accurately ripped
25 | (15/15) Accurately ripped

==== Log checksum 3A51EF149EACCA5D4ECEDE42F9853BB747A5652902DA169F2ED8BFEC99EEE683 ====
CD 2 Roll And Tumble 01
VA - The Complete History Of The Blues
01. William Harris - Bullfrog Blues 03:07 (1928)
02. Bo Carter - Corrine, Corrina 03:16 (1928)
03. Hambone Willie Newbern - Roll & Tumble The Blues 03:03 (1929)
04. Charley Patton - Down The Dirt Road Blues 03:01 (1929)
05. Memphis Minnie - When The Levee Breaks 03:08 (1929)
06. Charlie McCoy - Last Time Blues 03:03 (1930)
07. Robert Wilkins - That's No Way To Get Along 02:52 (1929)
08. John Estes - The Girl I Love 02:54 (1929)
09. Memphis Jug Band - K.C. Moan 02:37 (1927)
10. Barbecue Bob - Yo Yo Blues 03:10 (1929)
11. Blind Joe Reynolds - Outside Woman Blues 02:57 (1930)
12. Geeshie Wiley - Last Kind Words 03:02 (1930)
13. Willie Brown - Future Blues 03:01 (1930)
14. Son House - My Black Mama Pt. 1 03:11 (1930)
15. Mississippi Sheiks - Sitting On Top Of The World 03:02 (1930)
16. Little Brother Montgomery - Louisiana Blues 03:26 (1936)
17. Skip James - Devil Got My Woman 02:58 (1931)
18. Peetie Wheatstraw - Six Weeks Old Blues 03:21 (1931)
19. Buddy Moss - Dough Rollin' Papa 02:44 (1934)
20. Leadbelly - Matchbox Blues 04:38 (1935)
21. Kokomo Arnold - Busy Bootin' 02:29 (1935)
22. Washboard Sam - Mama Don't Allow No. 1 03:04 (1935)
23. Roosevelt Sykes - The Honey Dripper 02:43 (1936)
24. Oscar Woods - Lone Wolf Blues 03:10 (1936)
25. Jazz Gillum - Sarah Jane 03:06 (1936)

eac
Exact Audio Copy V1.3 from 2. September 2016

EAC extraction logfile from 21. October 2017, 16:19

Various / Complete History Of The Blues (CD2)

Used drive : ATAPI iHAS122 C Adapter: 1 ID: 0

Read mode : Secure
Utilize accurate stream : Yes
Defeat audio cache : Yes
Make use of C2 pointers : No

Read offset correction : 6
Overread into Lead-In and Lead-Out : No
Fill up missing offset samples with silence : Yes
Delete leading and trailing silent blocks : No
Null samples used in CRC calculations : Yes
Used interface : Native Win32 interface for Win NT & 2000

Used output format : Internal WAV Routines
Sample format : 44.100 Hz; 16 Bit; Stereo

TOC of the extracted CD

Track | Start | Length | Start sector | End sector
---------------------------------------------------------
1 | 0:00.00 | 3:10.40 | 0 | 14289
2 | 3:10.40 | 3:19.17 | 14290 | 29231
3 | 6:29.57 | 3:06.06 | 29232 | 43187
4 | 9:35.63 | 2:54.71 | 43188 | 56308
5 | 12:30.59 | 3:11.09 | 56309 | 70642
6 | 15:41.68 | 3:04.09 | 70643 | 84451
7 | 18:46.02 | 2:55.58 | 84452 | 97634
8 | 21:41.60 | 2:57.73 | 97635 | 110982
9 | 24:39.58 | 2:33.43 | 110983 | 122500
10 | 27:13.26 | 3:12.66 | 122501 | 136966
11 | 30:26.17 | 2:56.32 | 136967 | 150198
12 | 33:22.49 | 3:02.56 | 150199 | 163904
13 | 36:25.30 | 3:02.00 | 163905 | 177554
14 | 39:27.30 | 3:12.33 | 177555 | 191987
15 | 42:39.63 | 3:16.15 | 191988 | 206702
16 | 45:56.03 | 3:26.69 | 206703 | 222221
17 | 49:22.72 | 3:01.73 | 222222 | 235869
18 | 52:24.70 | 3:19.08 | 235870 | 250802
19 | 55:44.03 | 2:43.02 | 250803 | 263029
20 | 58:27.05 | 4:39.31 | 263030 | 283985
21 | 63:06.36 | 2:31.27 | 283986 | 295337
22 | 65:37.63 | 3:12.66 | 295338 | 309803
23 | 68:50.54 | 2:45.60 | 309804 | 322238
24 | 71:36.39 | 3:14.22 | 322239 | 336810
25 | 74:50.61 | 3:06.74 | 336811 | 350834

Range status and errors

Selected range

Filename C:UsersLondonDesktopHISTORY OF BLUESVarious - Complete History Of The Blues (CD2).wav

Peak level 100.0 %
Extraction speed 9.5 X
Range quality 100.0 %
Test CRC AF564694
Copy CRC AF564694
Copy OK

No errors occurred

AccurateRip summary

Track 1 accurately ripped (confidence 3) [D486E557] (AR v2)
Track 2 accurately ripped (confidence 3) [5009F8B2] (AR v2)
Track 3 accurately ripped (confidence 3) [51440BF7] (AR v2)
Track 4 accurately ripped (confidence 3) [EC7CB335] (AR v2)
Track 5 accurately ripped (confidence 3) [A4DEF2C3] (AR v2)
Track 6 accurately ripped (confidence 3) [81D90842] (AR v2)
Track 7 accurately ripped (confidence 3) [83ECDFBF] (AR v2)
Track 8 accurately ripped (confidence 3) [A1CD6D5A] (AR v2)
Track 9 accurately ripped (confidence 3) [AD887D27] (AR v2)
Track 10 accurately ripped (confidence 3) [85402287] (AR v2)
Track 11 accurately ripped (confidence 3) [E9CCA111] (AR v2)
Track 12 accurately ripped (confidence 3) [7AECDB5F] (AR v2)
Track 13 accurately ripped (confidence 3) [F429CAFA] (AR v2)
Track 14 accurately ripped (confidence 3) [F9AE180B] (AR v2)
Track 15 accurately ripped (confidence 3) [AD070F63] (AR v2)
Track 16 accurately ripped (confidence 3) [F4FF55CA] (AR v2)
Track 17 accurately ripped (confidence 3) [799F8245] (AR v2)
Track 18 accurately ripped (confidence 3) [BB72A4BA] (AR v2)
Track 19 accurately ripped (confidence 3) [3BFD061D] (AR v2)
Track 20 accurately ripped (confidence 3) [0BB24556] (AR v2)
Track 21 accurately ripped (confidence 3) [E07940DA] (AR v2)
Track 22 accurately ripped (confidence 3) [BF9268E3] (AR v2)
Track 23 accurately ripped (confidence 3) [8FD6201E] (AR v2)
Track 24 accurately ripped (confidence 3) [1DE662C7] (AR v2)
Track 25 accurately ripped (confidence 3) [3E40A58A] (AR v2)

All tracks accurately ripped

End of status report

---- CUETools DB Plugin V2.1.6

[CTDB TOCID: oLYXEw31PuP8c9V8BJ4CypJMgd4-] found
Submit result: already submitted
Track | CTDB Status
1 | (15/15) Accurately ripped
2 | (15/15) Accurately ripped
3 | (15/15) Accurately ripped
4 | (15/15) Accurately ripped
5 | (15/15) Accurately ripped
6 | (15/15) Accurately ripped
7 | (15/15) Accurately ripped
8 | (15/15) Accurately ripped
9 | (15/15) Accurately ripped
10 | (15/15) Accurately ripped
11 | (15/15) Accurately ripped
12 | (15/15) Accurately ripped
13 | (15/15) Accurately ripped
14 | (15/15) Accurately ripped
15 | (15/15) Accurately ripped
16 | (15/15) Accurately ripped
17 | (15/15) Accurately ripped
18 | (15/15) Accurately ripped
19 | (15/15) Accurately ripped
20 | (15/15) Accurately ripped
21 | (15/15) Accurately ripped
22 | (15/15) Accurately ripped
23 | (15/15) Accurately ripped
24 | (15/15) Accurately ripped
25 | (15/15) Accurately ripped

==== Log checksum 577B9CC57B22FC85307B2250B79AFDDAF6DF7BA9D7E00A35E062CB5C3C48177C ====
CD 3 Boogie Chillen 01
VA - The Complete History Of The Blues
01. Robert Johnson - Ramblin' On My Mind 02:23 (1937)
02. Johnny Temple - Louise, Louise Blues 03:03 (1936)
03. Bukka White - Shake 'Em On Down 02:58 (1937)
04. John Lee 'Sonny Boy' Williamson - Good Morning Little Schoolgirl 03:01 (1937)
05. Big Joe Turner - Roll 'Em Pete 02:53 (1939)
06. Blind Boy Fuller - I Want Some Of Your Pie 02:43 (1939)
07. Tommy McClennan - Bottle It Up And Go 02:48 (1940)
08. Tampa Red - It Hurts Me Too 02:30 (1941)
09. Champion Jack Dupree - Junker Blues 02:40 (1941)
10. Robert Petway - Catfish Blues 02:56 (1941)
11. Albert Ammons / Pete Johnson - Barrelhouse Boogie 03:04 (1941)
12. Big Bill Broonzy - Key To The Highway 03:05 (1941)
13. Tony Hollins - Crawlin' King Snake 02:56 (1941)
14. Big Maceo - Worried Life Blues 02:56 (1941)
15. St. Louis Jimmy - Goin' Down Slow 03:10 (1942)
16. Charles Brown - Drifting Blues 03:14 (1946)
17. Arthur Crudup - That's Alright Mama 03:02 (1947)
18. Big Joe Williams - Baby Please Don't Go 03:24 (1948)
19. T-Bone Walker - Call It Stormy Monday (But Tuesday Is Just As Bad) 03:00 (1947)
20. John Lee Hooker - Boogie Chillen 03:10 (1948)
21. Robert Nighthawk - Sweet Black Angel 03:05 (1949)
22. Lightnin'Hopkins - Automobile Blues 02:45 (1949)
23. Jimmy Rogers - Ludella 02:51 (1950)
24. Elmore James - Dust My Broom (I Believe My Time Ain't Long) 02:49 (1951)
25. Little Walter - Juke 02:48 (1952)
eac
Exact Audio Copy V1.3 from 2. September 2016

EAC extraction logfile from 21. October 2017, 15:31

Various / Complete History Of The Blues (CD3)

Used drive : ATAPI iHAS122 C Adapter: 1 ID: 0

Read mode : Secure
Utilize accurate stream : Yes
Defeat audio cache : Yes
Make use of C2 pointers : No

Read offset correction : 6
Overread into Lead-In and Lead-Out : No
Fill up missing offset samples with silence : Yes
Delete leading and trailing silent blocks : No
Null samples used in CRC calculations : Yes
Used interface : Native Win32 interface for Win NT & 2000

Used output format : Internal WAV Routines
Sample format : 44.100 Hz; 16 Bit; Stereo

TOC of the extracted CD

Track | Start | Length | Start sector | End sector
---------------------------------------------------------
1 | 0:00.00 | 2:53.18 | 0 | 12992
2 | 2:53.18 | 2:58.43 | 12993 | 26385
3 | 5:51.61 | 3:02.40 | 26386 | 40075
4 | 8:54.26 | 3:00.45 | 40076 | 53620
5 | 11:54.71 | 2:52.53 | 53621 | 66573
6 | 14:47.49 | 2:44.36 | 66574 | 78909
7 | 17:32.10 | 2:49.48 | 78910 | 91632
8 | 20:21.58 | 2:31.01 | 91633 | 102958
9 | 22:52.59 | 2:44.01 | 102959 | 115259
10 | 25:36.60 | 2:54.38 | 115260 | 128347
11 | 28:31.23 | 3:04.45 | 128348 | 142192
12 | 31:35.68 | 3:04.12 | 142193 | 156004
13 | 34:40.05 | 3:00.03 | 156005 | 169507
14 | 37:40.08 | 2:51.59 | 169508 | 182391
15 | 40:31.67 | 3:12.61 | 182392 | 196852
16 | 43:44.53 | 3:17.22 | 196853 | 211649
17 | 47:02.00 | 2:54.03 | 211650 | 224702
18 | 49:56.03 | 3:26.07 | 224703 | 240159
19 | 53:22.10 | 3:03.19 | 240160 | 253903
20 | 56:25.29 | 3:10.10 | 253904 | 268163
21 | 59:35.39 | 3:04.19 | 268164 | 281982
22 | 62:39.58 | 2:47.18 | 281983 | 294525
23 | 65:27.01 | 1:59.17 | 294526 | 303467
24 | 67:26.18 | 2:45.05 | 303468 | 315847
25 | 70:11.23 | 2:42.63 | 315848 | 328060

Range status and errors

Selected range

Filename C:UsersLondonDesktopHISTORY OF BLUESVarious - Complete History Of The Blues (CD3).wav

Peak level 100.0 %
Extraction speed 8.9 X
Range quality 100.0 %
Test CRC D39F91FF
Copy CRC D39F91FF
Copy OK

No errors occurred

AccurateRip summary

Track 1 accurately ripped (confidence 3) [27D7BD07] (AR v2)
Track 2 accurately ripped (confidence 3) [3E31B875] (AR v2)
Track 3 accurately ripped (confidence 3) [FD924F3B] (AR v2)
Track 4 accurately ripped (confidence 3) [23B20F5C] (AR v2)
Track 5 accurately ripped (confidence 3) [7DCDF082] (AR v2)
Track 6 accurately ripped (confidence 3) [C4071C33] (AR v2)
Track 7 accurately ripped (confidence 3) [1682D860] (AR v2)
Track 8 accurately ripped (confidence 3) (AR v2)
Track 9 accurately ripped (confidence 3) [663D5DEF] (AR v2)
Track 10 accurately ripped (confidence 3) [E2BA2177] (AR v2)
Track 11 accurately ripped (confidence 3) [5F04E023] (AR v2)
Track 12 accurately ripped (confidence 3) [37EE88FA] (AR v2)
Track 13 accurately ripped (confidence 3) [4461895E] (AR v2)
Track 14 accurately ripped (confidence 3) [1ACD74E8] (AR v2)
Track 15 accurately ripped (confidence 3) [0FEBD251] (AR v2)
Track 16 accurately ripped (confidence 3) [33851281] (AR v2)
Track 17 accurately ripped (confidence 3) [C49ECB21] (AR v2)
Track 18 accurately ripped (confidence 3) [30700177] (AR v2)
Track 19 accurately ripped (confidence 3) [EDB2871A] (AR v2)
Track 20 accurately ripped (confidence 3) [C87ED5C8] (AR v2)
Track 21 accurately ripped (confidence 3) [DA5150CD] (AR v2)
Track 22 accurately ripped (confidence 3) [226812A5] (AR v2)
Track 23 accurately ripped (confidence 3) [C0761DAC] (AR v2)
Track 24 accurately ripped (confidence 3) [38EACC31] (AR v2)
Track 25 accurately ripped (confidence 3) [82EA957F] (AR v2)

All tracks accurately ripped

End of status report

---- CUETools DB Plugin V2.1.6

[CTDB TOCID: XJ6Lx7y_26sM35_bhBvps5JXU.0-] found
Submit result: already submitted
Track | CTDB Status
1 | (10/10) Accurately ripped
2 | (10/10) Accurately ripped
3 | (10/10) Accurately ripped
4 | (10/10) Accurately ripped
5 | (10/10) Accurately ripped
6 | (10/10) Accurately ripped
7 | (10/10) Accurately ripped
8 | (10/10) Accurately ripped
9 | (10/10) Accurately ripped
10 | (10/10) Accurately ripped
11 | (10/10) Accurately ripped
12 | (10/10) Accurately ripped
13 | (10/10) Accurately ripped
14 | (10/10) Accurately ripped
15 | (10/10) Accurately ripped
16 | (10/10) Accurately ripped
17 | (10/10) Accurately ripped
18 | (10/10) Accurately ripped
19 | (10/10) Accurately ripped
20 | (10/10) Accurately ripped
21 | (10/10) Accurately ripped
22 | (10/10) Accurately ripped
23 | (10/10) Accurately ripped
24 | (10/10) Accurately ripped
25 | (10/10) Accurately ripped

==== Log checksum D313572E77BC54A64218294F7AAF8F2A7BCEA3A431D14A140BB42B1E3EF0263A ====
CD 4 Smokestack Lightnin' 01
VA - The Complete History Of The Blues
01. B. B. King - 3 O' Clock Blues 03:03 (1952)
02. Eddie Boyd - Third Degree 03:18 (1953)
03. Junior Wells - Hoodoo Man 03:03 (1954)
04. Guitar Slim - The Things That I Used To Do 03:05 (1953)
05. James Cotton - Cotton Crop Blues 03:03 (1954)
06. Jimmy Witherspoon - When The Lights Go Out 02:53 (1954)
07. Lowell Fulson - Reconsider Baby 03:12 (1954)
08. Muddy Waters - Mannish Boy 03:02 (1955)
09. Willie Mabon - The Seventh Son 03:01 (1955)
10. Sonny Boy Williamson II - Don't Start Me To Talking 02:37 (1955)
11. Billy Boy Arnold - I Ain't Got You 02:18 (1956)
12. Howlin' Wolf - Smokestack Lightnin' 03:09 (1956)
13. Snooky Pryor - Judgment Day 02:44 (1956)
14. Otis Rush - I Can't Quit You Baby 03:37 (1956)
15. Sunnyland Slim - It's You Baby 02:20 (1956)
16. Slim Harpo - I'm A King Bee 03:00 (1957)
17. Magic Sam - All Your Love 02:55 (1957)
18. Buddy Guy - Sit And Cry(The Blues) 03:01 (1958)
19. Bobby "Blue" Bland - Little Boy Blue 02:37 (1958)
20. Jimmy Reed - Big Boss Man 02:49 (1960)
21. Etta James - I Just Want To Make Love To You 03:07 (1961)
22. Freddie King - You've Got To Love Her With A Feeling 03:12 (1960)
23. Albert King - Don't Throw Your Love On Me So Strong 02:55 (1961)
24. Frank Frost - Jelly Roll King 02:31 (1962)
25. Johnny Copeland - Down On Bending Knees 02:20 (1962)

eac
Exact Audio Copy V1.3 from 2. September 2016

EAC extraction logfile from 21. October 2017, 16:38

Various / Complete History Of The Blues (CD4)

Used drive : ATAPI iHAS122 C Adapter: 1 ID: 0

Read mode : Secure
Utilize accurate stream : Yes
Defeat audio cache : Yes
Make use of C2 pointers : No

Read offset correction : 6
Overread into Lead-In and Lead-Out : No
Fill up missing offset samples with silence : Yes
Delete leading and trailing silent blocks : No
Null samples used in CRC calculations : Yes
Used interface : Native Win32 interface for Win NT & 2000

Used output format : Internal WAV Routines
Sample format : 44.100 Hz; 16 Bit; Stereo

TOC of the extracted CD

Track | Start | Length | Start sector | End sector
---------------------------------------------------------
1 | 0:00.00 | 2:59.59 | 0 | 13483
2 | 2:59.59 | 3:15.68 | 13484 | 28176
3 | 6:15.52 | 3:06.09 | 28177 | 42135
4 | 9:21.61 | 3:02.17 | 42136 | 55802
5 | 12:24.03 | 3:01.03 | 55803 | 69380
6 | 15:25.06 | 2:51.29 | 69381 | 82234
7 | 18:16.35 | 3:12.18 | 82235 | 96652
8 | 21:28.53 | 2:57.30 | 96653 | 109957
9 | 24:26.08 | 2:54.44 | 109958 | 123051
10 | 27:20.52 | 2:36.17 | 123052 | 134768
11 | 29:56.69 | 2:15.09 | 134769 | 144902
12 | 32:12.03 | 3:07.61 | 144903 | 158988
13 | 35:19.64 | 2:46.09 | 158989 | 171447
14 | 38:05.73 | 3:41.16 | 171448 | 188038
15 | 41:47.14 | 2:22.48 | 188039 | 198736
16 | 44:09.62 | 3:03.57 | 198737 | 212518
17 | 47:13.44 | 2:55.58 | 212519 | 225701
18 | 50:09.27 | 3:03.59 | 225702 | 239485
19 | 53:13.11 | 2:39.29 | 239486 | 251439
20 | 55:52.40 | 2:47.05 | 251440 | 263969
21 | 58:39.45 | 3:07.72 | 263970 | 278066
22 | 61:47.42 | 3:15.20 | 278067 | 292711
23 | 65:02.62 | 2:57.04 | 292712 | 305990
24 | 67:59.66 | 2:34.48 | 305991 | 317588
25 | 70:34.39 | 2:39.55 | 317589 | 329568

Range status and errors

Selected range

Filename C:UsersLondonDesktopHISTORY OF BLUESVarious - Complete History Of The Blues (CD4).wav

Peak level 100.0 %
Extraction speed 9.1 X
Range quality 100.0 %
Test CRC 9D05C9A8
Copy CRC 9D05C9A8
Copy OK

No errors occurred

AccurateRip summary

Track 1 accurately ripped (confidence 3) [73D0E6F9] (AR v2)
Track 2 accurately ripped (confidence 3) [57EAFABD] (AR v2)
Track 3 accurately ripped (confidence 3) [D183A630] (AR v2)
Track 4 accurately ripped (confidence 3) [50B3423E] (AR v2)
Track 5 accurately ripped (confidence 3) (AR v2)
Track 6 accurately ripped (confidence 3) [8038A68E] (AR v2)
Track 7 accurately ripped (confidence 3) [F77B98E8] (AR v2)
Track 8 accurately ripped (confidence 3) [686E9062] (AR v2)
Track 9 accurately ripped (confidence 3) [430C3222] (AR v2)
Track 10 accurately ripped (confidence 3) [5564BDE6] (AR v2)
Track 11 accurately ripped (confidence 3) [940657DA] (AR v2)
Track 12 accurately ripped (confidence 3) [570702FA] (AR v2)
Track 13 accurately ripped (confidence 3) [DDB9964F] (AR v2)
Track 14 accurately ripped (confidence 3) [28768E81] (AR v2)
Track 15 accurately ripped (confidence 3) [813F20F9] (AR v2)
Track 16 accurately ripped (confidence 3) [A03E5FF8] (AR v2)
Track 17 accurately ripped (confidence 3) [21F61756] (AR v2)
Track 18 accurately ripped (confidence 3) [CD405B56] (AR v2)
Track 19 accurately ripped (confidence 3) [443605CB] (AR v2)
Track 20 accurately ripped (confidence 3) [EA05F258] (AR v2)
Track 21 accurately ripped (confidence 3) [6C384436] (AR v2)
Track 22 accurately ripped (confidence 3) [88EFA398] (AR v2)
Track 23 accurately ripped (confidence 3) [1E0D844F] (AR v2)
Track 24 accurately ripped (confidence 3) [3240DF59] (AR v2)
Track 25 accurately ripped (confidence 2) [0626056C] (AR v2)

All tracks accurately ripped

End of status report

---- CUETools DB Plugin V2.1.6

[CTDB TOCID: YrE9lLgVbnTyD6ucQOpAAiyCLpo-] found
Submit result: already submitted
Track | CTDB Status
1 | (14/14) Accurately ripped
2 | (14/14) Accurately ripped
3 | (14/14) Accurately ripped
4 | (14/14) Accurately ripped
5 | (14/14) Accurately ripped
6 | (14/14) Accurately ripped
7 | (14/14) Accurately ripped
8 | (14/14) Accurately ripped
9 | (14/14) Accurately ripped
10 | (14/14) Accurately ripped
11 | (14/14) Accurately ripped
12 | (14/14) Accurately ripped
13 | (14/14) Accurately ripped
14 | (14/14) Accurately ripped
15 | (14/14) Accurately ripped
16 | (14/14) Accurately ripped
17 | (14/14) Accurately ripped
18 | (14/14) Accurately ripped
19 | (14/14) Accurately ripped
20 | (14/14) Accurately ripped
21 | (14/14) Accurately ripped
22 | (14/14) Accurately ripped
23 | (14/14) Accurately ripped
24 | (14/14) Accurately ripped
25 | (14/14) Accurately ripped

==== Log checksum 38B9B09BB07AC6D98E52E559466A19CB0FFFA6557340608C721891CC0749D891 ====
Музыка / Lossless / Сборники
СКАЧАТЬ БЕСПЛАТНО  [1.2 GB]


03
дек
2015

The Velvet Underground - The Complete Matrix Tapes Recorded November 26 27, 1969 (4CD Box Set) [2015, Rock, Psychedelic Rock, Progressive Rock, FLAC]

Формат: FLAC, (image + .cue), lossless
Год выпуска: 2015
Страна: USA
Жанр: Rock, Psychedelic Rock, Progressive Rock
Продолжительность: 04:34:41
Описание: CD 1 0101. I’m Waiting For The Man (Version 1) 13:07 02. What Goes On (Version 1) 08:52 03. Some Kinda Love (Version 1) 04:57 04. Heroin (Version 1) 08:07 05. The Black Angel’s Death Song 06:19 06. Venus In Furs (Version 1) 04:37 07. There She Goes Again (Version 1) 03:12 08. We’re Gonna Have A Real Good Time Together (Version 1) 03:19 09. Over You (Version 1) 02:23 10. Sweet Jane (Version 1) 05:11 11. Pale Blue Eyes 06:05 12. After Hours (Ve ...

20
фев
2013

VA - 101 Hits Rock Legends (Box Set 4CD) [2009, Rock, Hard Rock, Blues Rock, MP3]

Формат: MP3, tracks, 320kbps
Год выпуска: 2009
Страна: USA
Жанр: Rock, Hard Rock, Blues Rock
Продолжительность: 05:02:06
Описание: CD1 01] 01. E.L.O - Evil Woman 02. Amen Corner - IfParadise Is Half As Nice 03. Chicago - Feelin' Stronger Everyday 04. The Troggs - Love Is All Around 05. The Yardbirrds - Shapes Of Things 06. Jimi Hendrix - LittleWing 07. Jonn Mayall s Bluesbreakers - I'm Your Witch Doctor 08. E.L.O Part2 - Sweet Talking Woman 09. SLY and The Family Stone - In The Still Of The Night 10. Lonnie Youngblo and Jimi Hendrix - Win Your Love 11. The Flaming Groovies - Love T ...

21
мая
2014

VA - A Stack Of Blues: 60 Original Blues Classics (3CD Box Set) [2014, Blues, Modern Blues, Chicago Blues, Electric Blues, MP3]

Формат: MP3, tracks, 320kbps
Год выпуска: 2014
Страна: UK
Жанр: Blues, Modern Blues, Chicago Blues, Electric Blues
Продолжительность: 03:18:00
Описание: CD1 01 01. Freddy King - Hide Away (02:41) 02. Earl Hooker - That Man (02:32) 03. Albert King - I Need You By My Side (02:33) 04. Guitar Slim - The Things That I Used To Do (03:02) 05. B.B.King - My Baby.s Comin. Home (02:09) 06. Joe Louis Walker - Friends (05:52) 07. Muddy Waters - You Shook Me (02:44) 08. Jimmy Rodgers & Left Hand Frank - Oh Baby (03:00) 09. Howlin. Wolf - The Wolf Is At Your Door (02:59) 10. Elmore James - Dust My Blues (0 ...

03
дек
2016

Lou Reed - The Sire Years: The Complete Albums Box (10CD Box Set) [2015, Rock, Art Rock, FLAC]

Формат: FLAC, (image + .cue), lossless
Год выпуска: 2015
Страна: EU
Жанр: Rock, Art Rock
Продолжительность: 08:13:14
Описание: 1989 New York 0001. Romeo Had Juliette 02. Halloween Parade 03. Dirty Blvd. 04. Endless Cycle 05. There Is No Time 06. Last Great American Whale 07. Beginning Of A Great Adventure 08. Busload Of Faith 09. Sick Of You 10. Hold On 11. Good Evening Mr. Waldheim 12. Xmas In February 13. Strawman 14. Dime Store Mystery eacExact Audio Copy V1.1 from 23. June 2015 EAC extraction logfile from 2. December 2016, 18:25 Lou Reed / New York Used drive : PLEXTOR BD-R PX-B950SA Ad ...

08
июн
2012

The Beatles - Greatest Hits Part1 1962-1965 (Box Set 2CD) [2007, Rock, FLAC]

Формат: FLAC, (image + .cue), lossless
Год выпуска: 2007
Страна: UK
Жанр: Rock
Продолжительность: 02:39:10
Описание: Disc One 01
Трeклист: 01. Love Me Do 02:22 02. I Saw Her Standing There 02:57 03. She Loves You 02:30 04. All my loving 02:12 05. Rock & Roll Music 02:36 06. Michelle 02:46 07. Can't Buy Me Love 02:13 08. Eight Days a Week 02:46 09. I Want to Hold Your Hand 02:26 10. Girl 02:35 11. Norwegian Wood(This Bird Has Flown) 02:09 12. No Reply 02:21 13. Till There Was You 02:18 14. I'll Follow the Sun 01:53 15. This Boy 02:18 16. Yes it Is 02:43 17. Every Little Thin ...

03
фев
2016

Phil Collins Take A Look At Me Now... (The Complete Albums 4CD Box) [2016, Pop Rock, Rock, FLAC]

Формат: FLAC, (image + .cue), lossless
Год выпуска: 2016
Страна: UK
Жанр: Pop Rock, Rock
Продолжительность: 03:57:09
Описание: CD 1 Face Value 0001. In The Air Tonight (5:36) 02. This Must Be Love (3:56) 03. Behind The Lines (3:56) 04. The Roof Is Leaking (3:17) 05. Droned (2:50) 06. Hand In Hand (5:23) 07. I Missed Again (3:46) 08. You Know What I Mean (2:33) 09. Thunder And Lightning (4:14) 10. I’m Not Moving (2:35) 11. If Leaving Me Is Easy (4:55) 12. Tomorrow Never Knows (4:52) eacExact Audio Copy V1.1 from 23. June 2015 EAC extraction logfile from 29. January 2016, 18:30 Phil Collins / ...

26
мая
2011

The Band - The Last Waltz (4CD Box Set) [2002, Rock, Country Rock, Classic Rock, FLAC]

Формат: FLAC, (image + .cue), lossless
Год выпуска: 2002
Страна: Toronto, Ontario, Canada
Жанр: Rock, Country Rock, Classic Rock
Продолжительность: 04:06:45
Описание: CD 1 01 01. Theme From The Last Waltz - with Orchestra The Concert 02. Up On Cripple Creek 03. The Shape I'm In 04. It Makes No Difference 05. Who Do You Love - with Ronnie Hawkins 06. Life Is A Carnival 07. Such A Night - with Dr. John 08. The Weight * 09. Down South In New Orleans - with Bobby Charles 10. This Wheel's On Fire * 11. Mystery Train - with Paul Butterfield 12. Caldonia - with Muddy Waters * 13. Mannish Boy - with M ...

18
дек
2012

10cc - Tenology (Box Set, 4CD) [2012, Pop Rock, Rock, Art Rock, FLAC]

Формат: FLAC, (image + .cue), lossless
Год выпуска: 2012
Страна: UK
Жанр: Pop Rock, Rock, Art Rock
Продолжительность: 04:34:02
Описание: CD 1 The Single And More 01 01. Donna (1972) 02. Johnny Don't Do It (1972) 03. Rubber Bullets (1973) 04. The Dean and I (1973) 05. Sand in My Face (1973) 06. Somewhere In Hollywood (1973) 07. The Worst Band in the World (1974) 08. Headline Hustler (1974) 09. The Wall Street Shuffle (1974) 10. Silly Love (1974) 11. Life Is a Minestrone (1975) 12. I'm Not in Love (1975) 13. Art for Art's Sake (1975) 14. I'm Mandy, Fly Me (1976) 15. Lazy Ways (1976) 16. The Thin ...

24
авг
2012

Мельница - Знак четырёх (Box Set, 4CD) [2012, Folk Rock, MP3]

Формат: MP3, tracks, 320kbps
Год выпуска: 2012
Страна: Russia
Жанр: Folk Rock
Продолжительность: 03:48:44
Описание: CD1 Дорога сна 00 01. Дорога сна 02. Горец 03. Ольга 04. Лорд Грегори 05. Змей 06. Тарантелла 07. Зима 08. Оборотень 09. Рапунцель 10. Воин вереска 11. Мора 12. На северCD2 Перевал 00 01. Ночная кобыла 02. Господин горных дорог 03. Весна 04. Фуга 05. Чужой 06. Ворон 07. Голем 08. Мертвец 09. Вереск 10. Прялка 11. КоролевнаCD3 Зов крови 00 01. Невеста Полоза 02. Зов крови 03. Двери Тамерлана 04. Травушка 05. Сестра 06. Полнолуние 07. Сказка о Дьяволе 08. Дракон 09. Ай, волна 10. ...

15
авг
2012

UFO - Let It Roll (Limited Edition 4CD Box Set) [2010, Hard Rock, Heavy Metal, FLAC]

Формат: FLAC, (image+ .cue), lossless
Год выпуска: 2010
Страна: UK
Жанр: Hard Rock, Heavy Metal
Продолжительность: 04:51:16
Описание: Disc One
Трeклист: 01. Natural Thing 04:27 02. Mother Mary 04:10 03. Let It Roll 04:54 04. Out In The Streets 05:15 05. This Kids 04:46 06. Only You Can Rock Me 04:26 07. Love To Love 07:45 08. Hot 'N' Ready 04:29 09. Too Hot To Handle 04:29 10. Lights Out 05:39 11. Doctor Doctor 05:28 12. Rock Bottom 11:24 13. Shoot Shoot 03:55 14. C'Mon Everybody 06:29Log EACExact Audio Copy V1.0 beta 3 from 29. August 2011 EAC extraction logfile from 8. Augu ...

19
окт
2010

John Lennon - Gimme Some Truth (4CD Box Set) [2010, Classic Rock, FLAC]

Формат: FLAC, (tracks + .cue), lossless
Год выпуска: 2010
Страна: UK
Жанр: Classic Rock
Продолжительность: 04:30:02
Описание: Disc 1 (Working Class Hero) 01
Трэклист: 01. Working Class Hero 03:49 02. Instant Karma! (We Shall Shine On) 03:25 03. Power To The People 03:22 04. God 04:11 05. I Don't Wanna Be A Soldier Mama I Don't Wanna Die 06:06 06. Gimme Some Truth 03:14 07. Sunday Bloody Sunday 05:02 08. Steel And Glass 04:39 09. Meat City 02:52 10. I Don't Wanna Face It 03:23 11. Remember 04:35 12. Woman Is The Nigger Of The World 05:17 13. I Found Out 03:37 14. Isolation 02:53 15. Imagine 0 ...

02
июн
2011

The Byrds - There Is A Season (4CD + DVD Box Set) [2006, Rock, Psychedelic Rock, Country Rock, DVD5]

Формат: DVD5, DVD Video, MPEG2, PCM
Песня: There Is A Season
Жанр: Rock, Psychedelic Rock, Country Rock
Продолжительность: 00:25:39
Год выпуска: 2006
Видео: 720 x 576 (PAL 4:3) at 25.000 fps, MPEG-2 Video, 6255 Kbps, 0.603 bit/pixel
Аудио: PCM, 2 ch, 1536 Kbps, 48.0 KHz 01. Mr. Tambourine Man 02. I'll Feel A Whole Lot Better 03. All I Really Want To Do 04. Turn! Turn! Turn! 05. It Won't Be Wrong 06. Set You Free This Time 07. So You Want To Be A Rock 'n' Roll Star 08. Mr. Tambourine Man (2) 09. Eight Miles High 10. Mr. Spaceman
Доп. информация: Этот диск является бонусным DVD к четырёхдис ...

02
июн
2011

The Byrds - There Is A Season (4CD + DVD Box Set) [2006, Rock, Psychedelic Rock, Country Rock, FLAC]

Формат: FLAC, (image + .cue), lossless
Год выпуска: 2006
Страна: USA
Жанр: Rock, Psychedelic Rock, Country Rock
Продолжительность: 04:41:14
Описание: DVD Здесь CD 1 01 01. The Only Girl I Adore (by The Jet Set) * 02. Please Let Me Love You (by The Beefeaters) * 03. Don't Be Long (by The Beefeaters) * 04. The Airport Song 05. You Movin' 06. You Showed Me 07. Mr. Tambourine Man 08. I'll Feel A Whole Lot Better 09. You Won't Have To Cry 10. Here Without You 11. The Bells Of Rhymney 12. All I Really Want To Do (Single Version) * 13. I Knew I'd Want You 14. Chimes Of Freedom 15. She Has A Way ...

30
июн
2013

De/Vision - Strange Days (Box Set, 4CD) [25.06.2013, Synthpop, MP3]

Формат: MP3, tracks, 192-320kbps [VBR]
Год выпуска: 25.06.2013
Страна: Germany
Жанр: Synthpop
Продолжительность: 03:30:59
Описание: World Without End 01 01. Dinner Without Grace 02. Your Hands on My Skin 03. Slum Child 04. Perfect Mind 05. Time Stands Still (Tonight) 06. The Way You Treat Me 07. To Be with You 08. Falling 09. The Day Before Yesterday 10. Try to Forget 11. Can Feel the Drive 12. Try to Forget (Forget-Me-Not Mix) 13. Dinner Without Grace (Pastoral Mix) 14. Hunters 15. From Time Out of Mind Universed In Love 00 01. Free from Cares 02. Soul-Keeper 03. At Night 04. Dress Me When I ...

09
авг
2011

13th Floor Elevators - The Albums Collection (4CD Box Set ) [2011, Rock, Garage Rock, Psychedelic Rock, FLAC]

Формат: FLAC, (image + .cue), lossless
Год выпуска: 2011
Страна: USA
Жанр: Rock, Garage Rock, Psychedelic Rock
Продолжительность: 02:19:05
Описание: 1966 The Psychedelic Sounds Of The 13th Floor 00 01. You're Gonna Miss Me 02. Roller Coaster 03. Splash 1 04. Reverberation 05. Don't Fall Down 06. Fire Engine 07. Thru The Rhythm 08. You Don't Know ( How Young You Are) 09. Kingdom Of Heaven (Is Within You) 10. Monkey Island 11. Tried To Hide EACExact Audio Copy V1.0 beta 2 from 29. April 2011 EAC extraction logfile from 4. August 2011, 16:49 13th Floor Elevators / The Psychedelic Sounds Of The ...