10
янв
2017

VA - City Of Dreams: A Collection Of New Orleans Music (4CD) [2007, Funk, Soul, Blues, FLAC]

VA - City Of Dreams: A Collection Of New Orleans Music (4CD)
VA - City Of Dreams A Collection Of New Orleans Music
VA - City Of Dreams: A Collection Of New Orleans Music Формат: FLAC, (tracks + .cue), lossless
Год выпуска: 2007
Страна: USA
Жанр: Funk, Soul, Blues
Продолжительность: 03:22:23
Описание:
CD 1 Big Easy Blues 00

01. Al Johnson – Carnival Time
02. Marcia Ball, Irma Thomas & Tracy Nelson – Sing It
03. Chuck Carbo – Drawers Trouble
04. Johnny Adams – Just Because
05. Irma Thomas – Don't Mess With My Man
06. Eddie Bo – Check Mr. Popeye
07. Joe Jones – You Talk Too Much
08. Marcia Ball – Big Shot
09. Davell Crawford – I Bowed On My Knees
10. Ramsey McLean & Charmaine Neville – Drink Jax Beer
11. Ruth Brown – Go On Fool
12. Clarence Brown – Dollar Got The Blues

eac
Exact Audio Copy V0.99 prebeta 4 from 23. January 2008

EAC extraction logfile from 20. February 2010, 20:47

Various / City of Dreams (Disc 1)

Used drive : PIONEER DVD-RW DVR-115D Adapter: 1 ID: 0

Read mode : Secure
Utilize accurate stream : Yes
Defeat audio cache : Yes
Make use of C2 pointers : No

Read offset correction : 48
Overread into Lead-In and Lead-Out : No
Fill up missing offset samples with silence : Yes
Delete leading and trailing silent blocks : No
Null samples used in CRC calculations : Yes
Used interface : Installed external ASPI interface
Gap handling : Appended to previous track

Used output format : User Defined Encoder
Selected bitrate : 128 kBit/s
Quality : High
Add ID3 tag : No
Command line compressor : C:Program FilesExact Audio CopyFlacflac.exe
Additional command line options : -V -8 -T "artist=%a" -T "title=%t" -T "album=%g" -T "date=%y" -T "tracknumber=%n" -T "genre=%m" %s

TOC of the extracted CD

Track | Start | Length | Start sector | End sector
---------------------------------------------------------
1 | 0:00.00 | 2:41.17 | 0 | 12091
2 | 2:41.17 | 4:20.05 | 12092 | 31596
3 | 7:01.22 | 4:31.03 | 31597 | 51924
4 | 11:32.25 | 2:57.49 | 51925 | 65248
5 | 14:29.74 | 2:22.73 | 65249 | 75971
6 | 16:52.72 | 2:16.31 | 75972 | 86202
7 | 19:09.28 | 2:32.09 | 86203 | 97611
8 | 21:41.37 | 3:57.45 | 97612 | 115431
9 | 25:39.07 | 3:55.17 | 115432 | 133073
10 | 29:34.24 | 3:08.73 | 133074 | 147246
11 | 32:43.22 | 4:31.54 | 147247 | 167625
12 | 37:15.01 | 4:37.03 | 167626 | 188403

Track 1

Filename C:EACripsVarious Artists - 2007 - City of Dreams (Disc 1)1 - Al Johnson - Carnival Time.wav

Pre-gap length 0:00:02.00

Peak level 88.0 %
Track quality 100.0 %
Test CRC B38C4EBF
Copy CRC B38C4EBF
Accurately ripped (confidence 5) [F2E8217C]
Copy OK

Track 2

Filename C:EACripsVarious Artists - 2007 - City of Dreams (Disc 1)2 - Marcia Ball, Irma Thomas, Tracy Nelson - Sing It.wav

Pre-gap length 0:00:02.06

Peak level 99.7 %
Track quality 100.0 %
Test CRC E15E5984
Copy CRC E15E5984
Accurately ripped (confidence 5) [48317C05]
Copy OK

Track 3

Filename C:EACripsVarious Artists - 2007 - City of Dreams (Disc 1)3 - Chuck Carbo - Drawers Trouble.wav

Pre-gap length 0:00:01.48

Peak level 99.7 %
Track quality 100.0 %
Test CRC 03672D87
Copy CRC 03672D87
Accurately ripped (confidence 5) [48B6303C]
Copy OK

Track 4

Filename C:EACripsVarious Artists - 2007 - City of Dreams (Disc 1)4 - Johnny Adams - Just Because.wav

Pre-gap length 0:00:03.30

Peak level 85.4 %
Track quality 99.9 %
Test CRC 68EA12E0
Copy CRC 68EA12E0
Accurately ripped (confidence 5) [40175A4C]
Copy OK

Track 5

Filename C:EACripsVarious Artists - 2007 - City of Dreams (Disc 1)5 - Irma Thomas - Don't Mess With My Man.wav

Pre-gap length 0:00:05.53

Peak level 98.0 %
Track quality 100.0 %
Test CRC 96C9E3E7
Copy CRC 96C9E3E7
Accurately ripped (confidence 5) [9F2F1F8F]
Copy OK

Track 6

Filename C:EACripsVarious Artists - 2007 - City of Dreams (Disc 1)6 - Eddie Bo - Check Mr. Popeye.wav

Pre-gap length 0:00:03.16

Peak level 91.0 %
Track quality 100.0 %
Test CRC ABA52FC3
Copy CRC ABA52FC3
Accurately ripped (confidence 5) [F8DD813A]
Copy OK

Track 7

Filename C:EACripsVarious Artists - 2007 - City of Dreams (Disc 1)7 - Joe Jones - You Talk Too Much.wav

Pre-gap length 0:00:03.42

Peak level 99.7 %
Track quality 100.0 %
Test CRC A1F7D1AD
Copy CRC A1F7D1AD
Accurately ripped (confidence 5) [AA4946E0]
Copy OK

Track 8

Filename C:EACripsVarious Artists - 2007 - City of Dreams (Disc 1)8 - Marcia Ball - Big Shot.wav

Pre-gap length 0:00:02.16

Peak level 95.0 %
Track quality 100.0 %
Test CRC 83A4D5A2
Copy CRC 83A4D5A2
Accurately ripped (confidence 5) [C5571E3F]
Copy OK

Track 9

Filename C:EACripsVarious Artists - 2007 - City of Dreams (Disc 1)9 - Davell Crawford - I Bowed on My Knees.wav

Pre-gap length 0:00:02.24

Peak level 99.7 %
Track quality 100.0 %
Test CRC 81A905AE
Copy CRC 81A905AE
Accurately ripped (confidence 5) [BF360EC7]
Copy OK

Track 10

Filename C:EACripsVarious Artists - 2007 - City of Dreams (Disc 1)10 - Ramsey McLean & the Survivors with Charmaine Neville - Drink Jax Beer.wav

Pre-gap length 0:00:02.20

Peak level 99.8 %
Track quality 100.0 %
Test CRC 128614CB
Copy CRC 128614CB
Accurately ripped (confidence 5) [BB3E6561]
Copy OK

Track 11

Filename C:EACripsVarious Artists - 2007 - City of Dreams (Disc 1)11 - Ruth Brown - Go On Fool.wav

Pre-gap length 0:00:02.84

Peak level 99.7 %
Track quality 100.0 %
Test CRC 9591F418
Copy CRC 9591F418
Accurately ripped (confidence 5) [4CF14325]
Copy OK

Track 12

Filename C:EACripsVarious Artists - 2007 - City of Dreams (Disc 1)12 - Clarence 'Gatemouth' Brown - Dollar Got the Blues.wav

Pre-gap length 0:00:01.02

Peak level 93.9 %
Track quality 100.0 %
Test CRC 375893F4
Copy CRC 375893F4
Accurately ripped (confidence 5) [81402515]
Copy OK

All tracks accurately ripped

No errors occurred

End of status report
CD 2 Street Beat 00

01. Rebirth Brass Band – Feel Like Funkin' It Up
02. Monk Boudreaux & Golden Eagles – Sew, Sew, Sew
03. Professor Longhair – Cuttin' Out
04. Bo Dollis, Monk Boudreaux & ReBirth Brass Band – Shoo-Fly
05. New Orleans Night Crawlers – Royal Flush
06. The Dirty Dozen Brass Band – It Ain't What You Think
07. All That – T. Chapman
08. Dejan's Young Olympia Brass Band – No It Ain't My Fault
09. Bo Dollis & The Wild Magnolias – Golden Crown
10. The Chosen Few Brass Band – St. Louis Blues
11. Alvin Tyler – If My Shoes Hold Out
12. Rebirth Brass Band – Just A Little While To Stay Here

eac
Exact Audio Copy V0.99 prebeta 4 from 23. January 2008

EAC extraction logfile from 20. February 2010, 21:45

Various Artists / City Of Dreams (Disc 2)

Used drive : PIONEER DVD-RW DVR-115D Adapter: 1 ID: 0

Read mode : Secure
Utilize accurate stream : Yes
Defeat audio cache : Yes
Make use of C2 pointers : No

Read offset correction : 48
Overread into Lead-In and Lead-Out : No
Fill up missing offset samples with silence : Yes
Delete leading and trailing silent blocks : No
Null samples used in CRC calculations : Yes
Used interface : Installed external ASPI interface
Gap handling : Appended to previous track

Used output format : User Defined Encoder
Selected bitrate : 128 kBit/s
Quality : High
Add ID3 tag : No
Command line compressor : C:Program FilesExact Audio CopyFlacflac.exe
Additional command line options : -V -8 -T "artist=%a" -T "title=%t" -T "album=%g" -T "date=%y" -T "tracknumber=%n" -T "genre=%m" %s

TOC of the extracted CD

Track | Start | Length | Start sector | End sector
---------------------------------------------------------
1 | 0:00.00 | 5:07.10 | 0 | 23034
2 | 5:07.10 | 4:18.50 | 23035 | 42434
3 | 9:25.60 | 2:37.22 | 42435 | 54231
4 | 12:03.07 | 6:11.45 | 54232 | 82101
5 | 18:14.52 | 5:37.46 | 82102 | 107422
6 | 23:52.23 | 4:23.51 | 107423 | 127198
7 | 28:15.74 | 7:33.60 | 127199 | 161233
8 | 35:49.59 | 3:58.40 | 161234 | 179123
9 | 39:48.24 | 3:54.62 | 179124 | 196735
10 | 43:43.11 | 4:58.50 | 196736 | 219135
11 | 48:41.61 | 4:32.29 | 219136 | 239564
12 | 53:14.15 | 6:17.72 | 239565 | 267911

Track 1

Filename C:EACripsVarious Artists - 2007 - City Of Dreams (Disc 2)1 - Rebirth Brass Band - Feel Like Funkin' It Up.wav

Pre-gap length 0:00:02.00

Peak level 99.8 %
Track quality 100.0 %
Test CRC 52589814
Copy CRC 52589814
Accurately ripped (confidence 4) [5BD684C7]
Copy OK

Track 2

Filename C:EACripsVarious Artists - 2007 - City Of Dreams (Disc 2)2 - The Golden Eagles Featuring Monk Boudreaux - Sew-Sew-Sew.wav

Peak level 99.7 %
Track quality 99.9 %
Test CRC B8FE9C18
Copy CRC B8FE9C18
Accurately ripped (confidence 4) [F60ED75B]
Copy OK

Track 3

Filename C:EACripsVarious Artists - 2007 - City Of Dreams (Disc 2)3 - Professor Longhair - Cuttin' Out.wav

Peak level 94.2 %
Track quality 100.0 %
Test CRC 5D42258E
Copy CRC 5D42258E
Accurately ripped (confidence 4) [0A2BEEB0]
Copy OK

Track 4

Filename C:EACripsVarious Artists - 2007 - City Of Dreams (Disc 2)4 - Bo Dollis and Monk Boudreaux with ReBirth Brass Band - Shoo-Fly.wav

Peak level 100.0 %
Track quality 100.0 %
Test CRC F8732227
Copy CRC F8732227
Accurately ripped (confidence 4) [45698007]
Copy OK

Track 5

Filename C:EACripsVarious Artists - 2007 - City Of Dreams (Disc 2)5 - New Orleans Nightcrawlers - Royal Flush.wav

Peak level 99.8 %
Track quality 100.0 %
Test CRC B74EEB4D
Copy CRC B74EEB4D
Accurately ripped (confidence 4) [F392C886]
Copy OK

Track 6

Filename C:EACripsVarious Artists - 2007 - City Of Dreams (Disc 2)6 - The Dirty Dozen Brass Band - It Ain't What You Think.wav

Peak level 99.8 %
Track quality 99.9 %
Test CRC EC423784
Copy CRC EC423784
Accurately ripped (confidence 4) [CFBBBA81]
Copy OK

Track 7

Filename C:EACripsVarious Artists - 2007 - City Of Dreams (Disc 2)7 - T. Chapman - All That.wav

Peak level 81.1 %
Track quality 100.0 %
Test CRC 8263F759
Copy CRC 8263F759
Accurately ripped (confidence 4) [88C95BF6]
Copy OK

Track 8

Filename C:EACripsVarious Artists - 2007 - City Of Dreams (Disc 2)8 - Dejan's Olympia Brass Band - No It Ain't My Fault.wav

Peak level 99.7 %
Track quality 100.0 %
Test CRC 5CD3373F
Copy CRC 5CD3373F
Accurately ripped (confidence 4) [70440EE6]
Copy OK

Track 9

Filename C:EACripsVarious Artists - 2007 - City Of Dreams (Disc 2)9 - Bo Dollis & The Wild Magnolias - Golden Crown.wav

Peak level 99.7 %
Track quality 100.0 %
Test CRC B7DA1C03
Copy CRC B7DA1C03
Accurately ripped (confidence 4) [218C8C26]
Copy OK

Track 10

Filename C:EACripsVarious Artists - 2007 - City Of Dreams (Disc 2)10 - The Chosen Few Brass Band - St. Louis Blues.wav

Peak level 99.7 %
Track quality 100.0 %
Test CRC 4AFCD59F
Copy CRC 4AFCD59F
Accurately ripped (confidence 4) [2D074CAF]
Copy OK

Track 11

Filename C:EACripsVarious Artists - 2007 - City Of Dreams (Disc 2)11 - Alvin 'Red' Tyler - If My Shoes Hold Out.wav

Peak level 93.7 %
Track quality 100.0 %
Test CRC E51A82DA
Copy CRC E51A82DA
Accurately ripped (confidence 4) [AEAF9BC0]
Copy OK

Track 12

Filename C:EACripsVarious Artists - 2007 - City Of Dreams (Disc 2)12 - Rebirth Brass Band - Just A Little While To Stay Here.wav

Peak level 99.8 %
Track quality 100.0 %
Test CRC 8DFCD0BF
Copy CRC 8DFCD0BF
Accurately ripped (confidence 4) [7F594CC2]
Copy OK

All tracks accurately ripped

No errors occurred

End of status report
CD 3 Funk New Orleans 01

01. Walter "Wolfman" Washington – You Can Stay But The Noise Must Go
02. Theryl "Houseman De'Clouet" – Ain't No Yachts In The Ghetto
03. George Porter, Jr. – Rough Spots
04. All That – Flow On
05. The Ed Frank Quintet – A Corn For Crip
06. Bo Dollis, Willie Tee & Dr. John – Keeper Of The Crown
07. Johnny Adams – Body And Fender Man
08. The New Orleans Saxophone Ensemble – Gemini Rising
09. Irma Thomas – Sweet Touch Of Love
10. Solomon Burke – Here We Go Again
11. Walter "Wolfman" Washington – Funk Yard
12. Davell Crawford – House That Jack Built

eac
Exact Audio Copy V0.99 prebeta 4 from 23. January 2008

EAC extraction logfile from 20. February 2010, 22:10

Various / City of Dreams (Disc 3)

Used drive : PIONEER DVD-RW DVR-115D Adapter: 1 ID: 0

Read mode : Secure
Utilize accurate stream : Yes
Defeat audio cache : Yes
Make use of C2 pointers : No

Read offset correction : 48
Overread into Lead-In and Lead-Out : No
Fill up missing offset samples with silence : Yes
Delete leading and trailing silent blocks : No
Null samples used in CRC calculations : Yes
Used interface : Installed external ASPI interface
Gap handling : Appended to previous track

Used output format : User Defined Encoder
Selected bitrate : 128 kBit/s
Quality : High
Add ID3 tag : No
Command line compressor : C:Program FilesExact Audio CopyFlacflac.exe
Additional command line options : -V -8 -T "artist=%a" -T "title=%t" -T "album=%g" -T "date=%y" -T "tracknumber=%n" -T "genre=%m" %s

TOC of the extracted CD

Track | Start | Length | Start sector | End sector
---------------------------------------------------------
1 | 0:00.00 | 6:18.67 | 0 | 28416
2 | 6:18.67 | 4:51.00 | 28417 | 50241
3 | 11:09.67 | 4:13.11 | 50242 | 69227
4 | 15:23.03 | 4:06.59 | 69228 | 87736
5 | 19:29.62 | 4:33.55 | 87737 | 108266
6 | 24:03.42 | 4:50.73 | 108267 | 130089
7 | 28:54.40 | 5:33.64 | 130090 | 155128
8 | 34:28.29 | 4:26.02 | 155129 | 175080
9 | 38:54.31 | 3:34.47 | 175081 | 191177
10 | 42:29.03 | 6:49.50 | 191178 | 221902
11 | 49:18.53 | 5:00.64 | 221903 | 244466
12 | 54:19.42 | 7:01.06 | 244467 | 276047

Track 1

Filename C:EACripsVarious Artists - 2007 - City of Dreams (Disc 3)1 - Walter 'Wolfman' Washington - You Can Stay But The Noise Must Go.wav

Pre-gap length 0:00:02.00

Peak level 100.0 %
Track quality 99.9 %
Test CRC 1776BDF4
Copy CRC 1776BDF4
Accurately ripped (confidence 4) [8D20C2CB]
Copy OK

Track 2

Filename C:EACripsVarious Artists - 2007 - City of Dreams (Disc 3)2 - Theryl 'Houseman' de'Clouet - Ain't No Yachts In The Ghetto.wav

Peak level 100.0 %
Track quality 100.0 %
Test CRC 62F56C15
Copy CRC 62F56C15
Accurately ripped (confidence 4) [E0772567]
Copy OK

Track 3

Filename C:EACripsVarious Artists - 2007 - City of Dreams (Disc 3)3 - George Porter, Jr. of The Meters - Rough Spots.wav

Pre-gap length 0:00:03.33

Peak level 100.0 %
Track quality 100.0 %
Test CRC A390B460
Copy CRC A390B460
Accurately ripped (confidence 4) [6B3120CD]
Copy OK

Track 4

Filename C:EACripsVarious Artists - 2007 - City of Dreams (Disc 3)4 - All That - Flow On.wav

Pre-gap length 0:00:01.01

Peak level 99.3 %
Track quality 100.0 %
Test CRC F26834DB
Copy CRC F26834DB
Accurately ripped (confidence 4) [130B0164]
Copy OK

Track 5

Filename C:EACripsVarious Artists - 2007 - City of Dreams (Disc 3)5 - Ed Frank Quintet - A Corn for Crip.wav

Pre-gap length 0:00:03.50

Peak level 100.0 %
Track quality 100.0 %
Test CRC 669A79C5
Copy CRC 669A79C5
Accurately ripped (confidence 4) [234F832D]
Copy OK

Track 6

Filename C:EACripsVarious Artists - 2007 - City of Dreams (Disc 3)6 - Bo Dollis & Wille Tee with Dr. John - Keeper Of The Crown.wav

Pre-gap length 0:00:01.56

Peak level 100.0 %
Track quality 100.0 %
Test CRC FA5CDDE6
Copy CRC FA5CDDE6
Accurately ripped (confidence 4) [838A0108]
Copy OK

Track 7

Filename C:EACripsVarious Artists - 2007 - City of Dreams (Disc 3)7 - Johnny Adams - Body and Fender Man.wav

Pre-gap length 0:00:01.00

Peak level 100.0 %
Track quality 100.0 %
Test CRC E5D5E2B3
Copy CRC E5D5E2B3
Accurately ripped (confidence 4) [A1FEF7B7]
Copy OK

Track 8

Filename C:EACripsVarious Artists - 2007 - City of Dreams (Disc 3)8 - New Orleans Saxophone Ensemble - Gemini Rising.wav

Pre-gap length 0:00:02.98

Peak level 98.6 %
Track quality 100.0 %
Test CRC DBEB725B
Copy CRC DBEB725B
Accurately ripped (confidence 4) [869381BB]
Copy OK

Track 9

Filename C:EACripsVarious Artists - 2007 - City of Dreams (Disc 3)9 - Irma Thomas - Sweet Touch of Love.wav

Pre-gap length 0:00:01.60

Peak level 99.5 %
Track quality 100.0 %
Test CRC BA0736E5
Copy CRC BA0736E5
Accurately ripped (confidence 4) [D1676EFF]
Copy OK

Track 10

Filename C:EACripsVarious Artists - 2007 - City of Dreams (Disc 3)10 - Solomon Burke - Here We Go Again.wav

Peak level 99.6 %
Track quality 100.0 %
Test CRC 6DD92AF9
Copy CRC 6DD92AF9
Accurately ripped (confidence 4) [71E9AB2D]
Copy OK

Track 11

Filename C:EACripsVarious Artists - 2007 - City of Dreams (Disc 3)11 - Walter 'Wolfman' Washington - Funk Yard.wav

Pre-gap length 0:00:01.08

Peak level 100.0 %
Track quality 99.9 %
Test CRC 136C7760
Copy CRC 136C7760
Accurately ripped (confidence 4) [D1F1CF31]
Copy OK

Track 12

Filename C:EACripsVarious Artists - 2007 - City of Dreams (Disc 3)12 - Davell Crawford - House That Jack Built.wav

Pre-gap length 0:00:02.64

Peak level 100.0 %
Track quality 99.9 %
Test CRC 8D325424
Copy CRC 8D325424
Accurately ripped (confidence 4) [62EE3FC4]
Copy OK

All tracks accurately ripped

No errors occurred

End of status report
CD 4 Ivory Emperors 00

01. Eddie Bo – Hard Times
02. James Booker – Classified
03. Professor Longhair – Every Day, Every Night
06. David Torkanowsky – Spring Can Really Hang You Up The Most
07. Tuts Washington – Tee Nah Nah
08. Willie Tee – On The Q-Tee
07. Davell Crawford – Gumbo Piano
08. James Booker – All By Myself
09. Art Neville – My Children
10. Champion Jack Dupree – I Don't Know
11. Professor Longhair – Go To The Mardi Gras
12. Tuts Washington – Do You Know What It Means To Miss New Orleans

eac
Exact Audio Copy V0.99 prebeta 4 from 23. January 2008

EAC extraction logfile from 20. February 2010, 22:33

Various / City Of Dreams (Disc 4)

Used drive : PIONEER DVD-RW DVR-115D Adapter: 1 ID: 0

Read mode : Secure
Utilize accurate stream : Yes
Defeat audio cache : Yes
Make use of C2 pointers : No

Read offset correction : 48
Overread into Lead-In and Lead-Out : No
Fill up missing offset samples with silence : Yes
Delete leading and trailing silent blocks : No
Null samples used in CRC calculations : Yes
Used interface : Installed external ASPI interface
Gap handling : Appended to previous track

Used output format : User Defined Encoder
Selected bitrate : 128 kBit/s
Quality : High
Add ID3 tag : No
Command line compressor : C:Program FilesExact Audio CopyFlacflac.exe
Additional command line options : -V -8 -T "artist=%a" -T "title=%t" -T "album=%g" -T "date=%y" -T "tracknumber=%n" -T "genre=%m" %s

TOC of the extracted CD

Track | Start | Length | Start sector | End sector
---------------------------------------------------------
1 | 0:00.00 | 2:37.18 | 0 | 11792
2 | 2:37.18 | 3:16.61 | 11793 | 26553
3 | 5:54.04 | 2:22.31 | 26554 | 37234
4 | 8:16.35 | 6:18.43 | 37235 | 65627
5 | 14:35.03 | 1:57.68 | 65628 | 74470
6 | 16:32.71 | 2:04.64 | 74471 | 83834
7 | 18:37.60 | 3:35.06 | 83835 | 99965
8 | 22:12.66 | 3:31.29 | 99966 | 115819
9 | 25:44.20 | 3:18.20 | 115820 | 130689
10 | 29:02.40 | 4:52.13 | 130690 | 152602
11 | 33:54.53 | 2:50.25 | 152603 | 165377
12 | 36:45.03 | 2:53.13 | 165378 | 178365

Track 1

Filename C:EACripsVarious Artists - 2007 - City Of Dreams (Disc 4)1 - Eddie Bo - Hard Times.wav

Pre-gap length 0:00:02.00

Peak level 100.0 %
Track quality 100.0 %
Test CRC A0D68026
Copy CRC A0D68026
Accurately ripped (confidence 4) [7C931F61]
Copy OK

Track 2

Filename C:EACripsVarious Artists - 2007 - City Of Dreams (Disc 4)2 - James Booker - Classified.wav

Pre-gap length 0:00:02.66

Peak level 100.0 %
Track quality 100.0 %
Test CRC 5CB79AE0
Copy CRC 5CB79AE0
Accurately ripped (confidence 4) [13D853CE]
Copy OK

Track 3

Filename C:EACripsVarious Artists - 2007 - City Of Dreams (Disc 4)3 - Professor Longhair - Every Day, Every Night.wav

Pre-gap length 0:00:02.13

Peak level 98.9 %
Track quality 100.0 %
Test CRC 63CDF607
Copy CRC 63CDF607
Accurately ripped (confidence 4) [E3BD4794]
Copy OK

Track 4

Filename C:EACripsVarious Artists - 2007 - City Of Dreams (Disc 4)4 - David Torkanowsky - Spring Can Really Hang You Up The Most.wav

Pre-gap length 0:00:02.82

Peak level 100.0 %
Track quality 100.0 %
Test CRC A4454B7A
Copy CRC A4454B7A
Accurately ripped (confidence 4) [36A39FFC]
Copy OK

Track 5

Filename C:EACripsVarious Artists - 2007 - City Of Dreams (Disc 4)5 - Tuts Washington - Tee Nah Nah.wav

Pre-gap length 0:00:03.12

Peak level 100.0 %
Track quality 99.9 %
Test CRC F9F50A49
Copy CRC F9F50A49
Accurately ripped (confidence 4)
Copy OK

Track 6

Filename C:EACripsVarious Artists - 2007 - City Of Dreams (Disc 4)6 - Willie Tee - On The Q-Tee.wav

Pre-gap length 0:00:02.86

Peak level 100.0 %
Track quality 99.9 %
Test CRC 11C4D563
Copy CRC 11C4D563
Accurately ripped (confidence 4) [8A8B45A9]
Copy OK

Track 7

Filename C:EACripsVarious Artists - 2007 - City Of Dreams (Disc 4)7 - Davell Crawford - Gumbo Piano.wav

Pre-gap length 0:00:02.54

Peak level 100.0 %
Track quality 100.0 %
Test CRC A21BDA72
Copy CRC A21BDA72
Accurately ripped (confidence 4) [DB93B279]
Copy OK

Track 8

Filename C:EACripsVarious Artists - 2007 - City Of Dreams (Disc 4)8 - James Booker - All By Myself.wav

Pre-gap length 0:00:03.62

Peak level 100.0 %
Track quality 100.0 %
Test CRC 37A815A0
Copy CRC 37A815A0
Accurately ripped (confidence 4) [C05B3A72]
Copy OK

Track 9

Filename C:EACripsVarious Artists - 2007 - City Of Dreams (Disc 4)9 - Art Neville - My Children.wav

Pre-gap length 0:00:02.21

Peak level 100.0 %
Track quality 100.0 %
Test CRC BBFB1FCD
Copy CRC BBFB1FCD
Accurately ripped (confidence 4)
Copy OK

Track 10

Filename C:EACripsVarious Artists - 2007 - City Of Dreams (Disc 4)10 - Champion Jack Dupree - I Don't Know.wav

Pre-gap length 0:00:03.30

Peak level 100.0 %
Track quality 100.0 %
Test CRC 48429097
Copy CRC 48429097
Accurately ripped (confidence 4) [3C510783]
Copy OK

Track 11

Filename C:EACripsVarious Artists - 2007 - City Of Dreams (Disc 4)11 - Professor Longhair - Go To The Mardi Gras.wav

Pre-gap length 0:00:03.17

Peak level 99.0 %
Track quality 99.9 %
Test CRC C27EEF1F
Copy CRC C27EEF1F
Accurately ripped (confidence 4)
Copy OK

Track 12

Filename C:EACripsVarious Artists - 2007 - City Of Dreams (Disc 4)12 - Tuts Washington - Do You Know What It Means To Miss New Orleans.wav

Pre-gap length 0:00:03.04

Peak level 100.0 %
Track quality 100.0 %
Test CRC B3FAE0FB
Copy CRC B3FAE0FB
Accurately ripped (confidence 4) [3AE3020D]
Copy OK

All tracks accurately ripped

No errors occurred

End of status report
Музыка / Lossless / Сборники
СКАЧАТЬ БЕСПЛАТНО  [1.2 GB]


15
янв
2011

VA - A Happy New Year: From Music For Dreams [2011, House, MP3]

Формат: MP3, tracks, 320kbps
Год выпуска: 2011
Страна: All World
Жанр: House
Продолжительность: 02:06:32
Описание: 01. Boom Clap Bachelors - L-O-V-E (Kem Fuego Mix) (6:42) 02. Jazzbox - Less Is More (Extended Mix) (6:13) 03. Lulu Rouge feat. Trentemoller - Lulu's Theme (Original Mix) (7:33) 04. Bird - Some Boys (Valentin Huedo Remix) (7:38 ) 05. Betina Bager & Og Brian O - Singing In The Rain (Love Baby Club Mix) (6:34) 06. Fagget Fairys - Roll The Dice (B.Rich Remix) (4:42) 07. Hess Is More - Yes Boss (Pete Herbert Remix) (4:59) 08. Bliss feat. Ane Brun - Trust In Your Love (Charles Webster ...

07
фев
2011

VA - Get Hypnotized - A Unique Collection Of Electronic Music Volume 2 [2011, House, MP3]

Формат: MP3, tracks, 320kbps
Год выпуска: 2011
Страна: All World
Жанр: House
Продолжительность: 02:35:54
Описание:
Треклист: 1. Susan Cries - Bang Bang - Nacho Marco Acid Remix 2. Stu Hirst, Invent - The Give - Original Mix 3. Peckos - Silver Sliming - Original Mix 4. Maurizio Patti - Music - Vladimir Corbin & Peddy Blur Dub Remix 5. Leland McWilliams - Cold Blooded - Danny Serrano Remix 6. Mark Bale - Bounce 4 Me - Original Mix 7. Barou - Taxman - Original Mix 8. Colorless - So Deep - Original Mix 9. Levan - Right On - 2010 Remake 10. Justin James - Music Today - Original Mix 11. Johnny La ...

10
окт
2011

VA - Play the Hits 2011 Collection (4CD) [2011, Electronic, Dance, Club, MP3]

Формат: MP3, tracks, 320kbps
Год выпуска: 2011
Страна: All World
Жанр: Electronic, Dance, Club
Продолжительность: 02:21:49
Описание: CD1 01. Fly Project - Goodbye 02. Claydee & Dimension-X - Call me 03. Sak.Noel. - Loca People 04. Andreea Banica - Love in Brasil 05. Deejay David & Ela Rose - I can feel 06. Playmen & Claydee Feat. Tamta - Tonight 07. Alceen - Lover's dream 08. Reckless - Number one 09. The Fade - Aquarium 10. Sunrise Inc. Vs. Starchild - Lick shot CD2 01. Otherview & Ivi Adamou - Last kiss 02. Playmen & Alceen Feat. The Fade & Mia - Feel your love 03. Radio Killer - Lonely Hea ...

09
мар
2009

VA - Music For Striptease (4CD) [2008, pop]

Формат: MP3, tracks, 224kbps
Год выпуска: 2008
Страна: EU
Жанр: pop
Продолжительность: 06:38:57 CD11. Tito & Tarantula - After Dark (4:13) 2. Depeche Mode - Home (4:18) 3. Suzi Quatro - Born Making Noise (4:46) 4. Rob Zombie - Dragula(Si Non Oscillas, Noli (1:22) 5. David Usher - Black Black Heart (3:48) 6. Cradle Of Filth - Tonight In Flames (5:56) 7. Erwann Kermorvant & Axell - Don't Bring Me Down (4:25) 8. Mustafa Sandal - Isyankar (3:55) 9. Madonna - Nobody's Perfect (4:58) 10. Tori Amos - Sweet The Sting (4:15) 11. Shivaree - Goodnight Moon (4:04) 12. Jennifer Lopez - Step Into My World ( ...

14
ноя
2010

VA - The city where dreams become reality vol.3 [2010, Electro-House, House, MP3]

Формат: MP3, tracks, 320kbps
Год выпуска: 2010
Страна: All World
Жанр: Electro-House, House
Продолжительность: 02:17:17
Описание: 01. Black Eyed Peas - The Time DJ Law Remix (7:00) 02. Bruno Mars - Just The Way You Are Skrillex BatBoi Remix (3:49) 03. Dash Berlin - Man On The Run Electro Banger Puma Scorz Remix (4:56) 04. Dimitry G. - Action Panda Serial Killer Sound 1 Original Mix (5:11) 05. DJ WaY - Final Blast (4:45) 06. Example - Two Lives Kris Menace Remix (6:28) 07. Far East Movement - Like A G6 ft. The Cataracs, Dev Tuner Stevensson Remix (3:29) 08. Fast Foot - Party-X Speaker Killer ...

12
дек
2012

Фэт Сити, Новый Орлеан / Fat City, New Orleans (Др. Стивен Мутон) [2011, драма, мелодрама, комедия, SATRip] DVO

Перевод: Профессиональный (двухголосый), cубтитры: отсутствуют
Формат: SATRip, AVI, XviD, AC3
Страна: США
Режиссер: Др. Стивен Мутон
Жанр: драма, мелодрама, комедия
Продолжительность: 01:35:43
Год выпуска: 2011
В ролях: Джозиа Липскомб, Эллисон Серебофф, Бриана Д. Банч, Сэнна Хэйнс, Джасмин Жандро, Леа Энн Лайонс, Джоанна Миддлтон, Др. Стивен Мутон, Мики Джури, Аманда Шмид, Катрин Веларде, Часити Замора
Описание: Подростки средней школы пригорода Нового Орлеана в 1979 г. посещают ночные клубы и дискотеки. В то время алкоголь можно было употреблять с 18 лет, но возраст можно и прибавить ...

18
окт
2013

NBA 2013-2014. Preseason. New Orleans Pelicans vs Oklahoma City Thunder [17.10.2013, Баскетбол, WEB-DL, 540p, MKV/H.264, EN]

Комментарий: Профессиональный
Язык комментариев: Английский
Страна: USA
Вид спорта: Баскетбол (NBA)
Год выпуска: 17.10.2013
Команды участники:
Описание: Матч NBA 2013-2014 preseason между командами New Orleans Pelicans vs Oklahoma City Thunder прошедший 17.10.2013
Формат: WEB-DLRip, MKV, H.264, AAC
Видео: MPEG-4 AVC, 1600 kbps avg, 960x540p, 29.970 fps
Аудио: AAC, 44.1 KHz, 2 ch, 77 kbps
Доп.информация: Автор рипа Mr.Drax Продолжительность 01:43:22 Счёт/статистика http://www.nba.com/games/20131017/NOPOKC/gameinfo.html

26
янв
2017

NBA RS 2017 New Orleans Pelicans vs Oklahoma City Thunder 25/01 [25.01.2017, Баскетбол, WEBRip 720p]

Перевод: Английский, cубтитры: отсутствуют
Формат: WEBRip, MKV, AVC, AAC
Страна: США/Канада
Участники: NBA RS 2017 New Orleans Pelicans vs Oklahoma City Thunder 25/01
Вид спорта: Баскетбол
Продолжительность: 02:00:00
Дата эфира: 25.01.2017
Язык комментариев: Английский
Описание: NBA RS 2017 New Orleans Pelicans vs Oklahoma City Thunder 25/01
Видео: 1280x720, 60.000 fps, 4500 kbps avg
Аудио: AAC 128kbps stereo 44.1KHz

22
июн
2011

VA - A Flower Full Of Stars - A Tribute To The Flower Kings (4CD) [2011, Progressive Rock, MP3]

Формат: MP3, tracks, 320kbps
Год выпуска: 2011
Страна: All World
Жанр: Progressive Rock
Продолжительность: 03:53:56
Описание: CD - 1 01. Abarax - Last Minute on Earth 02. AP Project - Alert Turn the Flora to This World 03. Argos - Cosmic Circus 04. Aurora Lunare - Trading My Soul 05. Chris - Different People 06. Contemporary Dead Finnish Music Ensemble - Grand Old World 07. Expedition Delta - Selfconsuming Fire 08. Final Conflict - A Kings Prayer CD - 2 01. Flamborough Head - Blessing a Smile 02. Forgotten Suns - In the Eyes of the World 03. Gaou - Rumble Fish Twist 04. Guitar Gard ...

02
дек
2014

Suzi Quatro - The Girl From Detroit City (4CD) [2014, Glam Rock, Hard Rock, Classic Rock, MP3]

Формат: MP3, tracks, 320kbps
Год выпуска: 2014
Страна: USA, UK
Жанр: Glam Rock, Hard Rock, Classic Rock
Продолжительность: 05:05:02
Описание: CD1 - 01 01. What A Way To Die (With Pleasure Seekers) - 2:25 02. Light Of Love (With Pleasure Seekers) - 3:01 03. Locked In Your Love (With Pleasure Seekers) - 2:34 04. Rolling Stone - 2:47 05. Can The Can - 3:36 06. Ain't Ya Something Honey - 4:08 07. 48 Crash - 3:55 08. All Shook Up - 3:50 09. Glycerine Queen - 3:49 10. Daytona Demon - 4:03 11. Roman Fingers - 3:48 12. Devil Gate Drive - 3:49 13. In The Morning - 2:37 14. Too Big - 3:22 15. The Wild ...

16
июн
2013

VA Dreams Worlds Music [2013, Trance, MP3]

Формат: MP3, tracks, 320kbps
Год выпуска: 2013
Страна: All World
Жанр: Trance
Продолжительность: 02:27:23
Описание: 01.Sunlounger & Zara - Lost (Club Mix). 02.Fast Distance pres. Suncoast - Puerta Del Sol (Original Mix). 03.High Noon at Salinas & Kyrst - Virgin Kyle Beach (Original Mix). 04.Chimera State - Asia (Original Mix). 05.Alex Hentze - Sokaribe (LD pres. Tello & Lioy Ceballos Remix). 06.Inertia - The Emerald (Original Mix). 07.ATB - Summer Rain (132 BPM Mix). 08.Armin van Buuren feat. Nadia Ali - Who Is Watching (Mischa Daniels Mix). 09.Shifted Reality - Fever (DJ3 Mix). 10.Ronski Spee ...

04
окт
2013

VA - Dreams Worlds Music 12 [2013, Trance, MP3]

Формат: MP3, tracks, 256-320kbps [VBR]
Год выпуска: 2013
Страна: All World
Жанр: Trance
Продолжительность: 03:15:35
Описание: 01.Roger Shah presents Sunlounger - Acapulco Waves (Original Club Mix). 02.Easton - Adriatica (Original Anthem Miix). 03.Sunlounger - Mediterranean Flower (Club Mix). 04.Dulac and Dubois feat Szen - Turning (Radio edit). 05.Sunlounger - White Sand (DJ Shah's Original Mix). 06.Roger Shah Pres Sunlounger - The Beach Side Of Life (Original Club Mix). 07.Julie Thompson - Shine (Frontier Extended Mix). 08.Ron Hagen and Al Exander - Last Minute 09.Black Pearl - Coral Sea (Or ...

04
окт
2013

VA - Dreams Worlds Music 13 [2013, Trance, MP3]

Формат: MP3, tracks, 320kbps
Год выпуска: 2013
Страна: All World
Жанр: Trance
Продолжительность: 02:59:49
Описание: 01.Abstract Vision & Elite Electronic - Always Loved You (Original Mix). 02.Suncatcher & Falcon - Hashtable. 03.Sunflare - Breaking Waves (Original mix). 04.Allen and Envy with Julie Harrington - Always (Mike van Fabio and Araya Vocal). 05.Allen & Envy feat. Ridgewalkers - Forever Young (Purple Stories Remix). 06.UDM - Endless World (Original Mix). 07.Sunlounger feat. Alexandra Badoi - I'll Be Fine (Roger Shah Rework) [Exclusive]. 08.Sensitive feat. Bogdan Bondarenko - Remember ( ...

16
сен
2014

VA - Dreams Worlds Music 17 [2014, Trance, MP3]

ФорматMP3, tracks, 320kbps
Год выпуска: 2014
Страна: All World
Жанр: Trance
Продолжительность: 02:45:56
Описание: 01.Bt and aqualung-surrounded (radio edit). 02.Bt-mercury and solace (bt 12 mastermix). 03.Bt-skylarking (radio edit). 04 gtr-mistral (original mix). 05. Giuseppe ottaviani-linking people (original mix). 06.Insigma-open our eyes (sean tyas got piano mix). 07.Lost witness vs sassot-whatever (aly and fila radio edit). 08.Tuffdam and plant-summer dream (stoneface and terminal remix). 09.Aly and fila-lost language (original mix edit). 10.The doppler effect-beauty hides in the deep (the ...

25
июл
2013

VA - Dreams Worlds Music 4 [2013, Uplifting Trance, MP3]

Формат: MP3, tracks, 192-320kbps [VBR]
Год выпуска: 2013
Страна: All World
Жанр: Uplifting Trance
Продолжительность: 03:01:38
Описание: 01.Blue Silence - A Whole World Better (The Noble Six remix). 02.Blue Tente feat. Stine Grove - Let You Go 2011 (Original Vocal Mix). 03.Ehren Stowers - A40 (Original Mix). 04.Ehren Stowers - Unity (Sonic Element Remix). 05.Frank Waanders - Lasers (Original Mix). 06.Frank Waanders - Sanur (Moonsouls Remix). 07.Janeiro & Sovt - Dreams Of The Sea (Ozo Effy Remix). 08.Kago Pengchi & Alexan - Sagarmatha (Philippe El Sisi Remix). 09.Kelly Andrew - The Incursion (Ep ...