05
июн
2016

VA - 100 Hits - 80's Dance [2009, Disco, Synth-pop, Pop, FLAC]

VA - 100 Hits - 80's Dance
Формат: FLAC, (image + .cue), lossless
Год выпуска: 2009
Страна: UE
Жанр: Disco, Synth-pop, Pop
Продолжительность: 06:33:05
Описание:

Cd 1 01
VA - 100 Hits - 80's Dance
01. The Jacksons - Can You Feel It 03:43
02. Miami Sound Machine with Gloria Estefan - Dr.Beat 04:16
03. Dead Or Alive - You Spin Me Around (Like A Record) 03:00
04. Rick Astley - Together Forever 03:05
05. Billy Ocean - Get Outta My Dreams Get Into My Car 04:40
06. New Kids On The Block - You've Got It (The Right Stuff) 04:07
07. Kylie Minogue - Hand On Your Heart 03:49
08. Taylor Dayne - Tell It To My Heart 03:36
09. Lisa Stansfield - All Aroud The World 04:20
10. Five Star - System Addict 03:48
11. Milli Vanilli - Girl You Know It's True 03:17
12. Terence Trent D'Arby - Dance Little Sisters 03:38
13. Deniece Williams - Let's Hear It For The Boy 04:08
14. Wham - Everything She Wants 05:02
15. Hall & Oates - I Can't Go For That (No Can Do) 04:40
16. KC & The Sunshine Band - Give It Up 04:02
17. Princess - Say I'm Your No.1 03:29
18. Lisa Lisa and Cult Jam with Full Force - I Wonder If I Take You Home 03:22
19. Lovebug Starski - Amityville (The House On The Hill) 05:30
20. Tone Loc - Funky Cold Medina 04:09

eac
Exact Audio Copy V1.0 beta 3 from 29. August 2011

Отчёт EAC об извлечении, выполненном 5. июня 2016, 13:43

Various Artists / 100Hits - 80's Dance (cd1)

Дисковод: ASUS DRW-24F1ST a Adapter: 0 ID: 0

Режим чтения : Достоверность
Использование точного потока : Да
Отключение кэша аудио : Нет
Использование указателей C2 : Да

Коррекция смещения при чтении : 6
Способность читать области Lead-in и Lead-out : Нет
Заполнение пропущенных сэмплов тишиной : Да
Удаление блоков с тишиной в начале и конце : Нет
При вычислениях CRC использовались нулевые сэмплы : Да
Интерфейс : Встроенный Win32-интерфейс для Win NT/2000

Выходной формат : Пользовательский кодировщик
Выбранный битрейт : 768 kBit/s
Качество : Высокий
Добавление ID3-тега : Нет
Утилита сжатия : C:Program Files (x86)Exact Audio CopyFLACFLAC.EXE
Дополнительные параметры : -V -8 -T "Date=%year%" -T "Genre=%genre%" %source%

TOC извлечённого CD

Трек | Старт | Длительность | Начальный сектор | Конечный сектор
---------------------------------------------------------------------
1 | 0:00.00 | 3:43.59 | 0 | 16783
2 | 3:43.59 | 4:16.54 | 16784 | 36037
3 | 8:00.38 | 3:00.61 | 36038 | 49598
4 | 11:01.24 | 3:05.60 | 49599 | 63533
5 | 14:07.09 | 4:40.34 | 63534 | 84567
6 | 18:47.43 | 4:07.74 | 84568 | 103166
7 | 22:55.42 | 3:49.07 | 103167 | 120348
8 | 26:44.49 | 3:36.55 | 120349 | 136603
9 | 30:21.29 | 4:20.71 | 136604 | 156174
10 | 34:42.25 | 3:48.22 | 156175 | 173296
11 | 38:30.47 | 3:17.00 | 173297 | 188071
12 | 41:47.47 | 3:38.04 | 188072 | 204425
13 | 45:25.51 | 4:08.08 | 204426 | 223033
14 | 49:33.59 | 5:02.00 | 223034 | 245683
15 | 54:35.59 | 4:40.48 | 245684 | 266731
16 | 59:16.32 | 4:02.65 | 266732 | 284946
17 | 63:19.22 | 3:29.02 | 284947 | 300623
18 | 66:48.24 | 3:22.08 | 300624 | 315781
19 | 70:10.32 | 5:30.42 | 315782 | 340573
20 | 75:40.74 | 4:09.43 | 340574 | 359291

Характеристики диапазона извлечения и сообщения об ошибках

Выбранный диапазон

Имя файла C:UsersshuraviMusic100Hits - 80's Dancecd 1Various Artists - 100Hits - 80's Dance (cd1).wav

Пиковый уровень 99.4 %
Скорость извлечения 10.4 X
Качество диапазона 100.0 %
CRC теста E3216B28
CRC копии E3216B28
Копирование... OK

Ошибок не произошло

AccurateRip: сводка

Трек 1 извлечено точно (доверие 13) [1CC7527B] (AR v1)
Трек 2 извлечено точно (доверие 13) [0B765831] (AR v1)
Трек 3 извлечено точно (доверие 13) [AF156D41] (AR v1)
Трек 4 извлечено точно (доверие 13) [9F94C70C] (AR v1)
Трек 5 извлечено точно (доверие 13) [ADF283BE] (AR v1)
Трек 6 извлечено точно (доверие 13) [02FDC509] (AR v1)
Трек 7 извлечено точно (доверие 13) [7D365C81] (AR v1)
Трек 8 извлечено точно (доверие 13) [2E06AE1F] (AR v1)
Трек 9 извлечено точно (доверие 13) [59624637] (AR v1)
Трек 10 извлечено точно (доверие 13) [2D2A1D66] (AR v1)
Трек 11 извлечено точно (доверие 13) [E6FEE9A2] (AR v1)
Трек 12 извлечено точно (доверие 13) [5D90103D] (AR v1)
Трек 13 извлечено точно (доверие 13) [828F8104] (AR v1)
Трек 14 извлечено точно (доверие 13) [33A247B9] (AR v1)
Трек 15 извлечено точно (доверие 13) [ED1075FC] (AR v1)
Трек 16 извлечено точно (доверие 13) [837149BA] (AR v1)
Трек 17 извлечено точно (доверие 13) [2F38CF3E] (AR v1)
Трек 18 извлечено точно (доверие 13) [F4FDB961] (AR v1)
Трек 19 извлечено точно (доверие 13) [7EAE8B92] (AR v1)
Трек 20 извлечено точно (доверие 13) [BA9D39C7] (AR v1)

Все треки извлечены точно

Конец отчёта


Cd 2 01
VA - 100 Hits - 80's Dance
01. Odyssey - Going Back To My Roots 04:27
02. Aretha Franklin - Who's Zoomin' Who 04:42
03. Evelyn 'Champagne' King - Love Come Down 03:18
04. Luther Vandross - Never Too Much 03:48
05. Full Force - Alice I Want You Just For Me 03:46
06. Five Star - The Slightest Touch 04:27
07. The Pasadenas - Tribute (Right On) 03:36
08. Billy Ocean - Caribbean Queen (No More Love On The Run) 04:04
09. Billy Griffin - Hold Me Tighter In The Rain 03:56
10. Terence Trent D'Arby - If You Let Me Stay 03:14
11. Milli Vanilli - Baby Don't Forget My Number 03:37
12. Bomb The Bass With Maureen - Say A Little Prayer 05:28
13. Coldcut Featuring Yazz And The Plastic Population - Doctorin' The House 03:46
14. S-Express - Superfly Guy 03:31
15. Beatmasters Featuring Betty Boo - Hey DJ I Can't Dance (To That Music You're Playing) 03:15
16. Sinitta - So Macho 03:23
17. Stock Aitken Waterman - Roadblock 03:18
18. Rick Astley - She Wants To Dance With Me 03:16
19. The Reynolds Girls - I'd Rather Jack 03:29
20. The Weather Girls - It's Raining Men 03:32

eac
Exact Audio Copy V1.0 beta 3 from 29. August 2011

Отчёт EAC об извлечении, выполненном 5. июня 2016, 14:21

Various Artists / 100 Hits - 80s Dance (cd 2)

Дисковод: ASUS DRW-24F1ST a Adapter: 0 ID: 0

Режим чтения : Достоверность
Использование точного потока : Да
Отключение кэша аудио : Нет
Использование указателей C2 : Да

Коррекция смещения при чтении : 6
Способность читать области Lead-in и Lead-out : Нет
Заполнение пропущенных сэмплов тишиной : Да
Удаление блоков с тишиной в начале и конце : Нет
При вычислениях CRC использовались нулевые сэмплы : Да
Интерфейс : Встроенный Win32-интерфейс для Win NT/2000

Выходной формат : Пользовательский кодировщик
Выбранный битрейт : 896 kBit/s
Качество : Высокий
Добавление ID3-тега : Нет
Утилита сжатия : C:Program Files (x86)Exact Audio CopyFLACFLAC.EXE
Дополнительные параметры : -V -8 -T "Date=%year%" -T "Genre=%genre%" %source%

TOC извлечённого CD

Трек | Старт | Длительность | Начальный сектор | Конечный сектор
---------------------------------------------------------------------
1 | 0:00.00 | 4:27.21 | 0 | 20045
2 | 4:27.21 | 4:42.29 | 20046 | 41224
3 | 9:09.50 | 3:18.55 | 41225 | 56129
4 | 12:28.30 | 3:48.62 | 56130 | 73291
5 | 16:17.17 | 3:46.02 | 73292 | 90243
6 | 20:03.19 | 4:27.27 | 90244 | 110295
7 | 24:30.46 | 3:36.68 | 110296 | 126563
8 | 28:07.39 | 4:04.35 | 126564 | 144898
9 | 32:11.74 | 3:56.66 | 144899 | 162664
10 | 36:08.65 | 3:14.31 | 162665 | 177245
11 | 39:23.21 | 3:37.71 | 177246 | 193591
12 | 43:01.17 | 5:28.34 | 193592 | 218225
13 | 48:29.51 | 3:46.63 | 218226 | 235238
14 | 52:16.39 | 3:31.53 | 235239 | 251116
15 | 55:48.17 | 3:15.16 | 251117 | 265757
16 | 59:03.33 | 3:23.14 | 265758 | 280996
17 | 62:26.47 | 3:18.71 | 280997 | 295917
18 | 65:45.43 | 3:16.25 | 295918 | 310642
19 | 69:01.68 | 3:29.67 | 310643 | 326384
20 | 72:31.60 | 3:32.46 | 326385 | 342330

Характеристики диапазона извлечения и сообщения об ошибках

Выбранный диапазон

Имя файла C:UsersshuraviMusic100Hits - 80's Dancecd 2Various Artists - 100 Hits - 80s Dance (cd 2).wav

Пиковый уровень 99.4 %
Скорость извлечения 10.3 X
Качество диапазона 100.0 %
CRC теста F99A7CA0
CRC копии F99A7CA0
Копирование... OK

Ошибок не произошло

AccurateRip: сводка

Трек 1 извлечено точно (доверие 13) [6A0928CC] (AR v1)
Трек 2 извлечено точно (доверие 13) [A3BE2F23] (AR v1)
Трек 3 извлечено точно (доверие 13) [99ED418B] (AR v1)
Трек 4 извлечено точно (доверие 13) [8C6FDD67] (AR v1)
Трек 5 извлечено точно (доверие 13) (AR v1)
Трек 6 извлечено точно (доверие 13) [573AE282] (AR v1)
Трек 7 извлечено точно (доверие 13) [8573047F] (AR v1)
Трек 8 извлечено точно (доверие 13) [561D6024] (AR v1)
Трек 9 извлечено точно (доверие 13) [66B1BFB7] (AR v1)
Трек 10 извлечено точно (доверие 13) [6C954E16] (AR v1)
Трек 11 извлечено точно (доверие 13) [341D623C] (AR v1)
Трек 12 извлечено точно (доверие 13) [BB4DB29C] (AR v1)
Трек 13 извлечено точно (доверие 13) [FA99B98F] (AR v1)
Трек 14 извлечено точно (доверие 13) [AEC767C6] (AR v1)
Трек 15 извлечено точно (доверие 13) [2A9B6442] (AR v1)
Трек 16 извлечено точно (доверие 13) [9C72281C] (AR v1)
Трек 17 извлечено точно (доверие 13) [A2B1D40F] (AR v1)
Трек 18 извлечено точно (доверие 13) [FC25F779] (AR v1)
Трек 19 извлечено точно (доверие 13) [663F93D4] (AR v1)
Трек 20 извлечено точно (доверие 13) [1AD3FB4D] (AR v1)

Все треки извлечены точно


Cd 3 01
VA - 100 Hits - 80's Dance
01. Tom Browne - Funkin' For Jamaica 03:28
02. Odyssey - Use It Up And Wear It Out 04:55
03. Gladys Knight & The Pips - Bourgie' Bourgie' 03:32
04. Keni Burke - Risin' To The Top 03:47
05. Earth, Wind & Fire - Let's Groove 03:32
06. Rodney Franklin - The Groove 03:23
07. The Pointer Sisters - Automatic 03:52
08. Phyllis Hyman - You Know How To Love Me 04:41
09. Mtume - Juicy Fruit 03:41
10. Heatwave - Gangsters Of The Groove 04:02
11. Haywoode - Roses 03:38
12. Cheryl Lynn - Encore 04:20
13. Average White Band - Let's Go Round Again 04:08
14. The Cool Notes - Spend The Night 03:01
15. The Manhattans - Crazy 04:04
16. Rhyze - Just How Sweet Is Your Love 03:54
17. Kashif - I Just Gotta Have You (Lover Turn Me On) 03:58
18. Glenn Jones - I Am Somebody 03:44
19. Evelyn 'Champagne' King - I'm In Love 05:02
20. Paul Simpson Connection - Use Me Lose Me (Lose Me Use Mix) 03:44

eac
Exact Audio Copy V1.0 beta 3 from 29. August 2011

Отчёт EAC об извлечении, выполненном 5. июня 2016, 14:52

Various Artists / 100 Hits - 80s Dance (cd 3)

Дисковод: ASUS DRW-24F1ST a Adapter: 0 ID: 0

Режим чтения : Достоверность
Использование точного потока : Да
Отключение кэша аудио : Нет
Использование указателей C2 : Да

Коррекция смещения при чтении : 6
Способность читать области Lead-in и Lead-out : Нет
Заполнение пропущенных сэмплов тишиной : Да
Удаление блоков с тишиной в начале и конце : Нет
При вычислениях CRC использовались нулевые сэмплы : Да
Интерфейс : Встроенный Win32-интерфейс для Win NT/2000

Выходной формат : Пользовательский кодировщик
Выбранный битрейт : 896 kBit/s
Качество : Высокий
Добавление ID3-тега : Нет
Утилита сжатия : C:Program Files (x86)Exact Audio CopyFLACFLAC.EXE
Дополнительные параметры : -V -8 -T "Date=%year%" -T "Genre=%genre%" %source%

TOC извлечённого CD

Трек | Старт | Длительность | Начальный сектор | Конечный сектор
---------------------------------------------------------------------
1 | 0:00.00 | 3:28.62 | 0 | 15661
2 | 3:28.62 | 4:55.05 | 15662 | 37791
3 | 8:23.67 | 3:32.39 | 37792 | 53730
4 | 11:56.31 | 3:47.14 | 53731 | 70769
5 | 15:43.45 | 3:32.01 | 70770 | 86670
6 | 19:15.46 | 3:23.73 | 86671 | 101968
7 | 22:39.44 | 3:52.04 | 101969 | 119372
8 | 26:31.48 | 4:41.40 | 119373 | 140487
9 | 31:13.13 | 3:41.70 | 140488 | 157132
10 | 34:55.08 | 4:02.22 | 157133 | 175304
11 | 38:57.30 | 3:38.04 | 175305 | 191658
12 | 42:35.34 | 4:20.29 | 191659 | 211187
13 | 46:55.63 | 4:08.23 | 211188 | 229810
14 | 51:04.11 | 3:01.12 | 229811 | 243397
15 | 54:05.23 | 4:04.68 | 243398 | 261765
16 | 58:10.16 | 3:54.46 | 261766 | 279361
17 | 62:04.62 | 3:58.62 | 279362 | 297273
18 | 66:03.49 | 3:44.70 | 297274 | 314143
19 | 69:48.44 | 5:02.19 | 314144 | 336812
20 | 74:50.63 | 3:44.15 | 336813 | 353627

Характеристики диапазона извлечения и сообщения об ошибках

Выбранный диапазон

Имя файла C:UsersshuraviMusic100Hits - 80's Dancecd 3Various Artists - 100 Hits - 80s Dance (cd 3).wav

Пиковый уровень 99.4 %
Скорость извлечения 10.4 X
Качество диапазона 100.0 %
CRC теста 47841343
CRC копии 47841343
Копирование... OK

Ошибок не произошло

AccurateRip: сводка

Трек 1 извлечено точно (доверие 13) [84E42248] (AR v1)
Трек 2 извлечено точно (доверие 13) [8BD32A1E] (AR v1)
Трек 3 извлечено точно (доверие 13) [556155A5] (AR v1)
Трек 4 извлечено точно (доверие 13) (AR v1)
Трек 5 извлечено точно (доверие 13) [57C724DD] (AR v1)
Трек 6 извлечено точно (доверие 13) [632E34BE] (AR v1)
Трек 7 извлечено точно (доверие 13) [3DE5DCA1] (AR v1)
Трек 8 извлечено точно (доверие 13) [E7664DDD] (AR v1)
Трек 9 извлечено точно (доверие 13) [E16D5346] (AR v1)
Трек 10 извлечено точно (доверие 13) [E773C214] (AR v1)
Трек 11 извлечено точно (доверие 13) [0D1A5D58] (AR v1)
Трек 12 извлечено точно (доверие 13) [4CBBEB1E] (AR v1)
Трек 13 извлечено точно (доверие 13) [56E8ECEC] (AR v1)
Трек 14 извлечено точно (доверие 13) [EA8843FC] (AR v1)
Трек 15 извлечено точно (доверие 13) [0E535B50] (AR v1)
Трек 16 извлечено точно (доверие 13) [C4C717C3] (AR v1)
Трек 17 извлечено точно (доверие 13) (AR v1)
Трек 18 извлечено точно (доверие 13) [0B1C6B8F] (AR v1)
Трек 19 извлечено точно (доверие 13) [EB500736] (AR v1)
Трек 20 извлечено точно (доверие 13) [09045B0F] (AR v1)

Все треки извлечены точно

Конец отчёта


Cd 4 01
VA - 100 Hits - 80's Dance
01. Joyce Sims - Come into My Life 03:24
02. Mai Tai - History 03:46
03. Taylore Dayne - Prove Your Love 03:24
04. Pseudo Echo - Funky Town 03:41
05. Eartha Kitt & Bronski Beat - Cha Cha Heels 03:44
06. Eighth Wonder - I'm Not Scared 04:16
07. Liza Minnelli - Losing My Mind 04:01
08. Sinitta - Love on a Mountain Top[03:04
09. The Pasadenas - Riding on a Train 05:20
10. The Conway Brothers - Turn It Up 03:48
11. Hot Streak - Body Work 04:13
12. Vicky 'D' - This Beat Is Mine 04:29
13. Class Action featuring Chris Wiltshire - Week End 05:38
14. Loleatta Holloway - Crash Goes Love 03:17
15. Colonel Abrams - Music Is the Answer 03:32
16. Flash And The Pan - Midnight Man 03:39
17. Malcolm McLaren & The Bootzilla Orchestra - Deep in Vogue 03:53
18. Coldcut featuring Lisa Stansfield - People Hold On 04:57
19. Beatmasters featuring Cookie Crew - Rock Da House 03:04
20. The Blow Monkeys featuring Sylvia Tella - Choice 03:25

eac
Exact Audio Copy V1.0 beta 3 from 29. August 2011

Отчёт EAC об извлечении, выполненном 5. июня 2016, 15:21

Various Artists / 100 Hits - 80's Dance (cd 4)

Дисковод: ASUS DRW-24F1ST a Adapter: 0 ID: 0

Режим чтения : Достоверность
Использование точного потока : Да
Отключение кэша аудио : Нет
Использование указателей C2 : Да

Коррекция смещения при чтении : 6
Способность читать области Lead-in и Lead-out : Нет
Заполнение пропущенных сэмплов тишиной : Да
Удаление блоков с тишиной в начале и конце : Нет
При вычислениях CRC использовались нулевые сэмплы : Да
Интерфейс : Встроенный Win32-интерфейс для Win NT/2000

Выходной формат : Пользовательский кодировщик
Выбранный битрейт : 896 kBit/s
Качество : Высокий
Добавление ID3-тега : Нет
Утилита сжатия : C:Program Files (x86)Exact Audio CopyFLACFLAC.EXE
Дополнительные параметры : -V -8 -T "Date=%year%" -T "Genre=%genre%" %source%

TOC извлечённого CD

Трек | Старт | Длительность | Начальный сектор | Конечный сектор
---------------------------------------------------------------------
1 | 0:00.00 | 3:24.40 | 0 | 15339
2 | 3:24.40 | 3:46.12 | 15340 | 32301
3 | 7:10.52 | 3:24.11 | 32302 | 47612
4 | 10:34.63 | 3:41.22 | 47613 | 64209
5 | 14:16.10 | 3:44.57 | 64210 | 81066
6 | 18:00.67 | 4:16.26 | 81067 | 100292
7 | 22:17.18 | 4:01.06 | 100293 | 118373
8 | 26:18.24 | 3:04.38 | 118374 | 132211
9 | 29:22.62 | 5:20.67 | 132212 | 156278
10 | 34:43.54 | 3:48.40 | 156279 | 173418
11 | 38:32.19 | 4:13.18 | 173419 | 192411
12 | 42:45.37 | 4:29.71 | 192412 | 212657
13 | 47:15.33 | 5:38.41 | 212658 | 238048
14 | 52:53.74 | 3:17.54 | 238049 | 252877
15 | 56:11.53 | 3:32.00 | 252878 | 268777
16 | 59:43.53 | 3:39.56 | 268778 | 285258
17 | 63:23.34 | 3:53.00 | 285259 | 302733
18 | 67:16.34 | 4:57.71 | 302734 | 325079
19 | 72:14.30 | 3:04.24 | 325080 | 338903
20 | 75:18.54 | 3:25.15 | 338904 | 354293

Характеристики диапазона извлечения и сообщения об ошибках

Выбранный диапазон

Имя файла C:UsersshuraviMusic100Hits - 80's Dancecd 4Various Artists - 100 Hits - 80's Dance (cd 4).wav

Пиковый уровень 99.4 %
Скорость извлечения 10.4 X
Качество диапазона 99.9 %
CRC теста E7AF9829
CRC копии E7AF9829
Копирование... OK

Ошибок не произошло

AccurateRip: сводка

Трек 1 извлечено точно (доверие 13) [DBA9B943] (AR v1)
Трек 2 извлечено точно (доверие 13) [FF339676] (AR v1)
Трек 3 извлечено точно (доверие 13) [D8CC107A] (AR v1)
Трек 4 извлечено точно (доверие 13) [34AA6C3F] (AR v1)
Трек 5 извлечено точно (доверие 13) [38EB23F4] (AR v1)
Трек 6 извлечено точно (доверие 13) [EA803BD3] (AR v1)
Трек 7 извлечено точно (доверие 13) [DFFC134A] (AR v1)
Трек 8 извлечено точно (доверие 13) [231F58B0] (AR v1)
Трек 9 извлечено точно (доверие 13) [FDD18743] (AR v1)
Трек 10 извлечено точно (доверие 13) [A144E36B] (AR v1)
Трек 11 извлечено точно (доверие 13) [3361C33C] (AR v1)
Трек 12 извлечено точно (доверие 13) [5567B4EE] (AR v1)
Трек 13 извлечено точно (доверие 13) [88A2B801] (AR v1)
Трек 14 извлечено точно (доверие 13) [04F91246] (AR v1)
Трек 15 извлечено точно (доверие 13) [4C515115] (AR v1)
Трек 16 извлечено точно (доверие 13) [8C36FF80] (AR v1)
Трек 17 извлечено точно (доверие 13) [846538FD] (AR v1)
Трек 18 извлечено точно (доверие 13) [BAC6934F] (AR v1)
Трек 19 извлечено точно (доверие 13) [7F8138C8] (AR v1)
Трек 20 извлечено точно (доверие 13) [416E46A1] (AR v1)

Все треки извлечены точно

Конец отчёта


Cd 5 01
VA - 100 Hits - 80's Dance
01. Run DMC - It's Tricky 03:03
02. Jazzy Jeff & The Fresh Prince - Girls Ain't Nothing But Trouble 04:49
03. The Wee Papa Girl Rappers - Wee Rule 03:29
04. Young M.C - Bust A Move 04:24
05. Boogie Down Productions - My Philosophy 05:36
06. Joyce Sims - (You Are My) All And All 04:26
07. Dhar Braxton - Jump Back (Set Me Free) 03:43
08. Bomb The Bass - Beat Dis 03:20
09. S-Express - Hey Music Lover 04:30
10. Kariya - Let Me Love You Tonight 04:18
11. Adonis - No Way Back 04:57
12. Rob 'N' Raz Featuring Leila K - Got To Get 03:25
13. Robert Howard & Kym Mazelle - Wait! 03:09
14. Royal House - Can You Party 03:29
15. Marshall Jefferson - Move Your Body 04:15
16. Mr Fingers - Can You Feel It 03:43
17. The House Master Boyz & The Rude Boy Of House - House Nation 04:06
18. Jungle Brothers - I'll House You 03:43
19. Farley 'Jackmaster' Funk Featuring Daryl Pandy - Love Can't Turn Around 03:42
20. Joe Smooth - Promised Land 03:37

eac
Exact Audio Copy V1.0 beta 3 from 29. August 2011

Отчёт EAC об извлечении, выполненном 5. июня 2016, 16:55

Various Artists / 100 Hits - 80s Dance (cd 5)

Дисковод: ASUS DRW-24F1ST a Adapter: 0 ID: 0

Режим чтения : Достоверность
Использование точного потока : Да
Отключение кэша аудио : Нет
Использование указателей C2 : Да

Коррекция смещения при чтении : 6
Способность читать области Lead-in и Lead-out : Нет
Заполнение пропущенных сэмплов тишиной : Да
Удаление блоков с тишиной в начале и конце : Нет
При вычислениях CRC использовались нулевые сэмплы : Да
Интерфейс : Встроенный Win32-интерфейс для Win NT/2000

Выходной формат : Пользовательский кодировщик
Выбранный битрейт : 896 kBit/s
Качество : Высокий
Добавление ID3-тега : Нет
Утилита сжатия : C:Program Files (x86)Exact Audio CopyFLACFLAC.EXE
Дополнительные параметры : -V -8 -T "Date=%year%" -T "Genre=%genre%" %source%

TOC извлечённого CD

Трек | Старт | Длительность | Начальный сектор | Конечный сектор
---------------------------------------------------------------------
1 | 0:00.00 | 3:03.68 | 0 | 13792
2 | 3:03.68 | 4:49.09 | 13793 | 35476
3 | 7:53.02 | 3:29.05 | 35477 | 51156
4 | 11:22.07 | 4:24.11 | 51157 | 70967
5 | 15:46.18 | 5:36.66 | 70968 | 96233
6 | 21:23.09 | 4:26.00 | 96234 | 116183
7 | 25:49.09 | 3:43.13 | 116184 | 132921
8 | 29:32.22 | 3:20.41 | 132922 | 147962
9 | 32:52.63 | 4:30.24 | 147963 | 168236
10 | 37:23.12 | 4:18.25 | 168237 | 187611
11 | 41:41.37 | 4:57.24 | 187612 | 209910
12 | 46:38.61 | 3:25.19 | 209911 | 225304
13 | 50:04.05 | 3:09.58 | 225305 | 239537
14 | 53:13.63 | 3:29.09 | 239538 | 255221
15 | 56:42.72 | 4:15.67 | 255222 | 274413
16 | 60:58.64 | 3:43.50 | 274414 | 291188
17 | 64:42.39 | 4:06.15 | 291189 | 309653
18 | 68:48.54 | 3:43.42 | 309654 | 326420
19 | 72:32.21 | 3:42.11 | 326421 | 343081
20 | 76:14.32 | 3:37.03 | 343082 | 359359

Характеристики диапазона извлечения и сообщения об ошибках

Выбранный диапазон

Имя файла C:UsersshuraviMusic100Hits - 80's Dancecd 5Various Artists - 100 Hits - 80s Dance (cd 5).wav

Пиковый уровень 99.4 %
Скорость извлечения 10.6 X
Качество диапазона 99.9 %
CRC теста E57173AC
CRC копии E57173AC
Копирование... OK

Ошибок не произошло

AccurateRip: сводка

Трек 1 извлечено точно (доверие 13) [726ED45A] (AR v1)
Трек 2 извлечено точно (доверие 13) [10BCD326] (AR v1)
Трек 3 извлечено точно (доверие 13) [5C96AA25] (AR v1)
Трек 4 извлечено точно (доверие 13) [009543F9] (AR v1)
Трек 5 извлечено точно (доверие 13) [0FF00254] (AR v1)
Трек 6 извлечено точно (доверие 13) [71E11EE3] (AR v1)
Трек 7 извлечено точно (доверие 13) [36EA669D] (AR v1)
Трек 8 извлечено точно (доверие 13) [499B8A8B] (AR v1)
Трек 9 извлечено точно (доверие 13) [6C9FBDFD] (AR v1)
Трек 10 извлечено точно (доверие 13) [E9A540F6] (AR v1)
Трек 11 извлечено точно (доверие 13) [93658AF2] (AR v1)
Трек 12 извлечено точно (доверие 13) [C4E3E675] (AR v1)
Трек 13 извлечено точно (доверие 13) [1269CD1D] (AR v1)
Трек 14 извлечено точно (доверие 13) [E896BDAA] (AR v1)
Трек 15 извлечено точно (доверие 13) [4404CCA5] (AR v1)
Трек 16 извлечено точно (доверие 13) [461B0448] (AR v1)
Трек 17 извлечено точно (доверие 13) [1E76640A] (AR v1)
Трек 18 извлечено точно (доверие 13) [26DE3A1E] (AR v1)
Трек 19 извлечено точно (доверие 13) [8B383550] (AR v1)
Трек 20 извлечено точно (доверие 13) [D9ABCA70] (AR v1)

Все треки извлечены точно

Конец отчёта


Музыка / Lossless / Сборники
СКАЧАТЬ БЕСПЛАТНО  [2.6 GB]


07
июн
2013

VA - 80's Dance Story Original Italo Hits [2010, Italo-Disco, MP3]

Формат: MP3, tracks, 320kbps
Год выпуска: 2010
Страна: All World
Жанр: Italo-Disco
Продолжительность: 08:26:39
Описание: Tracklist 1. Gary Low – You Are A Danger (Original Extended Version) 8:46 2. Topo & Roby – Under The Ice (Original Extended Version) 7:12 3. Paul Sharada – Dancin' All The Night (Original Extended Version) 6:19 4. Bo Boss – Tequila (Original Extended Version) 6:25 5. Max Coveri – One More Time (Original Extended Version) 5:06 6. Brand Image – Are You Loving? (Original Extended Version) 6:24 7. Ka-Zan – Give Me Your Heart (Original Extended Version) 6:13 8. Hot Cold – Love ...

11
апр
2013

VA - Dance Hits 90's - Best Remixes Of Hits 70's-80's [2009, Remix, Electronic, Pop, Techno, Synth-Pop, Europop, MP3]

MP3, tracks, 320kbps
Год выпуска: 2009
Страна: Russia
Жанр: Remix, Electronic, Pop, Techno, Synth-Pop, Europop
Продолжительность: 02:37:27
Описание: CD1 01 01. Go Disco - Angie 02. Capitan Cozmo - The Final Coundown 03. Cosmo-Tom - Love Is a Shield 04. DJ Dave - Gangsta's Paradise 05. Deja Vu - Don't Speak 06. DJ Scott - Sweet Dream 07. Ice House - Hey Little Girl 08. L.P.G. - Popcorn Remixes 09. Discosluts - Let's All Chant 10. Largo - Tango Passion 11. Garden Eden - Lemon Tree 12. Erasure - Supernature 13. Falco - Push!push! 14. Magia Della Favora - Cindarella 15. Robin Cook - Comanchero 1 ...

03
ноя
2012

VA - Dance Action (The Best Dance Hits Of 70's & 80's) [1997-1998, Disco,Dance, OGG]

Формат: OGG, tracks, 250-420 kbps
Год выпуска: 1997-1998
Страна: Germany
Жанр: Disco, Dance
Продолжительность: 03:33:58
Описание: CD1 01. Patrick Cowley & Sylvester - Do You Wanna Funk 02. Patrick Hernandez - Born To Be Alive 03. Indeep - Last Night A DJ Saved My Life 04. Mc Miker G & DJ Sven - Holiday Rap 05. M.A.R.R.S. - Pump Up The Volume 06. Imagination - Just An Illusion 07. Evelin Thomas - High Energy 08. Disco Bouzouki - Bouzuki Disco Band 09. Rocco Granta And The Carnations - Marina (Remix'89) 10. Leif Carret - Was Made For Dancin' 11. Al Hudson & The Partners - You Can Do It 12. Fun ...

16
фев
2015

VA - I Love Hits 80's 90's Vol. 2 [2015, Pop, Dance, Rock, MP3]

Формат: MP3, tracks, 320kbps
Год выпуска: 2015
Страна: All World
Жанр: Pop, Dance, Rock
Продолжительность: 05:39:45
Описание: Tracklist 01. Whitney Houston - My Love Is Your Love 02. Jennifer Rush - I Come Undone 03. Mark 'oh - Tell Me 04. Michael Jackson - Bad 05. Hit`N`Hide - Space Invaders 06. Kc And The Sunshine Band - Give It Up 07. Scooter - 4 AM 08. Paula Abdul - Straight Up 09. Magic Affair - Omen Iii 10. Bon Jovi - Livin' On A Prayer 11. Spice Girrls - Wannabe 12. Kaoma - Lambada 13. 2 Unlimited - No Limit 14. Jan Hammer - Crockett's Theme 15. Mauro Picotto - Komodo 16. Rick Astley - ...

16
фев
2015

VA - I Love Hits 80's 90's Vol. 1 [2015, Pop, Dance, Rock, MP3]

Формат: MP3, tracks, 320kbps
Год выпуска: 2015
Страна: All World
Жанр: Pop, Dance, Rock
Продолжительность: 06:30:28
Описание: Tracklist 01. Gala - Freed From Desire 02. UB 40 - Red Red Wine 03. Ice MC - It's A Rainy Day 04. Phil Collins - Another Day In Paradise 05. La Bouche - In Your Life (Previously Unreleased - New Song) 06. Pat Benetar - Love Is A Battlefield 07. MC Hammer - U Can't Touch This 08. Frida - I Know There's Something Going On 09. La Bouche - Be My Lover 10. Phil Collins - In The Air Tonight 11. Bomfunk MC's - We R Atomic 12. Madonna - Like A Prayer 13. Fun Factory - Close To ...

01
сен
2012

VA - Boogie Nights - Dance Hits Of The 70's & 80's (4 CD, Box Set)[1998, Disco, Soul, Synth-pop, MP3]

Формат: MP3, tracks, 320kbps
Год выпуска: 1998
Страна: All World
Жанр: Disco, Soul, Synth-pop
Продолжительность: 05:06:48
Описание: 4 CD, Box Set CD 1 1. Heatwave - Boogie Nights (3:36) 2. Pacific Gas & Electric - Are You Ready (5:46) 3. Sly & The Family Stone - Family Affair (3:01) 4. Titanic - Sultana (4:13) 5. Ballin' Jack - Found A Child (2:47) 6. The O'jays - Back Stabbers (3:05) 7. The Three Degrees - Dirty Ol' Man (3:02) 8. The Isley Brothers - That Lady (Part 1) (3:58) 9. The Trammps - Love Epedemic (4:48) 10. Intruders - She's A Winner (2:23) 11. Billy Paul - Thanks For Saving My Li ...

27
авг
2010

VA - 100 Hits more 80's. 5 CD [2010, Pop, MP3]

Формат: MP3, tracks, 320kbps
Год выпуска: 2010
Страна: All World
Жанр: Pop
Продолжительность: 06:29:13
Описание: CD-1 01 01. ABC - When Smokey Sings 02. Tiffany - I Think We're Alone Now 03. Jason Donovan - Too Many Broken Hearts 04. Swing Out Sister - Breakout 05. Wet Wet Wet - Wishing I Was Lucky 06. The Housemartins - Happy Hour 07. Level 42 - Running in the Family 08. Tears for Fears - Shout 09. Robert Palmer - Addicted to Love 10. Nik Kershaw - Wouldn't It Be Good 11. Dexy's Midnight Runners - Come on Eileen 12. Aswad - Don't Turn Around 13. Musical Youth - Pass the Dutchie 14. Junior - ...

17
сен
2014

VA - World of Dance The 80's [1996, Disco, Synth-Pop, Dance, MP3]

Формат: MP3, tracks, 320kbps
Год выпуска: 1996
Страна: All World
Жанр: Disco, Synth-Pop, Dance
Продолжительность: 01:02:29
Описание: 1. Don't You Want Me - Jody Watley 2. The Right Stuff - Vanessa Williams 3. C'mon And Get My Love - Cathy Dennis 4. You Keep Me Hangin' On - Kim Wilde 5. Lovergirl - Teena Marie 6. Pull Up To The Bumper - Grace Jones 7. The Glamorous Life - Sheila E. 8. In My House - Mary Jane Girls 9. Everybody Dance - Ta Mara And The Seen 10. Word Up - Cameo 11. You Dropped A Bomb On Me - The Gap Band 12. Solid - Ashford & Simpson

25
фев
2013

VA-80's Dance Story Original Italo Hits [2010, Italo-Disco, MP3]

Формат: MP3, tracks, 320kbps
Год выпуска: 2010
Страна: Italy
Жанр: Italo-Disco
Продолжительность: 08:26:39
Описание:
Треклист: Раскрыть 1. Gary Low – You Are A Danger (Original Extended Version) 8:46 2. Topo & Roby – Under The Ice (Original Extended Version) 7:12 3. Paul Sharada – Dancin' All The Night (Original Extended Version) 6:19 4. Bo Boss – Tequila (Original Extended Version) 6:25 5. Max Coveri – One More Time (Original Extended Version) 5:06 6. Brand Image – Are You Loving? (Original Extended Version) 6:24 7. Ka-Zan – Give Me Your Heart (Original Extended Version) 6:13 8. Hot Cold – Lo ...

05
июн
2013

VA - 80's Dance Story Original Italo Hits(Limited Edition) [2012, Italo-Disco, Hi NRG, MP3]

Формат: MP3, tracks, 320kbps
Год выпуска: 2012
Страна: Europe
Жанр: Italo-Disco, Hi NRG
Продолжительность: 01:58:49
Описание: 01. Eugene - Livin' In Your Love 02. Alphatown - Power Of Magic 03. Winners - Freedom 04. Mike Rogers - Just A Story 05. Breakout Crew - Breakout Theme 06. Frank Raja - Born To Be Alive (Original) 07. Brand Image - Are You Loving 08. Max Coveri - One More Time 09. Memory Control One - Basic 10. Lovables - It's Beautiful 11. Garrasco's - Love Sex For Sale 12. Danny Keith - Love Me Again 13. Little Jack Jingle - Toledo Girl (Extended Version) 14. Paul Sharada - Boxers 1 ...

30
ноя
2015

VA - Disco 80's Fresh Hits Remixes [2015, Italo Disco, Eurodisco, MP3]

Формат: MP3, tracks, 320kbps
Год выпуска: 2015
Страна: All World
Жанр: Italo Disco, Eurodisco
Продолжительность: 00:53:21
Описание: 01. K-Barre - Right By The Moon (Special Dance Remix) [03:23] 02. Sweet Connection - Heart To Heart (Special Italo Dance Remix) [03:58] 03. T-Ark - Count On Me (Power Disco Remix) [04:41] 04. Silent Circle - Touch In The Night (Special Remix Version) [05:09] 05. Joy - Touch By Touch (Bass Up Remix) [03:47] 06. Ken Laslo - Hey Hey Guy (Special Long US Remix) [08:00] 07. Stage - Oceans Of Crime (Dance Remix) [03:38] 08. Ivan - Fotonovela (Special Long Remix) ...

22
ноя
2016

VA - Back To The Disco Hits Of The 80's (2CD) [2010, Disco, MP3]

Формат: MP3, tracks, 320kbps
Год выпуска: 2010
Страна: All World
Жанр: Disco
Продолжительность: 02:38:10
Описание: CD1 0101. Silent Circle - Touch In The Night 02. Bad Boys Blue - You're A Woman 03. Joy - Touch By Touch 04. C.C. Catch - Strangers By Night 05. Ottawan - Hands Up 06. Boney M - Daddy Cool 07. Arabesque - Midnight Dancer 08. Lipps Inc - Funkytown 09. Radiorama - Desire 10. Fancy - Flames Of Love 11. F.R. David - Words 12. Savage - Don't Cry Tonight 13. Secret Service - Flash In The Night 14. Pet Shop Boys - It's A Sin 15. Alphaville - Big In Japan 16. Video Kids - Do The Rap 17. ...

25
мая
2014

VA - Retro Disco Hi-Nrg Top 20 Dance Hits 80's [2014, Hi-Nrg, Disco, Italo Disco, MP3]

Формат: MP3, tracks, 224-320 kbps
Год выпуска: 2014
Страна: All World
Жанр: Hi-Nrg, Disco, Italo Disco
Продолжительность: 02:00:35
Описание: Tracklist01. Dead Or Alive - You Spin Me Round (Like A Record) (Performance Mix) 1984 [07:26] 02. Waterfront Home - Take A Chance On Me (12 Inch Mix) 1983 [05:39] 03. Roni Griffith - Desire 1982 [03:53] 04. Hazell Dean - Whatever I Do (Wherever I Go) (Extended Remix) 1984 [06:45] 05. Pamela Nightingale - I'll Never Fall In Love Again (Extended Mix) 1985 [06:30] 06. Fancy - In Shock 1985 [05:41] 07. Jellybean Feat Adele Bertei - Just A Mirage (Extend ...

03
сен
2012

VA - 100 Hits 90's Dance [2010, Pop, Dance, Eurodance, Rock, MP3]

Формат: MP3, tracks, 320kbps
Год выпуска: 2010
Страна: All World
Жанр: Pop, Dance, Eurodance, Rock
Продолжительность: 06:32:48
Описание: 100 Hits 90's Dance 5CDCD1: 01. Grace - Not Over Yet 02. JX - Son Of A Gun 03. Opus III - It's A Fine Day 04. Utah Saints - Something Good 05. Robin S - Show Me Love 06. Kym Sims - Too Blind To See It 07. Baby D - Let Me Be Your Fantasy 08. Billie Ray Martin - Your Loving Arms 09. Corona - The Rhythm Of The Night 10. Everything But The Girl - Missing (The Todd Terry Radio Edit) 11. Nightcrawlers Feat. John Reid - Push The Feeling On 12. Ken Doh - Nakasaki ( ...

18
ноя
2010

VA-100 Hits 90's Dance [2010, Popmusic, MP3]

Формат: MP3, tracks, 160kbps
Год выпуска: 2010
Страна: All World
Жанр: Popmusic
Продолжительность: 06:15:24
Описание: CD-1 01. Grace - Not Over Yet 02. JX - Son Of A Gun 03. Opus III - It's A Fine Day 04. Utah Saints - Something Good 05. Robin S - Show Me Love 06. Kym Sims - Too Blind To See It 07. Baby D - Let Me Be Your Fantasy 08. Billie Ray Martin - Your Loving Arms 09. Corona - The Rhythm Of The Night 10. Everything But The Girl - Missing (The Todd Terry Radio Edit) 11. Nightcrawlers Feat. John Reid - Push The Feeling On 12. Ken Doh - Nakasaki (I Need A Lover Tonight) 13. The Original - I ...