29
апр
2013

The Jimi Hendrix Experience / Jimi Hendrix - 6 Albums Mini LP Blu-spec CD [1967 - 2010, Blues Rock, Hard Rock, Psychedelic Rock, FLAC]

The Jimi Hendrix Experience / Jimi Hendrix - 6 Albums Mini LP Blu-spec CD

Формат: FLAC, (image + .cue), lossless
Год выпуска: 1967 - 2010
Страна: USA
Жанр: Blues Rock, Hard Rock, Psychedelic Rock
Продолжительность: 05:32:34
Описание:

1967 Are You Experienced (SICP-30001) 00
The Jimi Hendrix Experience / Jimi Hendrix - 6 Albums Mini LP Blu-spec CD

01. Foxy Lady
02. Manic Depression
03. Red House
04. Can You See Me
05. Love Or Confusion
06. I Don't Live Today
07. May This Be Love
08. Fire
09. 3rd Stone From The Sun
10. Remember
11. Are You Experienced?

EAC
Exact Audio Copy V1.0 beta 3 from 29. August 2011

EAC extraction logfile from 23. April 2013, 20:52

The Jimi Hendrix Experience / Are You Experienced?

Used drive : PLEXTOR BD-R PX-B950SA Adapter: 6 ID: 0

Read mode : Secure
Utilize accurate stream : Yes
Defeat audio cache : Yes
Make use of C2 pointers : No

Read offset correction : 6
Overread into Lead-In and Lead-Out : No
Fill up missing offset samples with silence : Yes
Delete leading and trailing silent blocks : No
Null samples used in CRC calculations : Yes
Used interface : Native Win32 interface for Win NT & 2000

Used output format : Internal WAV Routines
Sample format : 44.100 Hz; 16 Bit; Stereo

TOC of the extracted CD

Track | Start | Length | Start sector | End sector
---------------------------------------------------------
1 | 0:00.00 | 3:19.07 | 0 | 14931
2 | 3:19.07 | 3:42.17 | 14932 | 31598
3 | 7:01.24 | 3:44.34 | 31599 | 48432
4 | 10:45.58 | 2:32.63 | 48433 | 59895
5 | 13:18.46 | 3:13.19 | 59896 | 74389
6 | 16:31.65 | 3:55.04 | 74390 | 92018
7 | 20:26.69 | 3:11.12 | 92019 | 106355
8 | 23:38.06 | 2:45.07 | 106356 | 118737
9 | 26:23.13 | 6:44.12 | 118738 | 149049
10 | 33:07.25 | 2:48.20 | 149050 | 161669
11 | 35:55.45 | 4:14.42 | 161670 | 180761

Range status and errors

Selected range

Filename C:UsersMeijinDesktopLossless Galaxy ALLexxessJimi Hendrix1967 Are You Experienced (Sony Music Japan Mini LP BSCD2 2013)The Jimi Hendrix Experience - Are You Experienced.wav

Peak level 100.0 %
Extraction speed 6.8 X
Range quality 100.0 %
Test CRC D2C826A2
Copy CRC D2C826A2
Copy OK

No errors occurred

AccurateRip summary

Track 1 not present in database
Track 2 not present in database
Track 3 not present in database
Track 4 not present in database
Track 5 not present in database
Track 6 not present in database
Track 7 not present in database
Track 8 not present in database
Track 9 not present in database
Track 10 not present in database
Track 11 not present in database

None of the tracks are present in the AccurateRip database

End of status report

==== Log checksum 770C92E85D3F21C19196CACC98A66B0155F3F9B06CE206EE0B28B06F0E4C9812 ====

1967 Axis
The Jimi Hendrix Experience / Jimi Hendrix - 6 Albums Mini LP Blu-spec CD
01. Exp
02. Up From The Skies
03. Spanish Castle Magic
04. Wait Until Tomorrow
05. Ain't No Telling
06. Little Wing
07. If 6 Was 9
08. You Got Me Floatin'
09. Castles Made Of Sand
10. She's So Fine
11. One Rainy Wish
12. Little Miss Lover
13. Bold As Love

EAC
Exact Audio Copy V1.0 beta 3 from 29. August 2011

EAC extraction logfile from 23. April 2013, 20:16

The Jimi Hendrix Experience / Axis: Bold As Love

Used drive : PLEXTOR BD-R PX-B950SA Adapter: 6 ID: 0

Read mode : Secure
Utilize accurate stream : Yes
Defeat audio cache : Yes
Make use of C2 pointers : No

Read offset correction : 6
Overread into Lead-In and Lead-Out : No
Fill up missing offset samples with silence : Yes
Delete leading and trailing silent blocks : No
Null samples used in CRC calculations : Yes
Used interface : Native Win32 interface for Win NT & 2000

Used output format : Internal WAV Routines
Sample format : 44.100 Hz; 16 Bit; Stereo

TOC of the extracted CD

Track | Start | Length | Start sector | End sector
---------------------------------------------------------
1 | 0:00.00 | 1:55.15 | 0 | 8639
2 | 1:55.15 | 2:57.71 | 8640 | 21985
3 | 4:53.11 | 3:05.60 | 21986 | 35920
4 | 7:58.71 | 3:02.41 | 35921 | 49611
5 | 11:01.37 | 1:50.10 | 49612 | 57871
6 | 12:51.47 | 2:27.25 | 57872 | 68921
7 | 15:18.72 | 5:34.46 | 68922 | 94017
8 | 20:53.43 | 2:48.12 | 94018 | 106629
9 | 23:41.55 | 2:49.00 | 106630 | 119304
10 | 26:30.55 | 2:40.10 | 119305 | 131314
11 | 29:10.65 | 3:42.71 | 131315 | 148035
12 | 32:53.61 | 2:24.18 | 148036 | 158853
13 | 35:18.04 | 4:11.01 | 158854 | 177679

Range status and errors

Selected range

Filename C:UsersMeijinDesktopLossless Galaxy ALLexxessJimi Hendrix1967 Axis - Bold As Love (Sony Music Japan Mini LP BSCD2 2013)The Jimi Hendrix Experience - Axis - Bold As Love.wav

Peak level 99.9 %
Extraction speed 3.0 X
Range quality 100.0 %
Test CRC 2369B281
Copy CRC 2369B281
Copy OK

No errors occurred

AccurateRip summary

Track 1 accurately ripped (confidence 2) [63C45622] (AR v1)
Track 2 accurately ripped (confidence 2) [F6C9CF2F] (AR v1)
Track 3 accurately ripped (confidence 2) [4E27117F] (AR v1)
Track 4 accurately ripped (confidence 2) [CC9BF8F8] (AR v1)
Track 5 accurately ripped (confidence 2) [F5F88814] (AR v1)
Track 6 accurately ripped (confidence 2) [12C3F019] (AR v1)
Track 7 accurately ripped (confidence 2) [D3EBAE9A] (AR v1)
Track 8 accurately ripped (confidence 2) [20D7DB9D] (AR v1)
Track 9 accurately ripped (confidence 2) [82C77D42] (AR v1)
Track 10 accurately ripped (confidence 2) [0FC21B0B] (AR v1)
Track 11 accurately ripped (confidence 2) [064222B5] (AR v1)
Track 12 accurately ripped (confidence 2) [98CDC070] (AR v1)
Track 13 accurately ripped (confidence 2) [359EF970] (AR v1)

All tracks accurately ripped

End of status report

==== Log checksum 0AE3B8B10399BB5F80080B00A8121099A82D6457BD9D089FC2BED5D5D747BE7F ====

1968 Electric Ladyland (SICP-30003) 01
The Jimi Hendrix Experience / Jimi Hendrix - 6 Albums Mini LP Blu-spec CD
01. ...And The Gods Made Love
02. Have You Ever Been (To Electric Ladyland)
03. Crosstown Traffic
04. Voodoo Chile
05. Little Miss Strange
06. Long Hot Summer Night
07. Come On (Let The Good Times Roll)
08. Gypsy Eyes
09. Burning Of The Midnight Lamp
10. Rainy Day, Dream Away
11. 1983...(A Merman I Should Turn To Be)
12. Moon, Turn The Tides...Gently Gently Away
13. Still Raining, Still Dreaming
14. House Burning Down
15. All Along The Watchtower
16. Voodoo Child (Slight Return)

EAC
Exact Audio Copy V1.0 beta 3 from 29. August 2011

EAC extraction logfile from 21. April 2013, 21:54

Jimi Hendrix / Electric Ladyland

Used drive : PLEXTOR BD-R PX-B950SA Adapter: 6 ID: 0

Read mode : Secure
Utilize accurate stream : Yes
Defeat audio cache : Yes
Make use of C2 pointers : No

Read offset correction : 6
Overread into Lead-In and Lead-Out : No
Fill up missing offset samples with silence : Yes
Delete leading and trailing silent blocks : No
Null samples used in CRC calculations : Yes
Used interface : Native Win32 interface for Win NT & 2000

Used output format : Internal WAV Routines
Sample format : 44.100 Hz; 16 Bit; Stereo

TOC of the extracted CD

Track | Start | Length | Start sector | End sector
---------------------------------------------------------
1 | 0:00.00 | 1:22.47 | 0 | 6196
2 | 1:22.47 | 2:10.03 | 6197 | 15949
3 | 3:32.50 | 2:26.43 | 15950 | 26942
4 | 5:59.18 | 14:59.70 | 26943 | 94437
5 | 20:59.13 | 2:52.15 | 94438 | 107352
6 | 23:51.28 | 3:27.57 | 107353 | 122934
7 | 27:19.10 | 4:09.28 | 122935 | 141637
8 | 31:28.38 | 3:43.51 | 141638 | 158413
9 | 35:12.14 | 3:39.46 | 158414 | 174884
10 | 38:51.60 | 3:42.05 | 174885 | 191539
11 | 42:33.65 | 13:39.47 | 191540 | 253011
12 | 56:13.37 | 1:01.55 | 253012 | 257641
13 | 57:15.17 | 4:25.47 | 257642 | 277563
14 | 61:40.64 | 4:32.63 | 277564 | 298026
15 | 66:13.52 | 4:00.60 | 298027 | 316086
16 | 70:14.37 | 5:13.28 | 316087 | 339589

Range status and errors

Selected range

Filename C:UsersMeijinDesktopLossless Galaxy ALLexxessJimi Hendrix1968 Electric Ladyland (Sony Music Japan Mini LP BSCD2 2013)Jimi Hendrix - Electric Ladyland.wav

Peak level 99.3 %
Extraction speed 8.7 X
Range quality 100.0 %
Test CRC 709A17C6
Copy CRC 709A17C6
Copy OK

No errors occurred

AccurateRip summary

Track 1 not present in database
Track 2 not present in database
Track 3 not present in database
Track 4 not present in database
Track 5 not present in database
Track 6 not present in database
Track 7 not present in database
Track 8 not present in database
Track 9 not present in database
Track 10 not present in database
Track 11 not present in database
Track 12 not present in database
Track 13 not present in database
Track 14 not present in database
Track 15 accurately ripped (confidence 2) (AR v1)
Track 16 accurately ripped (confidence 2) [C9F270FF] (AR v1)

2 track(s) accurately ripped
14 track(s) not present in the AccurateRip database

Some tracks could not be verified as accurate

End of status report

==== Log checksum 733DA20B7AC8E7B771D659F138B98E2358404B5510DF4DF08F20F389D3A9F57C ====

1970 Band Of Gypsys (SICP-30004) 00
The Jimi Hendrix Experience / Jimi Hendrix - 6 Albums Mini LP Blu-spec CD
1. Who Knows
2. Machine Gun
3. Changes
4. Power To Love
5. Message To Love
6. We Gotta Live Together

EAC
Exact Audio Copy V1.0 beta 3 from 29. August 2011

EAC extraction logfile from 21. April 2013, 21:16

Jimi Hendrix / Band Of Gypsys

Used drive : PLEXTOR BD-R PX-B950SA Adapter: 6 ID: 0

Read mode : Secure
Utilize accurate stream : Yes
Defeat audio cache : Yes
Make use of C2 pointers : No

Read offset correction : 6
Overread into Lead-In and Lead-Out : No
Fill up missing offset samples with silence : Yes
Delete leading and trailing silent blocks : No
Null samples used in CRC calculations : Yes
Used interface : Native Win32 interface for Win NT & 2000

Used output format : Internal WAV Routines
Sample format : 44.100 Hz; 16 Bit; Stereo

TOC of the extracted CD

Track | Start | Length | Start sector | End sector
---------------------------------------------------------
1 | 0:00.00 | 9:38.57 | 0 | 43406
2 | 9:38.57 | 12:40.71 | 43407 | 100477
3 | 22:19.53 | 5:14.10 | 100478 | 124037
4 | 27:33.63 | 6:58.21 | 124038 | 155408
5 | 34:32.09 | 5:25.60 | 155409 | 179843
6 | 39:57.69 | 5:50.02 | 179844 | 206095

Range status and errors

Selected range

Filename C:UsersMeijinDesktopLossless Galaxy ALLexxessJimi Hendrix1970 Band Of Gypsys (Sony Music Japan Mini LP BSCD2 2013)Jimi Hendrix - Band Of Gypsys.wav

Peak level 100.0 %
Extraction speed 6.9 X
Range quality 99.9 %
Test CRC 6E8E7355
Copy CRC 6E8E7355
Copy OK

No errors occurred

AccurateRip summary

Track 1 accurately ripped (confidence 4) [9DE336BF] (AR v1)
Track 2 accurately ripped (confidence 4) [08D852E1] (AR v1)
Track 3 accurately ripped (confidence 4) [782BBAEE] (AR v1)
Track 4 accurately ripped (confidence 4) [3972DFBD] (AR v1)
Track 5 accurately ripped (confidence 4) [BACE08C9] (AR v1)
Track 6 accurately ripped (confidence 4) [072BB169] (AR v1)

All tracks accurately ripped

End of status report

==== Log checksum A70ED96F86FBC9B91E96AF942362BDA8F59D884677DCE5811E9F6920825C39DD ====

1997 First Rays Of The New Rising Sun (SICP-30002) 01
The Jimi Hendrix Experience / Jimi Hendrix - 6 Albums Mini LP Blu-spec CD
01. Freedom
02. Izabella
03. Night Bird Flying
04. Angel
05. Room Full Of Mirrors
06. Dolly Dagger
07. Ezy Ryder
08. Drifting
09. Beginnings
10. Stepping Stone
11. My Friend
12. Straight Ahead
13. Hey Baby (New Rising Sun)
14. Earth Blues
15. Astro Man
16. In From The Storm
17. Belly Button Window

EAC
Exact Audio Copy V1.0 beta 3 from 29. August 2011

EAC extraction logfile from 21. April 2013, 18:19

Jimi Hendrix / First Rays Of The New Rising Sun

Used drive : PLEXTOR BD-R PX-B950SA Adapter: 6 ID: 0

Read mode : Secure
Utilize accurate stream : Yes
Defeat audio cache : Yes
Make use of C2 pointers : No

Read offset correction : 6
Overread into Lead-In and Lead-Out : No
Fill up missing offset samples with silence : Yes
Delete leading and trailing silent blocks : No
Null samples used in CRC calculations : Yes
Used interface : Native Win32 interface for Win NT & 2000

Used output format : Internal WAV Routines
Sample format : 44.100 Hz; 16 Bit; Stereo

TOC of the extracted CD

Track | Start | Length | Start sector | End sector
---------------------------------------------------------
1 | 0:00.00 | 3:26.42 | 0 | 15491
2 | 3:26.42 | 2:50.07 | 15492 | 28248
3 | 6:16.49 | 3:50.65 | 28249 | 45563
4 | 10:07.39 | 4:21.71 | 45564 | 65209
5 | 14:29.35 | 3:21.07 | 65210 | 80291
6 | 17:50.42 | 4:44.20 | 80292 | 101611
7 | 22:34.62 | 4:09.62 | 101612 | 120348
8 | 26:44.49 | 3:48.68 | 120349 | 137516
9 | 30:33.42 | 4:12.68 | 137517 | 156484
10 | 34:46.35 | 4:12.52 | 156485 | 175436
11 | 38:59.12 | 4:36.14 | 175437 | 196150
12 | 43:35.26 | 4:42.69 | 196151 | 217369
13 | 48:18.20 | 6:04.18 | 217370 | 244687
14 | 54:22.38 | 4:21.10 | 244688 | 264272
15 | 58:43.48 | 3:34.68 | 264273 | 280390
16 | 62:18.41 | 3:41.07 | 280391 | 296972
17 | 65:59.48 | 3:36.19 | 296973 | 313191

Range status and errors

Selected range

Filename C:UsersMeijinDesktopLossless Galaxy ALLexxessJimi Hendrix1997 First Rays Of The New Rising Sun (Sony Music Japan Mini LP BSCD2 2013)Jimi Hendrix - First Rays Of The New Rising Sun.wav

Peak level 99.3 %
Extraction speed 8.5 X
Range quality 99.9 %
Test CRC FE0C52DE
Copy CRC FE0C52DE
Copy OK

No errors occurred

AccurateRip summary

Track 1 accurately ripped (confidence 3) [9E6CB2D9] (AR v1)
Track 2 accurately ripped (confidence 3) [BC5EFB2F] (AR v1)
Track 3 accurately ripped (confidence 3) [9077ECBA] (AR v1)
Track 4 accurately ripped (confidence 3) [12DA52DB] (AR v1)
Track 5 accurately ripped (confidence 3) [8F9B399E] (AR v1)
Track 6 accurately ripped (confidence 3) [8FCEA03D] (AR v1)
Track 7 accurately ripped (confidence 3) [FA21AE2D] (AR v1)
Track 8 accurately ripped (confidence 3) [888099E7] (AR v1)
Track 9 accurately ripped (confidence 3) [5EE7734E] (AR v1)
Track 10 accurately ripped (confidence 3) (AR v1)
Track 11 accurately ripped (confidence 3) [8E3EC87D] (AR v1)
Track 12 accurately ripped (confidence 3) (AR v1)
Track 13 accurately ripped (confidence 3) [E514DAA9] (AR v1)
Track 14 accurately ripped (confidence 3) [4F72AE63] (AR v1)
Track 15 accurately ripped (confidence 3) [6EC2893A] (AR v1)
Track 16 accurately ripped (confidence 3) [81F44FFD] (AR v1)
Track 17 accurately ripped (confidence 3) [6FAF58F1] (AR v1)

All tracks accurately ripped

End of status report

==== Log checksum 2CD4E6D4B1788A77EA84ECB4D4565BE898035302045BF30CE9542932E8EA715C ====

2010 Valleys Of Neptune (SICP-30006) 01
The Jimi Hendrix Experience / Jimi Hendrix - 6 Albums Mini LP Blu-spec CD
01. Stone Free
02. Valleys Of Neptune
03. Bleeding Heart
04. Hear My Train A Comin'
05. Mr. Bad Luck
06. Sunshine Of Your Love
07. Lover Man
08. Ships Passing Through The Night
09. Fire
10. Red House
11. Lullaby For The Summer
12. Crying Blue Rain

EAC
Exact Audio Copy V1.0 beta 3 from 29. August 2011

EAC extraction logfile from 21. April 2013, 17:42

Jimi Hendrix / Valleys Of Neptune

Used drive : PLEXTOR BD-R PX-B950SA Adapter: 6 ID: 0

Read mode : Secure
Utilize accurate stream : Yes
Defeat audio cache : Yes
Make use of C2 pointers : No

Read offset correction : 6
Overread into Lead-In and Lead-Out : No
Fill up missing offset samples with silence : Yes
Delete leading and trailing silent blocks : No
Null samples used in CRC calculations : Yes
Used interface : Native Win32 interface for Win NT & 2000

Used output format : Internal WAV Routines
Sample format : 44.100 Hz; 16 Bit; Stereo

TOC of the extracted CD

Track | Start | Length | Start sector | End sector
---------------------------------------------------------
1 | 0:00.00 | 3:46.51 | 0 | 17000
2 | 3:46.51 | 4:04.10 | 17001 | 35310
3 | 7:50.61 | 6:23.19 | 35311 | 64054
4 | 14:14.05 | 7:32.00 | 64055 | 97954
5 | 21:46.05 | 2:58.09 | 97955 | 111313
6 | 24:44.14 | 6:47.25 | 111314 | 141863
7 | 31:31.39 | 4:17.38 | 141864 | 161176
8 | 35:49.02 | 5:52.09 | 161177 | 187585
9 | 41:41.11 | 3:12.15 | 187586 | 202000
10 | 44:53.26 | 8:22.61 | 202001 | 239711
11 | 53:16.12 | 3:48.66 | 239712 | 256877
12 | 57:05.03 | 4:57.03 | 256878 | 279155

Range status and errors

Selected range

Filename C:UsersMeijinDesktopLossless Galaxy ALLexxessJimi Hendrix2010 Valleys Of Neptune (Sony Music Japan Mini LP BSCD2 2013)Jimi Hendrix - Valleys Of Neptune.wav

Peak level 100.0 %
Extraction speed 8.2 X
Range quality 99.9 %
Test CRC B4B59E89
Copy CRC B4B59E89
Copy OK

No errors occurred

AccurateRip summary

Track 1 accurately ripped (confidence 2) [37FCB664] (AR v2)
Track 2 accurately ripped (confidence 2) [9482944C] (AR v2)
Track 3 accurately ripped (confidence 2) [C04A8667] (AR v2)
Track 4 accurately ripped (confidence 2) (AR v2)
Track 5 accurately ripped (confidence 2) [749CB03D] (AR v2)
Track 6 accurately ripped (confidence 2) [7594D2AB] (AR v2)
Track 7 accurately ripped (confidence 2) [11181394] (AR v2)
Track 8 accurately ripped (confidence 2) [3A0DE38A] (AR v2)
Track 9 accurately ripped (confidence 2) [400250A1] (AR v2)
Track 10 accurately ripped (confidence 2) [E58287E7] (AR v2)
Track 11 accurately ripped (confidence 2) [8453918A] (AR v2)
Track 12 accurately ripped (confidence 6) [C622B678] (AR v1)

All tracks accurately ripped

End of status report

==== Log checksum DEEAB95AD9B967D2E49936984CACE0867105938D3F308522E6080F429A8D4F73 ====

Доп. информация:

Страна-производитель диска: Japan

Год издания диска: 2013

Издатель (лейбл): Sony Music

Номер по каталогу: SICP-30001~6
Музыка / Lossless / Рок, Панк, Метал, Альтернатива.
СКАЧАТЬ БЕСПЛАТНО  [4.6 GB]


26
мар
2008

Jimi Hendrix (discography, 1967 - 2000, including live and compilation albums - 23 CD) [mp3, 192]

Страна: UK
Жанр: hard rock, acid rock, blues-rock, psychedelic rock
Продолжительность: 22h 13m 40s
Формат: MP3
Битрейт аудио: 192Kbps
Трэклист: 1967 - Are You Experienced 1967 - Axis: Bold As Love 1968 - Electric Ladyland 1968 - Live At Winterland 1968 - Bleeding Heart (Live in New York) 1970 - Band Of Gypsies 1971 - Isle Of Wight 1971 - The Cry Of Love 1972 - War Heroes 1994 - Blues 1994 - Woodstock 1995 - Supersession 1995 - Voodoo Soup 1997 - First Rays Of The New Rising Sun 1997 - South Saturn Delta 1998 - BBC Sessions (2CD) 1999 - Live At The Fillmore East (2CD) 2000 - The Jimi Hendrix Ex ...

22
мая
2013

The Jimi Hendrix Experience - Are You Experienced [1997, Psychedelic Rock, Hard Rock, Blues Rock, FLAC]

Формат: FLAC, (image + .cue), lossless
Год выпуска: 1997
Страна: USA
Жанр: Psychedelic Rock, Hard Rock, Blues Rock
Продолжительность: 01:00:17
Описание:
Трeклист: 01. Foxy Lady [03:19] 02. Manic Depression [03:42] 03. Red House [03:44] 04. Can You See Me [02:32] 05. Love or Confusion [03:13] 06. I Don't Live Today [03:55] 07. May This Be Love [03:11] 08. Fire [02:45] 09. Third Stone From The Sun [06:44] 10. Remember [02:48] 11. Are You Experienced? [04:14] 12. Hey Joe [03:30] 13. Stone Free [03:36] 14. Purple Haze [02:51] 15. 51st Anniversary [03:16] 16. The Wind Cries Mary [03:20] 17. Highw ...

20
мая
2013

The Jimi Hendrix Experience - Are You Experienced [1997, Psychedelic Rock, Hard Rock, Blues Rock, MP3]

Формат: MP3, tracks, 320kbps
Год выпуска: 1997
Страна: USA
Жанр: Psychedelic Rock, Hard Rock, Blues Rock
Продолжительность: 01:00:17
Описание: 01. Foxy Lady [03:19] 02. Manic Depression [03:42] 03. Red House [03:44] 04. Can You See Me [02:32] 05. Love or Confusion [03:13] 06. I Don't Live Today [03:55] 07. May This Be Love [03:11] 08. Fire [02:45] 09. Third Stone From The Sun [06:44] 10. Remember [02:48] 11. Are You Experienced? [04:14] 12. Hey Joe [03:30] 13. Stone Free [03:36] 14. Purple Haze [02:51] 15. 51st Anniversary [03:16] 16. The Wind Cries Mary [03:20] 17. Highway Chile [03:32] Доп ...

13
мая
2012

Earth Wind Fire - 15 Albums Japan Mini LP Blu-spec CD, DSD Mastering [2012, Soul, R B, Funk, Jazz Fusion, Rock, FLAC]

Формат: FLAC, (image + .cue), lossless
Год выпуска: 2012
Страна: USA
Жанр: Soul, R&B, Funk, Jazz Fusion, Rock
Продолжительность: 10:13:37
Описание: 1972 Last Days And Time 00 01. Time Is On Your Side 02. Interlude #1 03. They Don't See 04. Interlude #2 05. Make It With You 06. Power 07. Remember The Children 08. Interlude #3 09. Where Have All The Flowers Gone 10. I'd Rather Have You 11. Mom EACExact Audio Copy V1.0 beta 3 from 29. August 2011 EAC extraction logfile from 14. April 2012, 20:12 Earth Wind & Fire / Last Days And Times Used drive : HL-DT-STDVDRAM GSA-H60N Adapter: 2 ID: 0 Rea ...

01
июн
2010

Jimi Hendrix Experience - The Live At Monterey [ 2007, Blues-Rock, Rithm and Blues, DVD9]

Формат: DVD9, DVD Video, MPEG2, AC3, DTS
Концерт: Live At Monterey © 1967
Жанр: Blues-Rock, Rithm and Blues
Продолжительность: 01:37:38 Год выпуска DVD: 2007
Видео: MPEG Video(Version 2)~5456 (7500) Кбит/сек.,720*480 (4:3)~29,970 кадр/сек.,NTSC,
Бит/Пиксели: 0.527
Аудио-1: AC-3(Audio Coding 3)~192 Кбит/сек., ~48,0 КГц., 2 канала: L R
Аудио-2: AC-3(Audio Coding 3)~ 448 Кбит/сек.,~48,0 КГц., 6 каналов: Front: L C R, Surround: L R, LFE
Аудио-3: DTS(Digital Theater Systems)~755 Кбит/сек.,~48,0 КГц., 6 каналов: Front: L C R, Surround: L R, LFE
Доп.информация: Легендарное выступление гитарного гения ...

25
апр
2010

Jimi Hendrix Experience - Electric Ladyland [1968, Blues Rock, Experemental Rock, Psychedelic, FLAC]

Формат: FLAC, tracks, lossless
Год выпуска: 1968
Страна: USA
Жанр: Blues Rock, Experemental Rock, Psychedelic
Продолжительность: 01:15:11
Описание: 01. ...And The Gods Made Love (1:22) 02. Have You Ever Been (To Electric Ladyland) (2:09) 03. Crosstown Traffic (2:25) 04. Voodoo Chile (15:01) 05. Little Miss Strange (2:50) 06. Long Hot Summer Night (3:26) 07. Come On (Let The Good Times Roll) (4:09) 08. Gypsy Eyes (3:43) 09. Burning Of The Midnight Lamp (3:38 10. A Rainy Day, Dream Away (3:40) 11. 1983...(A Merman I Should Turn To Be) (5:48 12. Moon, Turn The Tides...Gently Gently Away (8:53) ...

16
фев
2015

The Jimi Hendrix Experience - Electric Ladyland (2CD) [1984, Hard Psychedelc, Blues Rock, MP3]

Формат: MP3, tracks, 320kbps
Год выпуска: 1984
Страна: USA
Жанр: Hard Psychedelc, Blues Rock
Продолжительность: 01:15:31
Описание: CD1 [00:39:14] 1. And The Gods Made Love 2. Have You Ever Been (To Electric Ladyland) 3. Cross Town Traffic 4. Voodoo Chile 5. Still Raining, Still Dreaming 6. House Burning Down 7. All Along The Watchtower 8. Voodoo Chile (Slight Return) CD2 [00:36:17] 1. Little Miss Strange 2. Long Hot Summer Night 3. Come On (Part 1) 4. Gipsy Eyes 5. The Burning Of The Midnight Lamp 6. Rainy Day, Dream Away 7. 1983... (A Merman I Should Turn To Be) 8. Moon, Turn The Tides... ...

04
ноя
2009

Jimi Hendrix - Discography (13 Albums) [1967 - 2000, Alternative, Blues, Rock, Hard Rock, APE]

Формат: APE, (image + .cue), lossless
Год выпуска: 1967 - 2000
Страна: USA
Жанр: Alternative, Blues, Rock, Hard Rock
Продолжительность: 18:42:51
Альбомы: 1967 - Are You Experienced?
Трэклист: 01. Purple Haze 02:51 02. Manic Depression 03:42 03. Hey Joe 03:30 04. Love Or Confusion 03:13 05. May This Be Love 03:10 06. I Don't Live Today 03:55 07. The Wind Cries Mary 03:21 08. Fire 02:44 09. Third Stone From The Sun 06:44 10. Foxey Lady 03:19 11. Are You Experienced? 04:16 12. Stone Free 03:36 13. 51st Anniversary 03:16 14. Highway Chile 03:33 15. Can You See Me 02:33 16. Remember 02:49 17 ...

13
ноя
2018

The Jimi Hendrix Experience - Electric Ladyland (Deluxe Edition, 3CD) (1968) [2018, Blues Rock, Hard Rock, Psychedelic Rock, MP3]

Формат: MP3, tracks, 320kbps
Год выпуска: 2018
Страна: England
Жанр: Blues Rock, Hard Rock, Psychedelic Rock
Продолжительность: 03:42:38
Описание: ТреклистCD1 - Electric Ladyland (newly remastered) 01. … And the Gods Made Love 02. Have You Ever Been (To Electric Ladyland) 03. Crosstown Traffic 04. Voodoo Chile 05. Little Miss Strange 06. Long Hot Summer Night 07. Come On (Part I) 08. Gypsy Eyes 09. Burning of the Midnight Lamp 10. Rainy Day, Dream Away 11. 1983…(A Merman I Should Turn To Be) 12. Moon, Turn the Tide…Gently Gently Away 13. Still Raining, Still Dreaming 14. House Burning Down 15. ...

17
мая
2013

Journey - 9 Albums (Mini LP Blu-spec CD2 Sony Music Japan) [1978-2013, Rock, AOR, Arena Rock, FLAC]

Формат: FLAC, (image + .cue), lossless
Год выпуска: 1978-2013
Страна: USA
Жанр: Rock, AOR, Arena Rock
Продолжительность: 09:34:49
Описание: 1978 Infinity 00 01. Lights 02. Feeling That Way 03. Anytime 04. Lă Do Dā 05. Patiently 06. Wheel In The Sky 07. Somethin' To Hide 08. Winds Of March 09. Can Do 10. Opened The Door EACExact Audio Copy V1.0 beta 3 from 29. August 2011 EAC extraction logfile from 3. May 2013, 21:50 Journey / Infinity BSCD2 Used drive : PLEXTOR BD-R PX-B950SA Adapter: 6 ID: 0 Read mode : Secure Utilize accurate stream : Yes Defeat audio cache : Yes Make use of ...

24
фев
2011

Jimi Hendrix - Sony Music Japan 2010 Reissues (6 Editions) 8CD [1967-1970, Rock, Hard Rock, FLAC]

Формат: FLAC, (image + .cue), lossless
Год выпуска: 1967-1970
Страна: USA
Жанр: Rock, Hard Rock
Продолжительность: 07:09:28
Описание: The Jimi Hendrix Experience - 1967 - Are You Experienced? 01
Трэклист: 01. Foxy Lady 03:19 02. Manic Depression 03:42 03. Red House 03:44 04. Can You See Me 02:33 05. Love Or Confusion 03:13 06. I Don't Live Today 03:55 07. May This Be Love 03:11 08. Fire 02:45 09. 3rd Stone From The Sun 06:44 10. Remember 02:49 11. Are You Experienced 04:14 12. Hey Joe 03:30 13. Stone Free 03:36 14. Purple Haze 02:52 15. 51st Anniversary 03:16 16. The Wind Cries Mary 03:21 17 ...

15
окт
2011

Jimi Hendrix - Blues [1994, Blues-Rock, FLAC]

Формат: FLAC, (image + .cue), lossless
Год выпуска: 1994
Страна: USA
Жанр: Blues-Rock
Продолжительность: 01:12:27
Описание:
Трeклист: 01. Hear My Train A Comin' (Acoustic) 03:06 02. Born Under A Bad Sign 07:38 03. Red House 03:43 04. Catfish Blues 07:49 05. Voodoo Chile Blues 08:48 06. Mannish Boy 05:22 07. Once I Had A Woman 07:50 08. Bleeding Heart 03:27 09. Jelly 292 06:25 10. Electric Church Red House 06:13 11. Hear My Train A Comin' (Electric) 12:09
Доп. информация: PersonnelJimi Hendrix - guitar, vocals, 12-string guitar Buddy Miles - drums Steve Winwood - organ Lee Michaels - organ ...

11
апр
2017

Jimi Hendrix - All The Hits [1992, Rock, Psychedelic Rock, Classic Rock, FLAC]

Формат: FLAC, (image + .cue), lossless
Год выпуска: 1992
Страна: USA
Жанр: Rock, Psychedelic Rock, Classic Rock
Продолжительность: 00:50:47
Описание: 01. Let Me Light Your Fire 2:33 02. Highway Chile 3:25 03. Hey Joe 3:21 04. Voodoo Chile 5:09 05. Purple Haze 2:43 06. Long Hot Summer Night 3:23 07. The Wind Cries Mary 3:15 08. Foxy Lady 3:10 09. Remember 2:43 10. Gypsy Eyes 3:41 11. All Along The Watchtower 3:57 12. Burning Of The Midnight Lamp 3:35 13. Stone Free 3:32 14. Manic Depression 3:33 15. Cross Town Traffic 2:13 16. 51st Anniversary 3:14
Доп. информация: eac Exact Audio Copy V1.0 b ...

26
фев
2008

Jimi Hendrix -- Videos -- megapack

Исполнитель: Jimi Hendrix
Песня: Videos
Страна: USA
Год выпуска: many
Продолжительность: many
Жанр: Clips & Live
Язык: English
Описание: Краткая биография JIMI HENDRIX
Место рождения: г. Сиэтл, штат Вашингтон.
Родители: Джеймс Аллен "Эл" Хендрикс и Люсиль Джетер (развелись 17 декабря 1951, Люсиль умерла 2 февраля 1958). Братья и сёстры: Леон Моррис Хендрикс, Джозеф Хендрикс, Кейти Айра Хендрикс, Памела Маргэрит Хендрикс, Джени Л. Хендрикс (Кейти и Памела - дочери второй жены Эла, Джени - приёмная дочь).
Образование: учился в средней школе Гарфилд (бросил 31 октября 1960).
Армейская служба: ...

06
фев
2015

Jimi Hendrix - The Cry Of Love [2014, Psychedelic Rock, Blues Rock, MP3]

Формат: MP3, tracks, 320kbps
Год выпуска: 2014
Страна: USA
Жанр: Psychedelic Rock, Blues Rock
Продолжительность: 00:40:20
Описание: 01. Freedom 02. Drifting 03. Ezy Ryder 04. Night Bird Flying 05. My Friend 06. Straight Ahead 07. Astro Man 08. Angel 09. In From The Storm 10. Belly Button Window
Доп. информация: Ремастер альбома 1971 года. В альбом вошли записи Хендрикса, сделанные незадолго до его смерти. Рип Lossless (WEB)