14
янв
2016

Showaddywaddy - 100 Hits Legends (5CD Box Set) [2011, Rock, Rock Roll, FLAC]

Showaddywaddy - 100 Hits Legends (5CD Box Set)
Формат: FLAC, (image + .cue), lossless
Год выпуска: 2011
Страна: UK
Жанр: Rock, Rock & Roll
Продолжительность: 04:46:31
Описание:
CD 1 01
01. Under The Moon Of Love 03:12
02. (You've Got) Personality 03:23
03. Sea Cruise 03:03
04. That's Alright With Me 03:21
05. That's Rock 'N' Roll 03:00
06. Twist And Shout 02:29
07. Remember Then 02:56
08. I Wonder Why 03:00
09. When 02:12
10. Dancin' Party 03:15
11. '68 Teenage Queen 02:56
12. Hey Rock And Roll 03:17
13. One Of These Days 03:35
14. You Got What It Takes 02:36
15. Trocadero 02:30
16. Heavenly 03:15
17. Bony Moronie 02:52
18. The Latest Craze 02:43
19. Three Stars / Rave On 02:58
20. Go Johnny Go 02:42

eac
Exact Audio Copy V1.0 beta 4 from 7. December 2014

Отчёт EAC об извлечении, выполненном 8. января 2016, 16:02

Showaddywaddy / 100 Hits Legends (CD1)

Дисковод: ASUS DRW-24F1ST a Adapter: 1 ID: 0

Режим чтения : Достоверность
Использование точного потока : Да
Отключение кэша аудио : Да
Использование указателей C2 : Нет

Коррекция смещения при чтении : 6
Способность читать области Lead-in и Lead-out : Нет
Заполнение пропущенных сэмплов тишиной : Да
Удаление блоков с тишиной в начале и конце : Нет
При вычислениях CRC использовались нулевые сэмплы : Да
Интерфейс : Встроенный Win32-интерфейс для Win NT/2000

Выходной формат : Пользовательский кодировщик
Выбранный битрейт : 128 kBit/s
Качество : Высокий
Добавление ID3-тега : Нет
Утилита сжатия : C:Program FilesExact Audio CopyFlacflac.exe
Дополнительные параметры : -V -8 -T "Date=%year%" -T "Genre=%genre%" %source%

TOC извлечённого CD

Трек | Старт | Длительность | Начальный сектор | Конечный сектор
---------------------------------------------------------------------
1 | 0:00.00 | 3:12.12 | 0 | 14411
2 | 3:12.12 | 3:23.14 | 14412 | 29650
3 | 6:35.26 | 3:03.31 | 29651 | 43406
4 | 9:38.57 | 3:20.67 | 43407 | 58473
5 | 12:59.49 | 2:59.50 | 58474 | 71948
6 | 15:59.24 | 2:29.22 | 71949 | 83145
7 | 18:28.46 | 2:56.34 | 83146 | 96379
8 | 21:25.05 | 3:00.06 | 96380 | 109885
9 | 24:25.11 | 2:11.43 | 109886 | 119753
10 | 26:36.54 | 3:15.28 | 119754 | 134406
11 | 29:52.07 | 2:55.74 | 134407 | 147605
12 | 32:48.06 | 3:17.03 | 147606 | 162383
13 | 36:05.09 | 3:34.46 | 162384 | 178479
14 | 39:39.55 | 2:35.39 | 178480 | 190143
15 | 42:15.19 | 2:29.41 | 190144 | 201359
16 | 44:44.60 | 3:15.19 | 201360 | 216003
17 | 48:00.04 | 2:52.04 | 216004 | 228907
18 | 50:52.08 | 2:43.23 | 228908 | 241155
19 | 53:35.31 | 2:57.64 | 241156 | 254494
20 | 56:33.20 | 2:41.42 | 254495 | 266611

Характеристики диапазона извлечения и сообщения об ошибках

Выбранный диапазон

Имя файла C:UsersErikDesktopНовая папкаShow100 Hits Legends (CD1).wav

Пиковый уровень 99.4 %
Скорость извлечения 7.4 X
Качество диапазона 100.0 %
CRC теста E89589AC
CRC копии E89589AC
Копирование... OK

Ошибок не произошло

AccurateRip: сводка

Трек 1 : извлечено точно (доверие 2) [66D06EC7] (AR v2)
Трек 2 : извлечено точно (доверие 2) [5D4C942B] (AR v2)
Трек 3 : извлечено точно (доверие 2) [7474BCB4] (AR v2)
Трек 4 : извлечено точно (доверие 2) [AA4613FB] (AR v2)
Трек 5 : извлечено точно (доверие 2) [A60D3A6D] (AR v2)
Трек 6 : извлечено точно (доверие 2) [05ED13E9] (AR v2)
Трек 7 : извлечено точно (доверие 2) [A461EDCD] (AR v2)
Трек 8 : извлечено точно (доверие 2) [977C89A5] (AR v2)
Трек 9 : извлечено точно (доверие 2) [7239314A] (AR v2)
Трек 10 : извлечено точно (доверие 2) [F5B84F0B] (AR v2)
Трек 11 : извлечено точно (доверие 2) [24B3AA39] (AR v2)
Трек 12 : извлечено точно (доверие 2) [A29BC8C6] (AR v2)
Трек 13 : извлечено точно (доверие 2) [E07CED2E] (AR v2)
Трек 14 : извлечено точно (доверие 2) [D7015874] (AR v2)
Трек 15 : извлечено точно (доверие 2) [6B116394] (AR v2)
Трек 16 : извлечено точно (доверие 2) (AR v2)
Трек 17 : извлечено точно (доверие 2) [25BABE4E] (AR v2)
Трек 18 : извлечено точно (доверие 2) [809F4EDD] (AR v2)
Трек 19 : извлечено точно (доверие 2) [560659BE] (AR v2)
Трек 20 : извлечено точно (доверие 2) [A89BEF12] (AR v2)

Все треки извлечены точно

Конец отчёта

---- CUETools DB Plugin V2.1.4

[CTDB TOCID: 8EtWLaSZ6Z8LWWgXZ9NRlzvXzds-] found
Submit result: already submitted
Track | CTDB Status
1 | (4/4) Accurately ripped
2 | (4/4) Accurately ripped
3 | (4/4) Accurately ripped
4 | (4/4) Accurately ripped
5 | (4/4) Accurately ripped
6 | (4/4) Accurately ripped
7 | (4/4) Accurately ripped
8 | (4/4) Accurately ripped
9 | (4/4) Accurately ripped
10 | (4/4) Accurately ripped
11 | (4/4) Accurately ripped
12 | (4/4) Accurately ripped
13 | (4/4) Accurately ripped
14 | (4/4) Accurately ripped
15 | (4/4) Accurately ripped
16 | (4/4) Accurately ripped
17 | (4/4) Accurately ripped
18 | (4/4) Accurately ripped
19 | (4/4) Accurately ripped
20 | (4/4) Accurately ripped

==== Контрольная сумма отчёта 339C78571AD65A7D11B649159E219FC8029482CDF285537D88997C16E64F0BC0 ====
CD 2 00
01. Three Steps To Heaven 02:58
02. Chain Gang 02:52
03. Rock 'N' Roll Man 02:56
04. Rocker Boots 03:27
05. Sing On Louise 02:54
06. Smiling Eyes 02:52
07. A Little Bit Of Soap 02:12
08. Pretty Little Angel Eyes 03:14
09. Lookin' Back 02:53
10. Record Machine 03:11
11. Rock'N'Roll Music 02:01
12. Heartbeat 02:22
13. Come On Let's Go 03:17
14. Sweet Music 02:55
15. Rock'N'Roll Lady 02:27
16. Cutie 02:47
17. Johnny Remember Me 03:27
18. King Of The Jive 03:40
19. Roller Coaster 02:53
20. Blue Jean Baby 02:08

eac
Exact Audio Copy V1.0 beta 4 from 7. December 2014

Отчёт EAC об извлечении, выполненном 8. января 2016, 16:48

Showaddywaddy / 100 Hits Legends (CD 2)

Дисковод: ASUS DRW-24F1ST a Adapter: 1 ID: 0

Режим чтения : Достоверность
Использование точного потока : Да
Отключение кэша аудио : Да
Использование указателей C2 : Нет

Коррекция смещения при чтении : 6
Способность читать области Lead-in и Lead-out : Нет
Заполнение пропущенных сэмплов тишиной : Да
Удаление блоков с тишиной в начале и конце : Нет
При вычислениях CRC использовались нулевые сэмплы : Да
Интерфейс : Встроенный Win32-интерфейс для Win NT/2000

Выходной формат : Пользовательский кодировщик
Выбранный битрейт : 128 kBit/s
Качество : Высокий
Добавление ID3-тега : Нет
Утилита сжатия : C:Program FilesExact Audio CopyFlacflac.exe
Дополнительные параметры : -V -8 -T "Date=%year%" -T "Genre=%genre%" %source%

TOC извлечённого CD

Трек | Старт | Длительность | Начальный сектор | Конечный сектор
---------------------------------------------------------------------
1 | 0:00.00 | 2:58.24 | 0 | 13373
2 | 2:58.24 | 2:52.37 | 13374 | 26310
3 | 5:50.61 | 2:56.66 | 26311 | 39576
4 | 8:47.52 | 3:27.22 | 39577 | 55123
5 | 12:14.74 | 2:54.72 | 55124 | 68245
6 | 15:09.71 | 2:52.42 | 68246 | 81187
7 | 18:02.38 | 2:12.25 | 81188 | 91112
8 | 20:14.63 | 3:14.41 | 91113 | 105703
9 | 23:29.29 | 2:53.36 | 105704 | 118714
10 | 26:22.65 | 3:11.18 | 118715 | 133057
11 | 29:34.08 | 2:01.60 | 133058 | 142192
12 | 31:35.68 | 2:22.57 | 142193 | 152899
13 | 33:58.50 | 3:17.67 | 152900 | 167741
14 | 37:16.42 | 2:55.54 | 167742 | 180920
15 | 40:12.21 | 2:27.58 | 180921 | 192003
16 | 42:40.04 | 2:47.43 | 192004 | 204571
17 | 45:27.47 | 3:27.56 | 204572 | 220152
18 | 48:55.28 | 3:40.69 | 220153 | 236721
19 | 52:36.22 | 2:53.11 | 236722 | 249707
20 | 55:29.33 | 2:08.32 | 249708 | 259339

Характеристики диапазона извлечения и сообщения об ошибках

Выбранный диапазон

Имя файла C:UsersErikDesktopНовая папкаShow100 Hits Legends (CD 2).wav

Пиковый уровень 99.4 %
Скорость извлечения 3.0 X
Качество диапазона 100.0 %
CRC теста 79B7AA5A
CRC копии 79B7AA5A
Копирование... OK

Ошибок не произошло

AccurateRip: сводка

Трек 1 : извлечено точно (доверие 2) [CF614577] (AR v2)
Трек 2 : извлечено точно (доверие 2) [A33CC2EB] (AR v2)
Трек 3 : извлечено точно (доверие 2) [5606AABA] (AR v2)
Трек 4 : извлечено точно (доверие 2) [0350EC44] (AR v2)
Трек 5 : извлечено точно (доверие 2) [D880268B] (AR v2)
Трек 6 : извлечено точно (доверие 2) [65A386F5] (AR v2)
Трек 7 : извлечено точно (доверие 2) [D3640226] (AR v2)
Трек 8 : извлечено точно (доверие 2) [753DC196] (AR v2)
Трек 9 : извлечено точно (доверие 2) [07F6907E] (AR v2)
Трек 10 : извлечено точно (доверие 2) [644E83BA] (AR v2)
Трек 11 : извлечено точно (доверие 2) [CC0CE6DE] (AR v2)
Трек 12 : извлечено точно (доверие 2) [5C184525] (AR v2)
Трек 13 : извлечено точно (доверие 2) [AD0449D5] (AR v2)
Трек 14 : извлечено точно (доверие 2) [3681DB31] (AR v2)
Трек 15 : извлечено точно (доверие 2) (AR v2)
Трек 16 : извлечено точно (доверие 2) [ABE745AA] (AR v2)
Трек 17 : извлечено точно (доверие 2) [260F87EB] (AR v2)
Трек 18 : извлечено точно (доверие 2) [CEA6F95F] (AR v2)
Трек 19 : извлечено точно (доверие 2) [4EF9174B] (AR v2)
Трек 20 : извлечено точно (доверие 2) [C3E3A695] (AR v2)

Все треки извлечены точно

Конец отчёта

---- CUETools DB Plugin V2.1.4

[CTDB TOCID: Lmu4ZEmmaghJErmAph3.K0padOk-] found
Submit result: Lmu4ZEmmaghJErmAph3.K0padOk- has been confirmed
Track | CTDB Status
1 | (3/3) Accurately ripped
2 | (3/3) Accurately ripped
3 | (3/3) Accurately ripped
4 | (3/3) Accurately ripped
5 | (3/3) Accurately ripped
6 | (3/3) Accurately ripped
7 | (3/3) Accurately ripped
8 | (3/3) Accurately ripped
9 | (3/3) Accurately ripped
10 | (3/3) Accurately ripped
11 | (3/3) Accurately ripped
12 | (3/3) Accurately ripped
13 | (3/3) Accurately ripped
14 | (3/3) Accurately ripped
15 | (3/3) Accurately ripped
16 | (3/3) Accurately ripped
17 | (3/3) Accurately ripped
18 | (3/3) Accurately ripped
19 | (3/3) Accurately ripped
20 | (3/3) Accurately ripped

==== Контрольная сумма отчёта AD37AB53B518CB80A26BBE3AE724269FFCC202FF8776D12B43A839F42702F525 ====
CD 3 00
01. Multiplication 02:47
02. I'm A Traveller 02:48
03. Swansong 02:17
04. I Wish That I Could Undo All The Bad That I Have Done 02:38
05. You Will Lose Your Love Tomorrow 02:39
06. Don't Turn Your Back On Me Baby 02:53
07. Sweet Little Rock 'N' Roller 02:10
08. A Night At Daddy Gee's 02:39
09. I Think I'm Really Going Out Of My Mind 02:33
10. Teen Canteen 02:53
11. Then Came You 03:07
12. Why Do Lovers Break Each Other's Hearts 02:53
13. Wonderful Dream 03:07
14. Footsteps 02:46
15. Cool Cool Cat 03:25
16. Doo Wah Diddy 02:43
17. I Wanna Take You Home 02:06
18. I'll Never Get Over You 02:10
19. It's Only Make Believe 03:15
20. Win Your Heart 02:20

eac
Exact Audio Copy V1.0 beta 4 from 7. December 2014

Отчёт EAC об извлечении, выполненном 8. января 2016, 17:30

Showaddywaddy / 100 Hits Legends (CD3)

Дисковод: ASUS DRW-24F1ST a Adapter: 1 ID: 0

Режим чтения : Достоверность
Использование точного потока : Да
Отключение кэша аудио : Да
Использование указателей C2 : Нет

Коррекция смещения при чтении : 6
Способность читать области Lead-in и Lead-out : Нет
Заполнение пропущенных сэмплов тишиной : Да
Удаление блоков с тишиной в начале и конце : Нет
При вычислениях CRC использовались нулевые сэмплы : Да
Интерфейс : Встроенный Win32-интерфейс для Win NT/2000

Выходной формат : Пользовательский кодировщик
Выбранный битрейт : 128 kBit/s
Качество : Высокий
Добавление ID3-тега : Нет
Утилита сжатия : C:Program FilesExact Audio CopyFlacflac.exe
Дополнительные параметры : -V -8 -T "Date=%year%" -T "Genre=%genre%" %source%

TOC извлечённого CD

Трек | Старт | Длительность | Начальный сектор | Конечный сектор
---------------------------------------------------------------------
1 | 0:00.00 | 2:47.37 | 0 | 12561
2 | 2:47.37 | 2:48.37 | 12562 | 25198
3 | 5:35.74 | 2:17.69 | 25199 | 35542
4 | 7:53.68 | 2:38.72 | 35543 | 47464
5 | 10:32.65 | 2:39.60 | 47465 | 59449
6 | 13:12.50 | 2:53.13 | 59450 | 72437
7 | 16:05.63 | 2:10.72 | 72438 | 82259
8 | 18:16.60 | 2:39.19 | 82260 | 94203
9 | 20:56.04 | 2:33.43 | 94204 | 105721
10 | 23:29.47 | 2:53.44 | 105722 | 118740
11 | 26:23.16 | 3:07.05 | 118741 | 132770
12 | 29:30.21 | 2:36.48 | 132771 | 144518
13 | 32:06.69 | 2:18.57 | 144519 | 154925
14 | 34:25.51 | 2:46.68 | 154926 | 167443
15 | 37:12.44 | 3:25.30 | 167444 | 182848
16 | 40:37.74 | 2:43.04 | 182849 | 195077
17 | 43:21.03 | 2:06.52 | 195078 | 204579
18 | 45:27.55 | 2:10.72 | 204580 | 214401
19 | 47:38.52 | 3:15.66 | 214402 | 229092
20 | 50:54.43 | 2:21.13 | 229093 | 239680

Характеристики диапазона извлечения и сообщения об ошибках

Выбранный диапазон

Имя файла C:UsersErikDesktopНовая папкаShow100 Hits Legends (CD3).wav

Пиковый уровень 99.4 %
Скорость извлечения 3.0 X
Качество диапазона 100.0 %
CRC теста 8E152A18
CRC копии 8E152A18
Копирование... OK

Ошибок не произошло

AccurateRip: сводка

Трек 1 : извлечено точно (доверие 2) [75383D77] (AR v2)
Трек 2 : извлечено точно (доверие 2) [716ADFBF] (AR v2)
Трек 3 : извлечено точно (доверие 2) [226FEFFE] (AR v2)
Трек 4 : извлечено точно (доверие 2) [D6C62E57] (AR v2)
Трек 5 : извлечено точно (доверие 2) [867486CF] (AR v2)
Трек 6 : извлечено точно (доверие 2) [F794AD8A] (AR v2)
Трек 7 : извлечено точно (доверие 2) [3CDC8137] (AR v2)
Трек 8 : извлечено точно (доверие 2) [DC81957A] (AR v2)
Трек 9 : извлечено точно (доверие 2) [353439E8] (AR v2)
Трек 10 : извлечено точно (доверие 2) [7D6073B1] (AR v2)
Трек 11 : извлечено точно (доверие 2) [FAA4264D] (AR v2)
Трек 12 : извлечено точно (доверие 2) [0554CD6C] (AR v2)
Трек 13 : извлечено точно (доверие 2) [331D8215] (AR v2)
Трек 14 : извлечено точно (доверие 2) [D9EFA34C] (AR v2)
Трек 15 : извлечено точно (доверие 2) [5A507706] (AR v2)
Трек 16 : извлечено точно (доверие 2) [059DA3CF] (AR v2)
Трек 17 : извлечено точно (доверие 2) [9AA1590D] (AR v2)
Трек 18 : извлечено точно (доверие 2) [1D5E0AEC] (AR v2)
Трек 19 : извлечено точно (доверие 2) [DB7A10C4] (AR v2)
Трек 20 : извлечено точно (доверие 2) [DA8FD4C3] (AR v2)

Все треки извлечены точно

Конец отчёта

---- CUETools DB Plugin V2.1.4

[CTDB TOCID: koirX8r.ozy_bCR3zW8VqWaC2Gk-] found
Submit result: koirX8r.ozy_bCR3zW8VqWaC2Gk- has been confirmed
Track | CTDB Status
1 | (3/3) Accurately ripped
2 | (3/3) Accurately ripped
3 | (3/3) Accurately ripped
4 | (3/3) Accurately ripped
5 | (3/3) Accurately ripped
6 | (3/3) Accurately ripped
7 | (3/3) Accurately ripped
8 | (3/3) Accurately ripped
9 | (3/3) Accurately ripped
10 | (3/3) Accurately ripped
11 | (3/3) Accurately ripped
12 | (3/3) Accurately ripped
13 | (3/3) Accurately ripped
14 | (3/3) Accurately ripped
15 | (3/3) Accurately ripped
16 | (3/3) Accurately ripped
17 | (3/3) Accurately ripped
18 | (3/3) Accurately ripped
19 | (3/3) Accurately ripped
20 | (3/3) Accurately ripped

==== Контрольная сумма отчёта 25004A765EAF820DCE42EFB6043EC2861B33B475CE44830AE9AE62B2F0E0D55A ====
CD 4 00
01. I Love Rock & Roll 02:57
02. Who Put The Bomp (In The Bomp-A-Bomp-A-Bomp) 03:36
03. Flyin' Saucer Rock & Roll 02:31
04. In Above Your Head 03:16
05. Uh Huh Oh Yeah 02:16
06. Put Me Down 03:12
07. Take Me In Your Arms 02:30
08. Listen To Me 02:17
09. Always And Ever 02:34
10. Only Love 03:15
11. Good Timing 01:44
12. Tiger Feet 02:45
13. (You're My) Soul And My Inspiration 03:06
14. Claudette 02:30
15. Just A Country Boy 02:42
16. Blue Moon 02:30
17. Who Will The Next Fool Be 03:03
18. Goody Goody 02:09
19. I Appreciate The Job 02:07
20. Everybody On Your Feet 03:14

eac
Exact Audio Copy V1.0 beta 4 from 7. December 2014

Отчёт EAC об извлечении, выполненном 8. января 2016, 18:15

Showaddywaddy / 100 Hits Legends (CD4)

Дисковод: ASUS DRW-24F1ST a Adapter: 1 ID: 0

Режим чтения : Достоверность
Использование точного потока : Да
Отключение кэша аудио : Да
Использование указателей C2 : Нет

Коррекция смещения при чтении : 6
Способность читать области Lead-in и Lead-out : Нет
Заполнение пропущенных сэмплов тишиной : Да
Удаление блоков с тишиной в начале и конце : Нет
При вычислениях CRC использовались нулевые сэмплы : Да
Интерфейс : Встроенный Win32-интерфейс для Win NT/2000

Выходной формат : Пользовательский кодировщик
Выбранный битрейт : 128 kBit/s
Качество : Высокий
Добавление ID3-тега : Нет
Утилита сжатия : C:Program FilesExact Audio CopyFlacflac.exe
Дополнительные параметры : -V -8 -T "Date=%year%" -T "Genre=%genre%" %source%

TOC извлечённого CD

Трек | Старт | Длительность | Начальный сектор | Конечный сектор
---------------------------------------------------------------------
1 | 0:00.00 | 2:57.57 | 0 | 13331
2 | 2:57.57 | 3:36.48 | 13332 | 29579
3 | 6:34.30 | 2:31.61 | 29580 | 40965
4 | 9:06.16 | 3:16.23 | 40966 | 55688
5 | 12:22.39 | 2:16.22 | 55689 | 65910
6 | 14:38.61 | 3:12.47 | 65911 | 80357
7 | 17:51.33 | 2:30.08 | 80358 | 91615
8 | 20:21.41 | 2:17.00 | 91616 | 101890
9 | 22:38.41 | 2:34.62 | 101891 | 113502
10 | 25:13.28 | 3:15.17 | 113503 | 128144
11 | 28:28.45 | 1:44.37 | 128145 | 135981
12 | 30:13.07 | 2:45.28 | 135982 | 148384
13 | 32:58.35 | 3:06.14 | 148385 | 162348
14 | 36:04.49 | 2:30.68 | 162349 | 173666
15 | 38:35.42 | 2:42.21 | 173667 | 185837
16 | 41:17.63 | 2:30.69 | 185838 | 197156
17 | 43:48.57 | 3:03.16 | 197157 | 210897
18 | 46:51.73 | 2:09.18 | 210898 | 220590
19 | 49:01.16 | 2:07.36 | 220591 | 230151
20 | 51:08.52 | 3:14.18 | 230152 | 244719

Характеристики диапазона извлечения и сообщения об ошибках

Выбранный диапазон

Имя файла C:UsersErikDesktopНовая папкаShow100 Hits Legends (CD4).wav

Пиковый уровень 99.4 %
Скорость извлечения 3.0 X
Качество диапазона 100.0 %
CRC теста EAFE097D
CRC копии EAFE097D
Копирование... OK

Ошибок не произошло

AccurateRip: сводка

Трек 1 : извлечено точно (доверие 2) [24EED270] (AR v2)
Трек 2 : извлечено точно (доверие 2) (AR v2)
Трек 3 : извлечено точно (доверие 2) [CF50047E] (AR v2)
Трек 4 : извлечено точно (доверие 2) [ED7DDA68] (AR v2)
Трек 5 : извлечено точно (доверие 2) [1CE21DCF] (AR v2)
Трек 6 : извлечено точно (доверие 2) [856C73FC] (AR v2)
Трек 7 : извлечено точно (доверие 2) [9F87805C] (AR v2)
Трек 8 : извлечено точно (доверие 2) [BE67796F] (AR v2)
Трек 9 : извлечено точно (доверие 2) [BEB50AAC] (AR v2)
Трек 10 : извлечено точно (доверие 2) [E8CC1262] (AR v2)
Трек 11 : извлечено точно (доверие 2) [673B4FB2] (AR v2)
Трек 12 : извлечено точно (доверие 2) [63D95B72] (AR v2)
Трек 13 : извлечено точно (доверие 2) [15E122CD] (AR v2)
Трек 14 : извлечено точно (доверие 2) [4C4C85CF] (AR v2)
Трек 15 : извлечено точно (доверие 2) [3F92F834] (AR v2)
Трек 16 : извлечено точно (доверие 2) [F7581CC6] (AR v2)
Трек 17 : извлечено точно (доверие 2) [35CB51A2] (AR v2)
Трек 18 : извлечено точно (доверие 2) [BF624398] (AR v2)
Трек 19 : извлечено точно (доверие 2) [5B1B42D3] (AR v2)
Трек 20 : извлечено точно (доверие 2) [04E47EC9] (AR v2)

Все треки извлечены точно

Конец отчёта

---- CUETools DB Plugin V2.1.4

[CTDB TOCID: qxo2dT722eUnlOlcn8CFj3Yogws-] found
Submit result: qxo2dT722eUnlOlcn8CFj3Yogws- has been confirmed
Track | CTDB Status
1 | (3/3) Accurately ripped
2 | (3/3) Accurately ripped
3 | (3/3) Accurately ripped
4 | (3/3) Accurately ripped
5 | (3/3) Accurately ripped
6 | (3/3) Accurately ripped
7 | (3/3) Accurately ripped
8 | (3/3) Accurately ripped
9 | (3/3) Accurately ripped
10 | (3/3) Accurately ripped
11 | (3/3) Accurately ripped
12 | (3/3) Accurately ripped
13 | (3/3) Accurately ripped
14 | (3/3) Accurately ripped
15 | (3/3) Accurately ripped
16 | (3/3) Accurately ripped
17 | (3/3) Accurately ripped
18 | (3/3) Accurately ripped
19 | (3/3) Accurately ripped
20 | (3/3) Accurately ripped

==== Контрольная сумма отчёта 4E997F6C35397224F3A653FC077A20510DFD3389F2A75EF4CCB29532B6E9BB03 ====
CD 5 01
01. 2-4-6-8 Motorway 03:36
02. Let's Work Together 03:34
03. Motor Bikin' 02:41
04. Old Habits Die Hard 02:13
05. Rock This Town 03:54
06. See My Baby Jive 03:21
07. Spanish Stroll / My Best Friend's Girl 03:52
08. The Girl From New York City 03:11
09. Tulane 02:24
10. Teenage Love Affair 03:08
11. Five Minutes More 02:33
12. Back Of My Hand 03:48
13. Sweet Georgia 03:01
14. Crazy Little Thing Called Love 03:36
15. Denise 03:50
16. Hey Girl Don't Bother Me 03:10
17. I Can Do It 02:37
18. I Hear You Knocking 02:15
19. Jeepster 02:24
20. Jungle Rock 02:48

eac
Exact Audio Copy V1.0 beta 4 from 7. December 2014

Отчёт EAC об извлечении, выполненном 8. января 2016, 19:05

Showaddywaddy / 100 Hits Legends (CD5)

Дисковод: ASUS DRW-24F1ST a Adapter: 1 ID: 0

Режим чтения : Достоверность
Использование точного потока : Да
Отключение кэша аудио : Да
Использование указателей C2 : Нет

Коррекция смещения при чтении : 6
Способность читать области Lead-in и Lead-out : Нет
Заполнение пропущенных сэмплов тишиной : Да
Удаление блоков с тишиной в начале и конце : Нет
При вычислениях CRC использовались нулевые сэмплы : Да
Интерфейс : Встроенный Win32-интерфейс для Win NT/2000

Выходной формат : Пользовательский кодировщик
Выбранный битрейт : 128 kBit/s
Качество : Высокий
Добавление ID3-тега : Нет
Утилита сжатия : C:Program FilesExact Audio CopyFlacflac.exe
Дополнительные параметры : -V -8 -T "Date=%year%" -T "Genre=%genre%" %source%

TOC извлечённого CD

Трек | Старт | Длительность | Начальный сектор | Конечный сектор
---------------------------------------------------------------------
1 | 0:00.00 | 3:36.19 | 0 | 16218
2 | 3:36.19 | 3:34.59 | 16219 | 32327
3 | 7:11.03 | 2:41.15 | 32328 | 44417
4 | 9:52.18 | 2:13.25 | 44418 | 54417
5 | 12:05.43 | 3:54.14 | 54418 | 71981
6 | 15:59.57 | 3:21.00 | 71982 | 87056
7 | 19:20.57 | 3:52.35 | 87057 | 104491
8 | 23:13.17 | 3:11.11 | 104492 | 118827
9 | 26:24.28 | 2:24.67 | 118828 | 129694
10 | 28:49.20 | 3:08.25 | 129695 | 143819
11 | 31:57.45 | 2:33.01 | 143820 | 155295
12 | 34:30.46 | 3:48.30 | 155296 | 172425
13 | 38:19.01 | 3:01.16 | 172426 | 186016
14 | 41:20.17 | 3:36.23 | 186017 | 202239
15 | 44:56.40 | 3:50.49 | 202240 | 219538
16 | 48:47.14 | 3:10.39 | 219539 | 233827
17 | 51:57.53 | 2:37.37 | 233828 | 245639
18 | 54:35.15 | 2:15.30 | 245640 | 255794
19 | 56:50.45 | 2:24.68 | 255795 | 266662
20 | 59:15.38 | 2:48.31 | 266663 | 279293

Характеристики диапазона извлечения и сообщения об ошибках

Выбранный диапазон

Имя файла C:UsersErikDesktopНовая папкаShow100 Hits Legends (CD5).wav

Пиковый уровень 99.4 %
Скорость извлечения 3.1 X
Качество диапазона 100.0 %
CRC теста E6F8B2F9
CRC копии E6F8B2F9
Копирование... OK

Ошибок не произошло

AccurateRip: сводка

Трек 1 отсутствует в базе данных
Трек 2 отсутствует в базе данных
Трек 3 отсутствует в базе данных
Трек 4 отсутствует в базе данных
Трек 5 отсутствует в базе данных
Трек 6 отсутствует в базе данных
Трек 7 отсутствует в базе данных
Трек 8 отсутствует в базе данных
Трек 9 отсутствует в базе данных
Трек 10 отсутствует в базе данных
Трек 11 отсутствует в базе данных
Трек 12 отсутствует в базе данных
Трек 13 отсутствует в базе данных
Трек 14 отсутствует в базе данных
Трек 15 отсутствует в базе данных
Трек 16 отсутствует в базе данных
Трек 17 отсутствует в базе данных
Трек 18 отсутствует в базе данных
Трек 19 отсутствует в базе данных
Трек 20 отсутствует в базе данных

Ни одного трека нет в базе AccurateRip

Конец отчёта

---- CUETools DB Plugin V2.1.4

[CTDB TOCID: Rb0Mzpd626_yz8g3EycuZEa6s2M-] found
Submit result: Rb0Mzpd626_yz8g3EycuZEa6s2M- has been confirmed
Track | CTDB Status
1 | (3/3) Accurately ripped
2 | (3/3) Accurately ripped
3 | (3/3) Accurately ripped
4 | (3/3) Accurately ripped
5 | (3/3) Accurately ripped
6 | (3/3) Accurately ripped
7 | (3/3) Accurately ripped
8 | (3/3) Accurately ripped
9 | (3/3) Accurately ripped
10 | (3/3) Accurately ripped
11 | (3/3) Accurately ripped
12 | (3/3) Accurately ripped
13 | (3/3) Accurately ripped
14 | (3/3) Accurately ripped
15 | (3/3) Accurately ripped
16 | (3/3) Accurately ripped
17 | (3/3) Accurately ripped
18 | (3/3) Accurately ripped
19 | (3/3) Accurately ripped
20 | (3/3) Accurately ripped

==== Контрольная сумма отчёта 0879139CAAFBF371CD6724074CF75EB4E6876ADC857E35EF467E38E64429FC05 ====
Музыка / Lossless / Рок, Панк, Метал, Альтернатива.
СКАЧАТЬ БЕСПЛАТНО  [1.9 GB]


10
ноя
2011

VA-100 Hits. Soul. 5CD Box set [2007, Soul, R&B, MP3]

Формат: MP3, tracks, 320kbps
Год выпуска: 2007
Страна: All World
Жанр: Soul, R&B
Продолжительность: 05:41:20
Описание: CD 1 1. Arthur Conley - Sweet Soul Music 2. King Curtis - Memphis Soul Stew 3. Lee Dorsey - Working In The Coal Mine 4. Ray Charles - What'd I Say (Parts 1 & 2) 5. Sam & Dave - Hold On, I'm Coming 6. Otis Redding & Carla Thomas - Tramp 7. Betty Wright - Clean Up Woman 8. Archie Bell & The Drells - Tighten Up 9. The Beginning Of The End - Funky Nassau (Pt. I) 10. Sly & The Family Stones - Dance To The Music 11. The Drifters - Kissin' In The Back Row Of The Movies 12. ...

04
ноя
2011

VA-100 Hits Pop 5CD Box set [2008, Pop, MP3]

Формат: MP3, tracks, 320kbps
Год выпуска: 2008
Страна: All World
Жанр: Pop
Продолжительность: 06:00:13
Описание: Disc 1. Devil In Disguise - Elvis Presley 2. Ring Of Fire - Johnny Cash 3. Oh Pretty Woman - Roy Orbison 4. When Will I Be Loved - The Everly Brothers 5. Let's Dance - Chris Montez 6. Happy Birthday Sweet Sixteen - Neil Sedaka 7. 24 Hours From Tulsa - Gene Pitney 8. Can't Take My Eyes Off You - Andy Williams 9. To Love Somebody - Nina Simone 10. Will You Love Me Tomorrow -The Shirelles 11. Soul Deep - Box Tops 12. Out On The Floor - Dobie Gray 13. Light My Fire - Jose Fe ...

03
дек
2011

VA-100 Hits 80s Pop. 5CD Box Set [2008, Pop, MP3]

Формат: MP3, tracks, 128-320kbps [VBR]
Год выпуска: 2008
Страна: All World
Жанр: Pop
Продолжительность: 06:37:09
Описание: CD 1 01. Bananarama – Cruel Summer 02. Communards With Sarah Jane Morris – Don’t Leave Me This Way 03. Simply Red – Money’s Too Tight To Mention 04. Fine Young Cannibals – Suspicious Minds 05. Echo & The Bunnymen – People Are Strange 06. A – Ha – Cry Wolf 07. Princess – Say I’m Your No. 1 08. Howard Jones – New Song 09. Tone Loc – Wild Thing 10. De La Soul – Say No Go 11. Joyce Sims – Come Into My Life 12. Chaka Khan – I Feel For You 13. Chris Rea – Let’s Danc ...

07
ноя
2011

VA-100 Hits 80s Love 5CD Box set [2009, Pop, MP3]

Формат: MP3, tracks, 320kbps
Год выпуска: 2009
Страна: All World
Жанр: Pop
Продолжительность: 06:33:30
Описание: CD 1 1. Luther Vandross - Stop To Love 2. Five Star - Rain Or Shine 3. Boy Meets Girl - Waiting For A Star To Fall 4. Jason Donovan - Every Day (I Love You More) 5. Paul Young - Wherever I Lay My Hat (That's My Home) 6. Bangles - Eternal Flame 7. Cyndi Lauper - Time After Time 8. Terence Trent D'Arby - Sign Your Name 9. Dee C. Lee - See The Day 10. Gloria Estefan & Miami Sound Machine - Anything For You 11. Kenny Rogers & Dolly Parton - Islands In The Stream 12. Alison Mo ...

06
дек
2010

VA - 100 Hits Christmas Legends (5CD) [2010, Pop, FLAC]

Формат: FLAC, (tracks + .cue), lossless
Год выпуска: 2010
Страна: UK
Жанр: Pop
Продолжительность: 04:41:43
Описание: Треклист CD-1 52:26 01. Bing Crosby - White Christmas 02. Frank Sinatra - Christmas Dreaming (A Little Early This Year) 03. Perry Como - It’s Beginning To Look A Lot Like Christmas 04. Nat King Cole - The Christmas Song (Merry Christmas To You) 05. Dean Martin - I’ve Got My Love To Keep Me Warm 06. Judy Garland - Have Yourself A Merry Little Christmas 07. Eddie Fisher - You’re All I Want For Christmas 08. Harry Belafonte - Mary’s Boy Child 09. Louis Armstrong - Cool Yu ...

20
фев
2013

VA - 101 Hits Rock Legends (Box Set 4CD) [2009, Rock, Hard Rock, Blues Rock, MP3]

Формат: MP3, tracks, 320kbps
Год выпуска: 2009
Страна: USA
Жанр: Rock, Hard Rock, Blues Rock
Продолжительность: 05:02:06
Описание: CD1 01] 01. E.L.O - Evil Woman 02. Amen Corner - IfParadise Is Half As Nice 03. Chicago - Feelin' Stronger Everyday 04. The Troggs - Love Is All Around 05. The Yardbirrds - Shapes Of Things 06. Jimi Hendrix - LittleWing 07. Jonn Mayall s Bluesbreakers - I'm Your Witch Doctor 08. E.L.O Part2 - Sweet Talking Woman 09. SLY and The Family Stone - In The Still Of The Night 10. Lonnie Youngblo and Jimi Hendrix - Win Your Love 11. The Flaming Groovies - Love T ...

30
июл
2011

Jeff Beck 2 Box Sets / 10 Albums (2008 Original Album Classics 5CD Box/2010 Original Album Classics (5CD Box Set) [2008 / 2010, Blues rock, Hard Rock, Progressive Rock, FLAC]

Формат: FLAC, (image + .cue), lossless
Год выпуска: 2008 / 2010
Страна: England
Жанр: Blues rock, Jazz fusion, Instrumental Rock, Hard Rock, Progressive Rock
Продолжительность: 06:58:48
Описание: 2008 Original Album Classics (5CD Box Set Epic Records) 1971 Jeff Beck Group (Rough & Ready) 00 1. Got The Feeling 2. Situation 3. Short Business 4. Max's Tune 5. I've Been Used 6. New Ways / Train Train 7. Jody EACExact Audio Copy V1.0 beta 2 from 29. April 2011 EAC extraction logfile from 24. July 2011, 13:44 Jeff Beck Group / Rough And Ready Used drive : HL-DT-STDVDRAM GSA-H60N Adapter: 2 ID: ...

16
мая
2012

Cheap Trick - 2 Box Sets / 10 Albums (2008 Original Album Classics 5CD Box/2011 Original Album Classics (5CD Box Set) [2008 / 2011, Rock, Hard Rock

Формат: FLAC, (image + .cue), lossless
Год выпуска: 2008 / 2011
Страна: USA
Жанр: Rock, Hard Rock
Продолжительность: 08:12:46
Описание: 2008 Original Album Classics (5CD Box Set Legacy, Epic Records) 1977 Cheap Trick 0 01. ELO Kiddies 02. Daddy Should Have Stayed In High School 03. Taxman, Mr. Thief 04. Cry, Cry 05. Oh, Candy 06. Hot Love 07. Speak Now Or Forever Hold Your Peace 08. He's A Whore 09. Mandocello 10. The Ballad Of TV Violence (I'm Not The Only Boy) Bonus Tracks 11. Lovin' Money 12. I Want You To Want Me 13. Lookout 14. You're All Talk 15. I Dig Go-Go Girls EAC Exact Audio Cop ...

13
сен
2016

Alcatrazz - The Ultimate Fortress Rock Set (5CD Box Set) [2016, Hard Rock, FLAC]

Формат: FLAC, (image + .cue), lossless
Год выпуска: 2016
Страна: UK
Жанр: Hard Rock
Продолжительность: 05:51:15
Описание: 1983 No Parole From Rock'n'Roll 01 01. Island In The Sun 02. General Hospital 03. Jet To Jet 04. Hiroshima Mon Amour 05. Kree Nakoorie 06. Incubus 07. Too Young To Die, Too Drunk To Live 08. Big Foot 09. Starcarr Lane 10. Suffer Me Bonus Tracks 11. Kree Nakoorie 12. Starcarr Lane 13. Island In The Sun 14. Big Foot 15. Hiroshima Mon Amour 16. General Hospital 17. Incubus 18. Suffer Me 19. Too Young To Die, Too Drunk To Live 20. Jet To Jet eac Exact Audio Copy V1.0 beta 3 f ...

14
июн
2011

Jefferson Airplane - 2 Box Sets / 8 Albums Original (5CD + 3CD Box Set) [2008 - 2011, Psychedelic rock, FLAC]

Формат: FLAC, (image + .cue), lossless
Год выпуска: 2008 - 2011
Страна: USA
Жанр: Psychedelic rock, blues-rock
Продолжительность: 07:44:55
Описание:
Доп. информация: 2008 Original Album Classics (5CD Box Set) 1966 - Jefferson Airplane Takes Off 01 01. Blues From An Airplane 02. Let Me In 03. Bringing Me Down 04. It's No Secret 05. Tobacco Road 06. Come Up The Year 07. Run Around 08. Let's Get Together 09. Don't Slip Away 10. Chauffeur Blues 11. And I Like It Bonus Tracks 12. Runnin' Round This World 13. High Flying Bird 14. It's Alright 15. Go To Her (Early Version) 16. Let Me In (Original ...

02
дек
2010

The Hollies - StarCollection (Box set 5CD) [2010, Rock, RockBeat, FLAC]

Формат: FLAC, (image + .cue), lossless
Год выпуска: 2010
Страна: UK
Жанр: Rock, RockBeat
Продолжительность: 06:31:47
Описание: The Hollies - StarCollection / Треклист CD:1 ============================= 01. Daddy Don't Mind [0:03:35.27] 02. Hope [0:03:12.29] 03. Layin' To The Music [0:02:30.48] 04. The Day That Curly Billy Shot Down Crazy Sam McGee [0:04:27.55] 05. Shine On Me [0:04:32.66] 06. Tip Of The Iceberg [0:04:08.50] 07. How Do I Survive [0:04:00.37] 08. If The Lights Go Out [0:03:29.13] 09. Live It Up [0:04:25.72] 10. Long Cool Woman In A Black Dress [0:03:18.02] 11. Suspended Animat ...

03
янв
2011

Magnum - The Gathering 5CD Box Set [2010, Rock, Hard Rock, FLAC]

Формат: FLAC, (image + .cue), lossless
Год выпуска: 2010
Страна: UK
Жанр: Rock, Hard Rock, Progressive Rock, Melodic Rock
Продолжительность: 06:29:44
Описание: CD 1 01
Трэклист: 01. Stormbringer 03:33 02. Find The Time (Kingdom Of Madness Session Outtake) 03:05 03. In The Beginning 07:53 04. Baby Rock Me 04:05 05. Universe 03:47 06. Invasion 03:24 07. Kingdom Of Madness (Alternative Version) 03:57 08. Great Adventure 04:53 09. Changes (7'' Single Remix) 04:12 10. The Battle 02:11 11. All Of My Life 04:42 12. If I Could Live Forever (Live) 04:07 13. Foolish Heart (Live) 03:09 14. Lords Of Cha ...

17
авг
2013

John Mayer - Box Set (5CD) [2013, Rock, MP3]

Формат: MP3, tracks, 320kbps
Год выпуска: 2013
Страна: США
Жанр: Rock
Продолжительность: 04:43:26
Описание: 2001- Room For Squares (00 01 - No Such Thing [03:49] 02 - Why Georgia [04:26] 03 - My Stupid Mouth [03:42] 04 - Your Body Is a Wonderland [04:07] 05 - Neon [04:19] 06 - City Love [03:57] 07 - 83 [04:48] 08 - 3x5 [04:48] 09 - Love Song for No One [03:19] 10 - Back to You [03:59] 11 - Great Indoors [03:33] 12 - Not Myself [03:38] 13 - St. Patrick's Day [05:23] 14 - Lenny [02:08] 15 - The Wind Cries Mary (Live at the X-Lounge) [03:36] 2003 - Heavier Things (00 01 - Clarity [04:29] 02 - Bi ...

16
ноя
2018

Whitesnake - Unzipped (5CD Box Set) [2018, Rock, Hard Rock, FLAC]

Формат: FLAC, (image + .cue), lossless
Год выпуска: 2018
Страна: England
Жанр: Rock, Hard Rock
Продолжительность: 04:45:11
Описание: CD1 Unzipped... In The Studio 01. Love Is Blind (Remastered) 02. One Of These Days (Acoustic Version) 03. All The Time In The World (Remastered) 04. Wherever You May Go 05. Easier Said Than Done (Acoustic Version) 06. Fare Thee Well (Acoustic Version) 07. Summer Rain (Unzipped Version) 08. Forevermore (Unzipped Version) 09. 'Till The End Of Time (Remastered) Bonus Tracks: 10. Wherever You May Go (Instrumental Strings Only) 11. Love Is Blind (Instrumental Strings ...

29
ноя
2016

Geordie - The Albums (5CD Box Set) [2016, Rock, Glam Rock, Hard Rock, Blues-Rock, MP3]

Формат: MP3, tracks, 320kbps
Год выпуска: 2016
Страна: UK
Жанр: Rock, Glam Rock, Hard Rock, Blues-Rock
Продолжительность: 04:04:54
Описание: 1973 - Hope You Like It / Geordie (0101. Keep On Rockin' 03:19 02. Give You Till Monday 03:57 03. Hope You Like It 03:39 04. Don't Do That 03:11 05. All Because Of You 02:49 06. Old Time Rocker 03:21 07. Oh Lord 05:08 08. Natural Born Loser 04:13 09. Strange Man 03:30 10. Ain't It Just Like A Woman 03:55 11. Geordie's Lost His Liccie 03:36 Bonus Tracks: 12. Francis Was A Rocker 02:56 13. Can You Do It 03:14 14. Rad Eyed Lady 03:07 15. Elect ...