15
авг
2019

Rick Derringer - Joy Ride - Solo Albums 1973-1980 (4CD) [2017, Rock, Blues Rock, FLAC]

Rick Derringer - Joy Ride - Solo Albums 1973-1980 (4CD)
Формат: FLAC, (image + .cue), lossless
Год выпуска: 2017
Страна: USA
Жанр: Rock, Blues Rock
Продолжительность: 02:56:09
Описание:
1973 All American Boy 00

01. Rock And Roll, Hoochie Koo 3:43
02. Joy Ride (Instrumental) 1:50
03. Teenage Queen 3:30
04. Cheap Tequila 2:44
05. Uncomplicated 3:40
06. Hold 3:13
07. The Airport Giveth (The Airport Taketh Away) 2:49
08. Teenage Love Affair 3:20
09. It’s Raining 2:04
10. Time Warp 2:53
11. Slide On Over Slinky 4:21
12. Jump, Jump, Jump 5:59
Bonus Tracks
13. Rock And Roll, Hoochie Koo (Single Edit) 2:54
14. Rock And Roll, Hoochie Koo (Mono) 2:54
15. Teenage Love Affair (Mono) 2:34
eac
Exact Audio Copy V1.0 beta 6 from 9. April 2015

EAC extraction logfile from 11. August 2019, 7:17

Rick Derringer / All American Boy

Used drive : ATAPI iHAS122 C Adapter: 1 ID: 0

Read mode : Secure
Utilize accurate stream : Yes
Defeat audio cache : Yes
Make use of C2 pointers : No

Read offset correction : 6
Overread into Lead-In and Lead-Out : No
Fill up missing offset samples with silence : Yes
Delete leading and trailing silent blocks : No
Null samples used in CRC calculations : Yes
Used interface : Native Win32 interface for Win NT & 2000

Used output format : Internal WAV Routines
Sample format : 44.100 Hz; 16 Bit; Stereo

TOC of the extracted CD

Track | Start | Length | Start sector | End sector
---------------------------------------------------------
1 | 0:00.00 | 3:43.23 | 0 | 16747
2 | 3:43.23 | 1:50.16 | 16748 | 25013
3 | 5:33.39 | 3:30.55 | 25014 | 40818
4 | 9:04.19 | 2:44.15 | 40819 | 53133
5 | 11:48.34 | 3:40.60 | 53134 | 69693
6 | 15:29.19 | 3:15.27 | 69694 | 84345
7 | 18:44.46 | 2:49.40 | 84346 | 97060
8 | 21:34.11 | 3:20.10 | 97061 | 112070
9 | 24:54.21 | 2:04.63 | 112071 | 121433
10 | 26:59.09 | 2:53.43 | 121434 | 134451
11 | 29:52.52 | 4:21.46 | 134452 | 154072
12 | 34:14.23 | 6:01.72 | 154073 | 181219
13 | 40:16.20 | 2:57.16 | 181220 | 194510
14 | 43:13.36 | 2:56.61 | 194511 | 207771
15 | 46:10.22 | 2:34.24 | 207772 | 219345

Range status and errors

Selected range

Filename C:UsersLondonDesktopRick Derringer - All American Boy.wav

Peak level 97.7 %
Extraction speed 8.1 X
Range quality 99.9 %
Test CRC BB14F3DA
Copy CRC BB14F3DA
Copy OK

No errors occurred

AccurateRip summary

Track 1 accurately ripped (confidence 5) [BE0B9C3E] (AR v2)
Track 2 accurately ripped (confidence 5) [9024D733] (AR v2)
Track 3 accurately ripped (confidence 5) [149EAD9B] (AR v2)
Track 4 accurately ripped (confidence 5) [69DE8F1E] (AR v2)
Track 5 accurately ripped (confidence 5) [FFD0DA50] (AR v2)
Track 6 accurately ripped (confidence 5) [2224C351] (AR v2)
Track 7 accurately ripped (confidence 5) [8907F7CD] (AR v2)
Track 8 accurately ripped (confidence 5) [9556212B] (AR v2)
Track 9 accurately ripped (confidence 5) [A2E60322] (AR v2)
Track 10 accurately ripped (confidence 5) [65803687] (AR v2)
Track 11 accurately ripped (confidence 5) [E7052307] (AR v2)
Track 12 accurately ripped (confidence 5) [7BE78DC1] (AR v2)
Track 13 accurately ripped (confidence 5) [D0D00044] (AR v2)
Track 14 accurately ripped (confidence 5) [94A4A967] (AR v2)
Track 15 accurately ripped (confidence 5) [46E7D5AE] (AR v2)

All tracks accurately ripped

End of status report

---- CUETools DB Plugin V2.1.6

[CTDB TOCID: yAX2JvG94Pro7QHnqn05WH1B6xg-] found
Submit result: yAX2JvG94Pro7QHnqn05WH1B6xg- has been confirmed
Track | CTDB Status
1 | (5/5) Accurately ripped
2 | (5/5) Accurately ripped
3 | (5/5) Accurately ripped
4 | (5/5) Accurately ripped
5 | (5/5) Accurately ripped
6 | (5/5) Accurately ripped
7 | (5/5) Accurately ripped
8 | (5/5) Accurately ripped
9 | (5/5) Accurately ripped
10 | (5/5) Accurately ripped
11 | (5/5) Accurately ripped
12 | (5/5) Accurately ripped
13 | (5/5) Accurately ripped
14 | (5/5) Accurately ripped
15 | (5/5) Accurately ripped

==== Log checksum 7398C0B38C5DAEAF8D07B3D011CA79CC6D61FBAB1E48793B58248EEB3CD8227C ====
1975 Spring Fever 00

01. Gimme More 3:37
02. Tomorrow 3:33
03. Don’t Ever Say Goodbye 4:34
04. Still Alive And Well 3:16
05. Rock 4:42
06. Hang On Sloopy 3:06
07. Roll With Me 3:32
08. Walkin’ The Dog 4:10
09. He Needs Some Answers 3:18
10. Skyscraper Blues 3:51
Bonus Tracks
11. Hang On Sloopy (Mono) 3:06
12. Don’t Ever Say Goodbye (Mono) 3:26
eac
Exact Audio Copy V1.0 beta 6 from 9. April 2015

EAC extraction logfile from 11. August 2019, 7:39

Rick Derringer / Spring Fever

Used drive : ATAPI iHAS122 C Adapter: 1 ID: 0

Read mode : Secure
Utilize accurate stream : Yes
Defeat audio cache : Yes
Make use of C2 pointers : No

Read offset correction : 6
Overread into Lead-In and Lead-Out : No
Fill up missing offset samples with silence : Yes
Delete leading and trailing silent blocks : No
Null samples used in CRC calculations : Yes
Used interface : Native Win32 interface for Win NT & 2000

Used output format : Internal WAV Routines
Sample format : 44.100 Hz; 16 Bit; Stereo

TOC of the extracted CD

Track | Start | Length | Start sector | End sector
---------------------------------------------------------
1 | 0:00.00 | 3:38.20 | 0 | 16369
2 | 3:38.20 | 3:36.05 | 16370 | 32574
3 | 7:14.25 | 4:36.49 | 32575 | 53323
4 | 11:50.74 | 3:17.49 | 53324 | 68147
5 | 15:08.48 | 4:45.74 | 68148 | 89596
6 | 19:54.47 | 3:08.47 | 89597 | 103743
7 | 23:03.19 | 3:34.16 | 103744 | 119809
8 | 26:37.35 | 4:12.10 | 119810 | 138719
9 | 30:49.45 | 3:20.74 | 138720 | 153793
10 | 34:10.44 | 3:55.61 | 153794 | 171479
11 | 38:06.30 | 3:08.13 | 171480 | 185592
12 | 41:14.43 | 3:26.12 | 185593 | 201054

Range status and errors

Selected range

Filename C:UsersLondonDesktopRick Derringer - Spring Fever.wav

Peak level 97.7 %
Extraction speed 8.1 X
Range quality 100.0 %
Test CRC E645BF20
Copy CRC E645BF20
Copy OK

No errors occurred

AccurateRip summary

Track 1 accurately ripped (confidence 5) (AR v2)
Track 2 accurately ripped (confidence 5) [C6270D45] (AR v2)
Track 3 accurately ripped (confidence 5) [DB911095] (AR v2)
Track 4 accurately ripped (confidence 5) [00015C87] (AR v2)
Track 5 accurately ripped (confidence 5) [E66803CA] (AR v2)
Track 6 accurately ripped (confidence 5) [1B495E27] (AR v2)
Track 7 accurately ripped (confidence 5) [220431F3] (AR v2)
Track 8 accurately ripped (confidence 5) [E41C2600] (AR v2)
Track 9 accurately ripped (confidence 5) [12A15731] (AR v2)
Track 10 accurately ripped (confidence 5) [FE6E1C88] (AR v2)
Track 11 accurately ripped (confidence 5) [010EE405] (AR v2)
Track 12 accurately ripped (confidence 5) [EAE178BC] (AR v2)

All tracks accurately ripped

End of status report

---- CUETools DB Plugin V2.1.6

[CTDB TOCID: l4nMGyD9X9I2.x6rDc.S5VW5YtM-] found
Submit result: l4nMGyD9X9I2.x6rDc.S5VW5YtM- has been confirmed
Track | CTDB Status
1 | (5/5) Accurately ripped
2 | (5/5) Accurately ripped
3 | (5/5) Accurately ripped
4 | (5/5) Accurately ripped
5 | (5/5) Accurately ripped
6 | (5/5) Accurately ripped
7 | (5/5) Accurately ripped
8 | (5/5) Accurately ripped
9 | (5/5) Accurately ripped
10 | (5/5) Accurately ripped
11 | (5/5) Accurately ripped
12 | (5/5) Accurately ripped

==== Log checksum AB01322979965A97E4A581131958925DEBAD94239C655307852B02831251734D ====
1979 Guitars And Women 00

01. Something Warm 3:30
02. Guitars And Women 3:35
03. Everything 3:18
04. Man In The Middle 3:18
05. It Must Be Love 3:39
06. Desires Of The Heart 4:00
07. Timeless 4:34
08. Hopeless Romantic 3:02
09. Need A Little Girl (Just Like You) 3:29
10. Don’t Ever Say Goodbye 3:38
eac
Exact Audio Copy V1.0 beta 6 from 9. April 2015

EAC extraction logfile from 11. August 2019, 8:00

Rick Derringer / Guitars And Wonen

Used drive : ATAPI iHAS122 C Adapter: 1 ID: 0

Read mode : Secure
Utilize accurate stream : Yes
Defeat audio cache : Yes
Make use of C2 pointers : No

Read offset correction : 6
Overread into Lead-In and Lead-Out : No
Fill up missing offset samples with silence : Yes
Delete leading and trailing silent blocks : No
Null samples used in CRC calculations : Yes
Used interface : Native Win32 interface for Win NT & 2000

Used output format : Internal WAV Routines
Sample format : 44.100 Hz; 16 Bit; Stereo

TOC of the extracted CD

Track | Start | Length | Start sector | End sector
---------------------------------------------------------
1 | 0:00.00 | 3:33.04 | 0 | 15978
2 | 3:33.04 | 3:37.56 | 15979 | 32309
3 | 7:10.60 | 6:40.72 | 32310 | 62381
4 | 13:51.57 | 3:19.42 | 62382 | 77348
5 | 17:11.24 | 3:41.34 | 77349 | 93957
6 | 20:52.58 | 4:02.12 | 93958 | 112119
7 | 24:54.70 | 4:35.23 | 112120 | 132767
8 | 29:30.18 | 3:04.07 | 132768 | 146574
9 | 32:34.25 | 3:31.24 | 146575 | 162423
10 | 36:05.49 | 3:38.72 | 162424 | 178845

Range status and errors

Selected range

Filename C:UsersLondonDesktopRick Derringer - Guitars And Wonen.wav

Peak level 97.7 %
Extraction speed 7.8 X
Range quality 100.0 %
Test CRC C11A7566
Copy CRC C11A7566
Copy OK

No errors occurred

AccurateRip summary

Track 1 accurately ripped (confidence 5) [D3F7FEF8] (AR v2)
Track 2 accurately ripped (confidence 5) [ED323333] (AR v2)
Track 3 accurately ripped (confidence 5) [66922DC7] (AR v2)
Track 4 accurately ripped (confidence 5) [CAF6269C] (AR v2)
Track 5 accurately ripped (confidence 5) [520FF925] (AR v2)
Track 6 accurately ripped (confidence 5) [7C3E054B] (AR v2)
Track 7 accurately ripped (confidence 5) [7DA0A440] (AR v2)
Track 8 accurately ripped (confidence 5) [A114B606] (AR v2)
Track 9 accurately ripped (confidence 5) [DCA1C111] (AR v2)
Track 10 accurately ripped (confidence 5) [71198039] (AR v2)

All tracks accurately ripped

End of status report

---- CUETools DB Plugin V2.1.6

[CTDB TOCID: baS0DYDXybNUdOcvZGs_hsTB5zA-] found
Submit result: baS0DYDXybNUdOcvZGs_hsTB5zA- has been confirmed
Track | CTDB Status
1 | (6/6) Accurately ripped
2 | (6/6) Accurately ripped
3 | (6/6) Accurately ripped
4 | (6/6) Accurately ripped
5 | (6/6) Accurately ripped
6 | (6/6) Accurately ripped
7 | (6/6) Accurately ripped
8 | (6/6) Accurately ripped
9 | (6/6) Accurately ripped
10 | (6/6) Accurately ripped

==== Log checksum D400766E820474A9EB3B5D6315672001C2AA3256C2AD618A4E7AD150661E1B91 ====
1980 Face To Face 00

01. Runaway 4:37
02. You’ll Get Yours 4:59
03. Big City Loneliness ( 3:58
04. Burn The Midnight Oil 5:34
05. Let The Music Play 3:25
06. Jump, Jump, Jump 7:12
07. I Want A Lover 3:23
08. My My, Hey Hey (Out Of The Blue) 6:09
09. Let The Music Play (Mono) (Bonus Track) 3:25
eac
Exact Audio Copy V1.0 beta 6 from 9. April 2015

EAC extraction logfile from 11. August 2019, 8:22

Rick Derringer / Face To Face

Used drive : ATAPI iHAS122 C Adapter: 1 ID: 0

Read mode : Secure
Utilize accurate stream : Yes
Defeat audio cache : Yes
Make use of C2 pointers : No

Read offset correction : 6
Overread into Lead-In and Lead-Out : No
Fill up missing offset samples with silence : Yes
Delete leading and trailing silent blocks : No
Null samples used in CRC calculations : Yes
Used interface : Native Win32 interface for Win NT & 2000

Used output format : Internal WAV Routines
Sample format : 44.100 Hz; 16 Bit; Stereo

TOC of the extracted CD

Track | Start | Length | Start sector | End sector
---------------------------------------------------------
1 | 0:00.00 | 4:39.42 | 0 | 20966
2 | 4:39.42 | 5:00.68 | 20967 | 43534
3 | 9:40.35 | 3:59.55 | 43535 | 61514
4 | 13:40.15 | 5:36.23 | 61515 | 86737
5 | 19:16.38 | 3:26.66 | 86738 | 102253
6 | 22:43.29 | 7:14.50 | 102254 | 134853
7 | 29:58.04 | 3:25.43 | 134854 | 150271
8 | 33:23.47 | 6:12.48 | 150272 | 178219
9 | 39:36.20 | 3:25.07 | 178220 | 193601

Range status and errors

Selected range

Filename C:UsersLondonDesktopRick Derringer - Face To Face.wav

Peak level 93.4 %
Extraction speed 8.0 X
Range quality 100.0 %
Test CRC 886CAFF5
Copy CRC 886CAFF5
Copy OK

No errors occurred

AccurateRip summary

Track 1 accurately ripped (confidence 5) [6F1A3855] (AR v2)
Track 2 accurately ripped (confidence 5) [820704CF] (AR v2)
Track 3 accurately ripped (confidence 5) [FCA2087C] (AR v2)
Track 4 accurately ripped (confidence 5) [15FEE735] (AR v2)
Track 5 accurately ripped (confidence 5) [7B39A683] (AR v2)
Track 6 accurately ripped (confidence 5) (AR v2)
Track 7 accurately ripped (confidence 5) [FBB0BC94] (AR v2)
Track 8 accurately ripped (confidence 5) [86994FAB] (AR v2)
Track 9 accurately ripped (confidence 5) [DFDAE89D] (AR v2)

All tracks accurately ripped

End of status report

---- CUETools DB Plugin V2.1.6

[CTDB TOCID: ziGLJx66JKuCUs4vjyKRM2DN09Y-] found
Submit result: ziGLJx66JKuCUs4vjyKRM2DN09Y- has been confirmed
Track | CTDB Status
1 | (5/5) Accurately ripped
2 | (5/5) Accurately ripped
3 | (5/5) Accurately ripped
4 | (5/5) Accurately ripped
5 | (5/5) Accurately ripped
6 | (5/5) Accurately ripped
7 | (5/5) Accurately ripped
8 | (5/5) Accurately ripped
9 | (5/5) Accurately ripped

==== Log checksum 2D1450FC37ED0827AC02DF41F75FEFD198273570122394D246A6095104600226 ====
Музыка / Lossless / Рок, Панк, Метал, Альтернатива.
СКАЧАТЬ БЕСПЛАТНО  [1.2 GB]


14
ноя
2012

Rick Derringer-Jackhammer Blues [2000, Blues, Blues Rock, MP3]

Формат: MP3, tracks, 320kbps
Год выпуска: 2000
Страна: USA
Жанр: Blues, Blues Rock
Продолжительность: 00:55:29
Описание: 01 - Shake You Money Maker 02 - Wrapped Up In Love Again 03 - Yo've Got To love Her With Feeling 04 - Street Corner Talking 05 - Somebody Loan Me A Dime 06 - Just A Little Bit 07 - All You Love I Miss Loving 08 - Red Hot 09 - Crying Won't Help You Now 10 - Parchman Farm 11 - Texas

22
июн
2010

Rick Derringer - The Three Kings Of The Blues [2010, Hard Rock, Blues Rock, Christian Rock, FLAC]

Формат: FLAC, (image + .cue), lossless
Год выпуска: 2010
Страна: USA
Жанр: Hard Rock, Blues Rock, Christian Rock
Продолжительность: 00:51:21
Трэклист: 01. Just A Little Bit 03:08 02. Key To The Highway 03:37 03. Killing Floor 03:50 04. Let The Good Times Roll 04:06 05. Crying Won t Help You 05:05 06. Hideaway 1962 04:03 07. You ve Got To Love Her With A Feeling 05:30 08. Blues Power 03:17 09. Born Under A Bad Sign 03:50 10. Wrapped Up In Love Again 05:24 11. Something Inside Of Me 09:31 Отчёт EAC Rick Derringer - The Three Kings of the Blues Exact Audio Copy V0.99 prebeta 4 from 23. Janu ...

09
дек
2010

Rick Derringer - Guitars And Women [1978, Blues-Rock, FLAC]

Формат: FLAC, (image + .cue), lossless
Год выпуска: 1978
Страна: USA
Жанр: Blues-Rock
Продолжительность: 00:48:10
Описание:
Трэклист: 01. Don't Stop Loving Me 04:29 02. Guitars and Women 04:00 03. Still Alive and Well 04:02 04. Coming Home 05:10 05. Real American 03:13 06. Dawn of Love 03:39 07. Listen to the Lord 03:31 08. Turn on the Light 03:53 09. Band Introductions 01:43 10. Rhapsody in Red 08:43 Bonus Track: 11. Jump, Jump, Jump 07:43 12. Rock and Roll hoochie Koo 06:03
Доп. информация: Отчёт EAC Exact Audio Copy V0.99 prebeta 1 from 25. May 2007 Отчёт EAC об извлечении, выполненно ...

30
мар
2013

Rick Derringer,Tim Bogert,Carmine Appice (DBA) - The Sky Is Falling [2009, Hard Rock, Blues Rock, MP3]

Формат: MP3, tracks, 320kbps
Год выпуска: 2009
Страна: USA
Жанр: Hard Rock, Blues Rock
Продолжительность: 01:05:24
Описание: 01. Blood From A Stone [05:15] 02. The Sky Is Falling [04:23] 03. Grey Day [05:14] 04. Everybody's Comin' [03:59] 05. Bye Bye Baby [04:43] 06. Telling Me Lies [04:17] 07. Dawn Of Love [04:07] 08. Turn On The Light [04:18] 09. Boys Night Out [03:33] 10. Alone Now [06:30] 11. Rhapsody In Red [08:11] Bonus Track: 12. Hang On Sloopy [05:36] 13. Rock 'N' Roll Hoochie Coo [05:12]
Доп. информация: "Одна голова хорошо, две — лучше, а три — точно не хуже. Доказательством эт ...

05
дек
2010

Rick Derringer,Tim Bogert,Carmine Appice - The Sky Is Falling [2009, Blues-Rock, APE]

Формат: APE, (image + .cue), lossless
Год выпуска: 2009
Страна: USA
Жанр: Blues-Rock
Продолжительность: 01:05:24
Описание:
Трэклист: 01. Blood from a Stone 05:15 02. The Sky Is Falling 04:23 03. Grey Day 05:14 04. Everybody's Comin' 03:59 05. Bye Bye Baby 04:43 06. Telling Me Lies 04:17 07. Dawn of Love 04:07 08. Turn on the Light 04:18 09. Boys Night Out 03:33 10. Alone Now 06:30 11. Rhapsody in Red 08:11 12. Hang on Sloopy 05:36 13. Rock 'N' Roll Hoochie Coo 05:12
Доп. информация: Отчёт EAC Exact Audio Copy V0.99 prebeta 4 from 23. January 2008 Отчёт EAC об извлечении, выполненном 26. ...

04
янв
2012

Rick Derringer,Tim Bogert,Carmine Appice (DBA) - The Sky Is Falling [2009, Hard Rock,Blues Rock, FLAC]

Формат: FLAC, (image + .cue), lossless
Год выпуска: 2009
Страна: USA
Жанр: Hard Rock, Blues Rock
Продолжительность: 01:05:24
Описание:
Трэклист: 01. Blood From A Stone [0:05:15.07] 02. The Sky Is Falling [0:04:23.39] 03. Grey Day [0:05:14.62] 04. Everybody's Comin' [0:03:59.25] 05. Bye Bye Baby [0:04:43.20] 06. Telling Me Lies [0:04:17.60] 07. Dawn Of Love [0:04:07.68] 08. Turn On The Light [0:04:18.22] 09. Boys Night Out [0:03:33.53] 10. Alone Now [0:06:30.44] 11. Rhapsody In Red [0:08:11.21] Bonus Track 12. Hang On Sloopy [0:05:36.00] 13. Rock 'N' Roll Hoochie Coo [0:05:12.32] Доп. инфо ...

04
апр
2010

Electric Light Orchestra Family Albums:R.Wood,K.Groucutt+Projects-Solo Albums Часть 2[1968-2001 Rock,Pop-Rock FLAC,APE]

Формат: FLAC, (image + .cue) (tracks+.cue) lossless
Год выпуска: 1968 - 2001
Страна: England
Жанр: Glam rock, Rock'n'Roll, Rock, Pop-Rock
Продолжительность: 09:19:22 Albums: 1972 - Boulders (Remastered 2000) (39 Треклист 1. Songs Of Praise 2. Wake U 3. Rock Down Low 4. Nancy Sing Me A Song 5. Dear Elaine 6. a. All The Way Over The Hill; b. Irish Loafer (And His Hen) 7. Miss Clarke And The Compocer 8. When Gran'ma Plays The Banjo 9. Rock Medley: a. Rockin' Shoes; b. She's Too Good For Me; c. Locomotive Exact Audio Copy V0.99 prebeta 3 from 28. July 2007 Отчёт EAC об извлечении, выполненно ...

07
фев
2014

Владимир Высоцкий - Студийные записи (1973-1980) [1973-1980, Шансон, Авторская Песня, MP3]

Формат: MP3, tracks, 320kbps
Год выпуска: 1973-1980
Страна: СССР
Жанр: Шансон, Авторская Песня
Продолжительность: 04:20:48
Описание: 1973-1980 Москва (0101 - Корабли 02 - Дом хрустальный 03 - Я не люблю 04 - Здесь лапы у елей дрожат на весу... 05 - Она была в Париже 06 - Кони привередливые 07 - Скалолазка 08 - Утренняя гимнастика 09 - О переселении душ 10 - Ноль семь 11 - Москва-Одесса 12 - Цыганочка 13 - Черное золото 14 - Жираф или песенка ни про что 15 - Какой был день 16 - В холода, в холода 17 - Прощание с горами 18 - Ещё не вечер 19 - Затяжной прыжок 20 - Баллада о борьбе 21 - Этот день ...

22
мар
2018

Manfred Mann's Earth Band - Return To The Better (1973-1980) [2015, Progressive Rock, MP3]

Формат: MP3, tracks, 320kbps
Год выпуска: 2015
Страна: UK
Жанр: Progressive Rock
Продолжительность: 01:16:01
Описание: 01. Father Of Day, Father Of Night (Edited) (03:01) 02. Spirits In The Nigh (06:28) 03. Crossfade (03:32) 04. Visionary Mountains (05:42) 05. Blinded By The Light (07:07) 06. Questions (04:00) 07. Circles (04:47) 08. Chicago Institute (05:47) 09. California (Single Edit) (04:05) 10. Martha's Madmann (04:52) 11. Don't Kill It Carol (06:16) 12. Angels At My Gate (04:50) 13. Lies (04:36) 14. For You (05:42) 15. Hello, I Am Your Heart (05:17)
Доп. информация: Манфред Мэнн (Manfre ...

20
янв
2013

JOY - Collection (4CD) [2001 - 2012, Pop, Disco, MP3]

Формат: MP3, tracks, 320kbps
Год выпуска: 2001 - 2012
Страна: Austria
Жанр: Pop, Disco
Продолжительность: 04:08:11
Описание:
Трэклист: (2001) Grand Collection 0101. Touch Ty Touch [0:03:43.72] 02. Hello [0:04:08.11] 03. Valerie [0:04:08.50] 04. Cheek To Cheek [0:03:48.70] 05. Darling [0:04:37.15] 06. Kisses Are The Doctors Order [0:03:28.44] 07. Chinese Girls [0:03:34.63] 08. Gimme Gimme All Of You [0:03:50.23] 09. Magic Eyes [0:03:59.36] 10. Touch Me My Dear [0:03:40.62] 11. I'm In Love [0:03:55.25] 12. Night Of The Nights [0:04:31.45] 13. Japanese Girls [0:03:29.45] 14. Fire In The Night [ ...

29
апр
2011

Lindisfarne / The Charisma Years 1970-1973 (4CD Box Set) [2011, Classic Rock, Folk rock, FLAC]

Формат: FLAC, (image + .cue), lossless
Год выпуска: 2011
Страна: England
Жанр: Classic Rock, Folk rock
Продолжительность: 04:44:28
Описание: CD 1 01 1970 Nicely Out Of Tune 01. Lady Eleanor 02. Road To Kingdom Come 03. Winter Song 04. Turn A Deaf Ear 05. Clear White Light (Part 2) 06. We Can Swing Together 07. Alan In The River With Flowers 08. Down 09. The Things I Should Have Said 10. Jackhammer Blues 11. Scarecrow Song Bonus Tracks 12. Knackers Yard Blues (single b-side) 13. Nothing But The Marvellous Is Beautiful (single b-side) 14. From My Window (out take) 15. On My Own I Built A Brid ...

22
авг
2016

Atomic Rooster - 5 Albums Collection 1970-1973 (Mini LP SHM-CD Belle Antique Japan) [2016, Psychedelic Rock, Hard Rock, Blues Rock, Progressive Rock, Flac]

Формат: Flac, (image+ .cue), lossless
Год выпуска: 2016
Страна: UK
Жанр: Psychedelic Rock, Hard Rock, Blues Rock, Progressive Rock
Продолжительность: 04:17:17
Описание: 1970 - Atomic Rooster (00 01. Friday The Thirteenth 03:35 02. And So To Bed 04:12 03. Broken Wings 05:50 04. Before Tomorrow 05:54 05. Banstead 03:29 06. S.L.Y. 04:45 07. Winter 06:57 08. Decline & Fall 05:53 Bonus Tracks: 09. Friday 13th (US Version) 03:31 10. Before Tomorrow (US Version) 05:51 11. S.L.Y. (US Version) 04:57 Vincent Crane - Hammond organ, piano, backing vocals Carl Palmer - drums, percussion Nick Graham - ba ...

16
сен
2012

Elton John - 5 Classic Albums (1970-1973) [2012, Rock, FLAC]

Формат: FLAC, (image + .cue), lossless
Год выпуска: 2012
Страна: UK
Жанр: Rock
Продолжительность: 04:21:13
Описание: 1970 Elton John 50 01. Your Song 02. I Need You To Turn To 03. Take Me To The Pilot 04. No Shoe Strings On Louise 05. First Episode At Hienton 06. Sixty Years On 07. Border Song 08. The Greatest Discovery 09. The Cage 10. The King Must Die Bonus Tracks 11. Bad Side Of The Moon 12. Grey Seal 13. Rock 'n' Roll Madonna EACExact Audio Copy V1.0 beta 1 from 15. November 2010 EAC extraction logfile from 13. September 2012, 22:26 Elton John / Elton John (5 Classic Albums, Box Set) ...

19
дек
2009

Celtic Woman The Greatest Journey and Solo Albums [2009, Celtic, Operatic Pop, MP3]

Формат: MP3, tracks, 192-320kbps [VBR]
Год выпуска: 2009
Страна: Ирландия
Жанр: Celtic, Operatic Pop
Продолжительность: 6:12:45 Альбом The Greatest Journey01 Celtic Woman The Call 0:04:19 02 Celtic Woman Pie Jesu 0:03:31 03 Celtic Woman Harry's Game 0:02:31 04 Celtic Woman The Butterfly 0:03:02 05 Celtic Woman The Voice 0:03:07 06 Celtic Woman Danny Boy 0:03:26 07 Celtic Woman Orinoco Flow 0:03:33 08 Celtic Woman You Raise Me Up 0:04:41 09 Celtic Woman Shenandoah-The Contradiction 0:04:04 10 Celtic Woman The Isle Of The Inisfree 0:03:28 11 Celtic Woman Dulaman 0:03:06 12 Celtic Woman Green The ...

17
сен
2012

Gentle Giant - I Lost My Head: The Chrysalis Years 1975-1980 (4CD Box Set) [2012, Rock, Progressive Rock, FLAC]

Формат: FLAC, (image+ .cue), lossless
Год выпуска: 2012
Страна: UK
Жанр: Rock, Progressive Rock
Продолжительность: 04:50:10
Описание: Disc One 01
Трeклист: 1975 Free Hand: 01. Just The Same 05:33 02. On Reflection 05:42 03. Free Hand 06:12 04. Time To Kill 05:07 05. His Last Voyage 06:26 06. Talybont 02:42 07. Mobile 05:02 Bonus Tracks: 08. 1976 Intro Tape (Previously Unreleased) 01:26 09. Just The Same (John Peel Session) 05:59 10. Free Hand (John Peel Session) 06:05 11. On Reflection (John Peel Session) 05:44 12. Give It Back (International 7" Mix) 03:46 13. I Lost My Head (7 ...