03
ноя
2016

Niva - Atmospherical (Japanese Edition) [2016, Melodic Hard Rock, AOR, FLAC]

Niva - Atmospherical
Формат: FLAC, (image + .cue), lossless
Год выпуска: 2016
Страна: Sweden
Жанр: Melodic Hard Rock, AOR
Продолжительность: 00:44:31
Описание:

01. Dressed To Kill 4:18
02. Deja Vu 3:23
03. Spirit Of The Night 4:27
04. Forbidden Lover 4:48
05. I’m On A Roll 3:29
06. Evil Rose 4:21
07. Raise Your Voice 3:23
08. The Mountain 4:39
09. Play Our Songs 4:17
10. Wall Of Bricks 3:36
11. Long Road To Hell & Back (Japanese bonus track) 3:52


Доп. информация:

Отчет EAC
Exact Audio Copy V1.0 beta 3 from 29. August 2011

EAC extraction logfile from 29. October 2016, 17:24

Niva / Atmospherical

Used drive : SlimtypeDVD A DS8A5SH Adapter: 0 ID: 0

Read mode : Secure
Utilize accurate stream : Yes
Defeat audio cache : Yes
Make use of C2 pointers : No

Read offset correction : 6
Overread into Lead-In and Lead-Out : No
Fill up missing offset samples with silence : Yes
Delete leading and trailing silent blocks : No
Null samples used in CRC calculations : Yes
Used interface : Installed external ASPI interface

Used output format : User Defined Encoder
Selected bitrate : 320 kBit/s
Quality : High
Add ID3 tag : No
Command line compressor : C:Program Files (x86)Exact Audio CopyFlacflac.exe
Additional command line options : -V -8 -T "Date=%year%" -T "Genre=%genre%" %source%

TOC of the extracted CD

Track | Start | Length | Start sector | End sector
---------------------------------------------------------
1 | 0:00.00 | 4:17.52 | 0 | 19326
2 | 4:17.52 | 3:22.41 | 19327 | 34517
3 | 7:40.18 | 4:26.46 | 34518 | 54513
4 | 12:06.64 | 4:48.14 | 54514 | 76127
5 | 16:55.03 | 3:29.27 | 76128 | 91829
6 | 20:24.30 | 4:20.48 | 91830 | 111377
7 | 24:45.03 | 3:22.58 | 111378 | 126585
8 | 28:07.61 | 4:38.45 | 126586 | 147480
9 | 32:46.31 | 4:17.28 | 147481 | 166783
10 | 37:03.59 | 3:35.70 | 166784 | 182978
11 | 40:39.54 | 3:51.38 | 182979 | 200341

Range status and errors

Selected range

Filename D:My MusicNiva - 2016 AtmosphericalNiva - Atmospherical.wav

Peak level 98.6 %
Extraction speed 4.1 X
Range quality 100.0 %
Test CRC AA812459
Copy CRC AA812459
Copy OK

No errors occurred

AccurateRip summary

Track 1 not present in database
Track 2 not present in database
Track 3 not present in database
Track 4 not present in database
Track 5 not present in database
Track 6 not present in database
Track 7 not present in database
Track 8 not present in database
Track 9 not present in database
Track 10 not present in database
Track 11 not present in database

None of the tracks are present in the AccurateRip database

End of status report

==== Log checksum 7E3412346538AB064B40CEB3F4C957BD1DB56F2FE4640A0BB2FAE53D35D1FCA3 ====
Музыка / Lossless / Рок, Панк, Метал, Альтернатива.
СКАЧАТЬ БЕСПЛАТНО  [406.2 MB]


04
ноя
2016

Niva - Дискография [2011 - 2016, Hard Rock, MP3]

Формат: MP3, tracks, 320kbps
Год выпуска: 2011 - 2016
Страна: Швеция
Жанр: Hard Rock
Продолжительность: 03:42:23
Описание: 2011 - Gold From The Future, 00 01. Janitor Of Love 02. Anything For You 03. When Tomorrow Never Comes 04. I Remember 05. Gold From The Future 06. We Must Fight 07. I Wanna Know For Sure 08. Final Warning 09. Best Days Of Our Lives 10. You 11. Bring Back The Joy 2013 - Magnitude, 00 01. Never Too Late 02. Perfect Life 03. My First And Only One 04. Just Another Heartache 05. In A Misty Light 06. Always Somewhere 07. Let It Shine 08. Spanish Lullaby 09. Do It Again 10. Neve ...

13
сен
2013

Niva - Gravitation (Japanese Edition) [2013, Melodic Hard Rock, AOR, MP3]

Формат: MP3, tracks, 320kbps
Год выпуска: 2013
Страна: Sweden
Жанр: Melodic Hard Rock, AOR
Продолжительность: 00:43:00
Описание: 01. Never Too Late (3:35) 02. Perfect Life (3:32) 03. My First And Only One (3:53) 04. Just Another Heartache (3:03) 05. In A Misty Light (4:26) 06. Always Somewhere (3:48) 07. Let It Shine (3:13) 08. Spanish Lullaby (3:26) 09. Do It Again (3:21) 10. Never Say Goodbye (3:38) 11. I Feel So Alone (3:43) 12. Love Online (Bonus Track) (3:16)

23
июл
2014

Niva - Incremental IV (Japanese Edition) [2014, Melodic Hard Rock, MP3]

Формат: MP3, tracks, 320kbps
Год выпуска: 2014
Страна: Sweden
Жанр: Melodic Hard Rock
Продолжительность: 00:45:47
Описание: 01. Don’t You Know 02. Crush 03. Better Just Forgotten 04. Magnitude 05. The Reason Why 06. Travel Back In Time 07. Play The Game 08. Only You 09. Lost And Found 10. All By Myself 11. Coming Back To You 12. In The Ray Of Light (Bonus Only Japan) 13. Leading Me On Again (Bonus Only Japan)