19
мая
2017

Nick Cave And The Bad Seeds Lovely Creatures (The Best Of Nick Cave And The Bad Seeds) (1984 2014) (3CD Box Set, Deluxe Edition) [2017, Rock, Alternative Rock, Post-Punk, Punk, FLAC]

Nick Cave And The Bad Seeds Lovely Creatures (1984 2014) (3CD Box Set, Deluxe Edition)
Формат: FLAC, (image + .cue), lossless
Год выпуска: 2017
Страна: Australia
Жанр: Rock, Alternative Rock, Post-Punk, Punk
Продолжительность: 03:48:16
Описание:
CD 1 1984-1993 01
Nick Cave And The Bad Seeds Lovely Creatures
01. From Her To Eternity
02. In The Ghetto
03. Tupelo
04. I’m Gonna Kill That Woman
05. The Carny
06. Sad Waters
07. Stranger Than Kindness
08. Scum
09. The Mercy Seat
10. Deanna
11. Up Jumped The Devil
12. The Weeping Song
13. The Ship Song
14. Papa Won’t You Leave, Henry
15. Straight To You


Tracks 01-08 2009 Remastered Version
Tracks 09-15 2010 Remastered Version

eac
Exact Audio Copy V1.1 from 23. June 2015

EAC extraction logfile from 16. May 2017, 18:07

Nick Cave & The Bad Seeds / Lovely Creatures CD1

Used drive : PLEXTOR BD-R PX-B950SA Adapter: 1 ID: 1

Read mode : Secure
Utilize accurate stream : Yes
Defeat audio cache : Yes
Make use of C2 pointers : No

Read offset correction : 6
Overread into Lead-In and Lead-Out : No
Fill up missing offset samples with silence : Yes
Delete leading and trailing silent blocks : No
Null samples used in CRC calculations : Yes
Used interface : Native Win32 interface for Win NT & 2000

Used output format : Internal WAV Routines
Sample format : 44.100 Hz; 16 Bit; Stereo

TOC of the extracted CD

Track | Start | Length | Start sector | End sector
---------------------------------------------------------
1 | 0:00.00 | 5:35.15 | 0 | 25139
2 | 5:35.15 | 4:06.45 | 25140 | 43634
3 | 9:41.60 | 7:16.24 | 43635 | 76358
4 | 16:58.09 | 3:44.24 | 76359 | 93182
5 | 20:42.33 | 8:00.73 | 93183 | 129255
6 | 28:43.31 | 4:59.34 | 129256 | 151714
7 | 33:42.65 | 4:46.60 | 151715 | 173224
8 | 38:29.50 | 2:54.74 | 173225 | 186348
9 | 41:24.49 | 7:18.06 | 186349 | 219204
10 | 48:42.55 | 3:46.38 | 219205 | 236192
11 | 52:29.18 | 5:18.13 | 236193 | 260055
12 | 57:47.31 | 4:25.11 | 260056 | 279941
13 | 62:12.42 | 5:14.11 | 279942 | 303502
14 | 67:26.53 | 5:55.67 | 303503 | 330194
15 | 73:22.45 | 4:35.02 | 330195 | 350821

Range status and errors

Selected range

Filename C:UsersMeijinDesktopLossless Galaxy ALLexxessNick Cave2017 Lovely Creatures (3CD + DVD Box Set Mute Records)CD1Nick Cave & The Bad Seeds - Lovely Creatures CD1.wav

Peak level 100.0 %
Extraction speed 2.2 X
Range quality 100.0 %
Test CRC AFD8D7D9
Copy CRC AFD8D7D9
Copy OK

No errors occurred

AccurateRip summary

Track 1 not present in database
Track 2 not present in database
Track 3 not present in database
Track 4 not present in database
Track 5 not present in database
Track 6 not present in database
Track 7 not present in database
Track 8 not present in database
Track 9 not present in database
Track 10 not present in database
Track 11 not present in database
Track 12 not present in database
Track 13 not present in database
Track 14 not present in database
Track 15 not present in database

None of the tracks are present in the AccurateRip database

End of status report

---- CUETools DB Plugin V2.1.6

[CTDB TOCID: KrdIiX0pOAKY76OqEMB_e4hse6g-] found
Submit result: KrdIiX0pOAKY76OqEMB_e4hse6g- has been confirmed
Track | CTDB Status
1 | (27/27) Accurately ripped
2 | (27/27) Accurately ripped
3 | (27/27) Accurately ripped
4 | (27/27) Accurately ripped
5 | (27/27) Accurately ripped
6 | (27/27) Accurately ripped
7 | (27/27) Accurately ripped
8 | (27/27) Accurately ripped
9 | (27/27) Accurately ripped
10 | (27/27) Accurately ripped
11 | (27/27) Accurately ripped
12 | (27/27) Accurately ripped
13 | (26/27) Accurately ripped
14 | (26/27) Accurately ripped
15 | (26/27) Accurately ripped

==== Log checksum 03EBD42C91E92BD71DFAE54CF7E7DB652DA0A3435D04F3230B02FB200BFD3ADB ===
CD 2 1994-2003 01
Nick Cave And The Bad Seeds Lovely Creatures
01. Do You Love Me?
02. Nobody’s Baby Now
03. Loverman
04. Red Right Hand
05. Stagger Lee
06. Where The Wild Roses Grow (With Kylie Minogue)
07. Into My Arms
08. People Ain’t No Good
09. Brompton Oratory
10. (Are You) The One That I’ve Been Waiting For?
11. Come Into My Sleep
12. Love Letter
13. God Is In The House
14. He Wants You
15. Shoot Me Down

Tracks 01-13 2011 Remastered Version
eac
Exact Audio Copy V1.1 from 23. June 2015

EAC extraction logfile from 16. May 2017, 13:50

Nick Cave & The Bad Seeds / Lovely Creatures CD2

Used drive : PLEXTOR BD-R PX-B950SA Adapter: 1 ID: 1

Read mode : Secure
Utilize accurate stream : Yes
Defeat audio cache : Yes
Make use of C2 pointers : No

Read offset correction : 6
Overread into Lead-In and Lead-Out : No
Fill up missing offset samples with silence : Yes
Delete leading and trailing silent blocks : No
Null samples used in CRC calculations : Yes
Used interface : Native Win32 interface for Win NT & 2000

Used output format : Internal WAV Routines
Sample format : 44.100 Hz; 16 Bit; Stereo

TOC of the extracted CD

Track | Start | Length | Start sector | End sector
---------------------------------------------------------
1 | 0:00.00 | 5:57.13 | 0 | 26787
2 | 5:57.13 | 3:52.26 | 26788 | 44213
3 | 9:49.39 | 6:21.36 | 44214 | 72824
4 | 16:11.00 | 6:10.43 | 72825 | 100617
5 | 22:21.43 | 5:15.11 | 100618 | 124253
6 | 27:36.54 | 3:57.06 | 124254 | 142034
7 | 31:33.60 | 4:15.16 | 142035 | 161175
8 | 35:49.01 | 5:42.46 | 161176 | 186871
9 | 41:31.47 | 4:06.41 | 186872 | 205362
10 | 45:38.13 | 4:05.35 | 205363 | 223772
11 | 49:43.48 | 3:48.70 | 223773 | 240942
12 | 53:32.43 | 4:05.36 | 240943 | 259353
13 | 57:38.04 | 5:42.57 | 259354 | 285060
14 | 63:20.61 | 3:31.07 | 285061 | 300892
15 | 66:51.68 | 4:02.71 | 300893 | 319113

Range status and errors

Selected range

Filename C:UsersMeijinDesktopLossless Galaxy ALLexxessNick Cave2017 Lovely Creatures (3CD + DVD Box Set Mute Records)CD2Nick Cave & The Bad Seeds - Lovely Creatures CD2.wav

Peak level 99.8 %
Extraction speed 2.5 X
Range quality 99.9 %
Test CRC EAD5792A
Copy CRC EAD5792A
Copy OK

No errors occurred

AccurateRip summary

Track 1 not present in database
Track 2 not present in database
Track 3 not present in database
Track 4 not present in database
Track 5 not present in database
Track 6 not present in database
Track 7 not present in database
Track 8 not present in database
Track 9 not present in database
Track 10 not present in database
Track 11 not present in database
Track 12 not present in database
Track 13 not present in database
Track 14 not present in database
Track 15 not present in database

None of the tracks are present in the AccurateRip database

End of status report

---- CUETools DB Plugin V2.1.6

[CTDB TOCID: lxw0N1U7Boph_8tySNqbpaZtg8E-] found
Submit result: lxw0N1U7Boph_8tySNqbpaZtg8E- has been confirmed
Track | CTDB Status
1 | (25/25) Accurately ripped
2 | (25/25) Accurately ripped
3 | (25/25) Accurately ripped
4 | (25/25) Accurately ripped
5 | (25/25) Accurately ripped
6 | (25/25) Accurately ripped
7 | (25/25) Accurately ripped
8 | (25/25) Accurately ripped
9 | (24/25) Accurately ripped
10 | (25/25) Accurately ripped
11 | (25/25) Accurately ripped
12 | (25/25) Accurately ripped
13 | (25/25) Accurately ripped
14 | (24/25) Accurately ripped
15 | (25/25) Accurately ripped

==== Log checksum A881619D91472647B7FA7C11A44BB61F87946B42C494D44A5266AA795F9F8585 ====
CD 3 2004-2013 01
Nick Cave And The Bad Seeds Lovely Creatures
01. Hiding All Away
02. There She Goes, My Beautiful World
03. Nature Boy
04. Breathless
05. Babe, You Turn Me On
06. O Children
07. Dig, Lazarus, Dig!!!
08. Night Of The Lotus Eaters
09. We Call Upon The Author
10. Jesus Of The Moon
11. More News From Nowhere
12. We No Who U R
13. Jubilee Street
14. Higgs Boson Blues
15. Push The Sky Away

eac
Exact Audio Copy V1.1 from 23. June 2015

EAC extraction logfile from 15. May 2017, 21:08

Nick Cave & The Bad Seeds / Lovely Creatures CD3

Used drive : Optiarc DVD RW AD-7280S Adapter: 1 ID: 0

Read mode : Secure
Utilize accurate stream : Yes
Defeat audio cache : Yes
Make use of C2 pointers : No

Read offset correction : 48
Overread into Lead-In and Lead-Out : No
Fill up missing offset samples with silence : Yes
Delete leading and trailing silent blocks : No
Null samples used in CRC calculations : Yes
Used interface : Native Win32 interface for Win NT & 2000

Used output format : Internal WAV Routines
Sample format : 44.100 Hz; 16 Bit; Stereo

TOC of the extracted CD

Track | Start | Length | Start sector | End sector
---------------------------------------------------------
1 | 0:00.00 | 6:31.70 | 0 | 29394
2 | 6:31.70 | 5:17.02 | 29395 | 53171
3 | 11:48.72 | 4:54.30 | 53172 | 75251
4 | 16:43.27 | 3:13.65 | 75252 | 89791
5 | 19:57.17 | 4:21.32 | 89792 | 109398
6 | 24:18.49 | 6:45.63 | 109399 | 139836
7 | 31:04.37 | 4:13.49 | 139837 | 158860
8 | 35:18.11 | 4:54.05 | 158861 | 180915
9 | 40:12.16 | 5:12.14 | 180916 | 204329
10 | 45:24.30 | 3:22.72 | 204330 | 219551
11 | 48:47.27 | 7:57.64 | 219552 | 255390
12 | 56:45.16 | 4:04.58 | 255391 | 273748
13 | 60:49.74 | 6:35.72 | 273749 | 303445
14 | 67:25.71 | 7:50.49 | 303446 | 338744
15 | 75:16.45 | 4:06.27 | 338745 | 357221

Range status and errors

Selected range

Filename C:UsersMeijinDesktopLossless Galaxy ALLexxessNick Cave2017 Lovely Creatures (3CD + DVD Box Set Mute Records)CD3Nick Cave & The Bad Seeds - Lovely Creatures CD3.wav

Peak level 97.7 %
Extraction speed 4.0 X
Range quality 100.0 %
Test CRC A90270DA
Copy CRC A90270DA
Copy OK

No errors occurred

AccurateRip summary

Track 1 not present in database
Track 2 not present in database
Track 3 not present in database
Track 4 not present in database
Track 5 not present in database
Track 6 not present in database
Track 7 not present in database
Track 8 not present in database
Track 9 not present in database
Track 10 not present in database
Track 11 not present in database
Track 12 not present in database
Track 13 not present in database
Track 14 not present in database
Track 15 not present in database

None of the tracks are present in the AccurateRip database

End of status report

---- CUETools DB Plugin V2.1.6

[CTDB TOCID: .VFFfupELj4PIM7SgX3nvIDXjZo-] found
Submit result: .VFFfupELj4PIM7SgX3nvIDXjZo- has been confirmed
Track | CTDB Status
1 | (25/25) Accurately ripped
2 | (25/25) Accurately ripped
3 | (25/25) Accurately ripped
4 | (25/25) Accurately ripped
5 | (25/25) Accurately ripped
6 | (25/25) Accurately ripped
7 | (25/25) Accurately ripped
8 | (25/25) Accurately ripped
9 | (25/25) Accurately ripped
10 | (25/25) Accurately ripped
11 | (25/25) Accurately ripped
12 | (25/25) Accurately ripped
13 | (25/25) Accurately ripped
14 | (24/25) Accurately ripped
15 | (23/25) Accurately ripped

==== Log checksum B7B35CA4740F76897186C003ADECD8A47B9F9E2848B22B3624AA15E1E8521BAB ====


Доп. информация:
Об альбоме
Super deluxe, limited edition 45 track triple CD and 2 hour DVD featuring live performances, rare footage and interviews.
Also includes a 256 page hardback book of exclusive essays, previously unseen photos and reproductions of memorabilia.
Музыка / Lossless / Рок, Панк, Метал, Альтернатива.
СКАЧАТЬ БЕСПЛАТНО  [3.3 GB]


19
мая
2017

Nick Cave The Bad Seeds - Lovely Creatures (The Best Of Nick Cave The Bad Seeds 1984-2014) [2017, Alternative Rock, Post-Punk, Punk, DVD9]

Формат: DVD9, DVD Video, MPEG2, LPCM
Песня: Lovely Creatures (The Best Of Nick Cave & The Bad Seeds 1984-2014)
Жанр: Alternative Rock, Post-Punk, Punk
Продолжительность: 02:05:01
Год выпуска: 2017
Видео: 720 x 480 (NTSC 16:9) at 23.970 fps, MPEG-2, ~ 5872 Kbps, 0,567 bit/pixel
Аудио: LPCM , 1536 Kbps, 48.0 KHz, 2 ch
Доп. информация: Треклист 01. Interview (Kippevel, Netherlands, 1988) 02. Night Of The Lotus Eaters (Docks des Suds, Marseilles, France, 2008; Live) 03. Red Right Hand (Glastonbury Festival, UK, 1998; Live) 04. The Weeping Song (Glasgow TV Studios, UK 2001; Live) 05. Interview (N ...

09
мая
2015

Nick Cave The Bad Seeds Live Amsterdam 1984 He Put A Spell On Us [1992, Alternative Rock, Punk, Avantgarde, Goth Rock, MP3]

Формат: MP3, tracks, 224kbps
Год выпуска: 1992
Страна: Австралия
Жанр: Alternative Rock, Punk, Avantgarde, Goth Rock
Продолжительность: 01:00:13
Описание: 01. Well Of Misery [7:01] 02. Sad Dark Eyes [2:58] 03. Blind Lemon Jefferson [8:02] 04. Wanted Man [5:12] 05. Say Goodbye To The Little Girl Tree [5:36] 06. Knockin' On Joe [9:45] 07. Train Long-Suffering [5:24] 08. Saint Huck [10:53] 09. I Put A Spell On You [5:22]
Доп. информация: Tracks 3, 5, 6, 7, and 8 are misprinted on artwork & the spine says "'84 Amsterdam". This is *not* from 1984, nor from Amsterdam, but from Rotterdam, De Doelen, ...

22
фев
2010

Nick Cave The Bad Seeds - The Videos [2004, Alternative, DVDRip]

Формат: DVDRip, AVI, XviD, MP3
Песня: The Videos
Жанр: Alternative
Продолжительность: 01:28:00
Год выпуска: 2004
Видео: 704x512 (1.38:1), 23.976 fps, XviD MPEG-4 ~2747 kbps avg, 0.32 bit/pixel
Аудио: 44.100 kHz, MPEG Layer 3, 2 ch, ~256.00 kbps avg
Доп. информация: 20 видеоклипов Tracklist: Раскрыть 1. Stagger Lee 2. Where The Wild Roses Grow 3. Into My Arms 4. (Are You) The One That I've Been Waiting For? 5. Henry Lee 6. Red Right Hand 7. Loverman 8. Do You Love Me? 9. Deanna 10. The Ship Song 11. Tupelo 12. In The Ghetto 13. Jack The Ripper 14. What A Wonderful World 15. Straight To ...

08
мая
2015

Nick Cave And The Bad Seeds The Funeral Tour [1992, Alternative Rock, MP3]

Формат: MP3, tracks, 224kbps
Год выпуска: 1992
Страна: Австралия
Жанр: Alternative Rock
Продолжительность: 00:47:09
Описание: 01. I'm Gonna Kill That Woman [4:15] 02. Your Funeral My Trial [4:20] 03. She Fell Away [4:40] 04. Long Time Man [5:58] 05. All Tomorrows Parties [6:05] 06. Sad Waters [5:07] 07. The Singer [2:45] 08. By The Time I Get To Phoenix [4:18] 09. Stranger Than Kindness [4:29] 10. The Carnival Is Over [3:12]
Доп. информация: Recorded Live during the 1986 "Your Funeral My Trial" promotional tour, Bochum, Zeche, 26 September 86.

07
окт
2009

Nick Cave and The Bad Seeds - Murder Ballads [1996, Punk-Rock, MP3]

Формат: MP3, tracks, CBR 320kbps
Год выпуска: 1996
Страна: usa
Жанр: Punk-Rock
Продолжительность: 00:58:57 TrackList: 01. Song Of Joy (6:47) 02. Stagger Lee (5:15) 03. Henry Lee (with PJ Harvey) (3:58 ) 04. Lovely Creature (4:14) 05. Where The Wild Roses Grow (with Kylie Minogue) (3:57) 06. The Curse Of Millhaven (6:56) 07. The Kindness Of Strangers (4:39) 08. Crow Jane (4:15) 09. O'Malley's Bar (14:28 ) 10. Death Is Not The End (with PJ Harvey, Shane MacGowan, Kylie Minogue) (4:29)

08
сен
2016

Nick Cave the Bad Seeds - Skeleton Tree [2016, Alternative Rock, Post-Punk, MP3]

Формат: MP3, tracks, 320kbps
Год выпуска: 2016
Страна: Australia
Жанр: Alternative Rock, Post-Punk
Продолжительность: 00:39:45
Описание: 01. Jesus Alone 02. Rings of Saturn 03. Girls in Amber 04. Magneto 05. Anthrocene 06. I Need You 07. Distant Sky 08. Skeleton Tree
Доп. информация: http://www.nickcave.com/

21
фев
2013

Nick Cave And The Bad Seeds - Push The Sky Away (Web) [2013, Alternative rock, MP3]

Формат: MP3, tracks, 320kbps
Год выпуска: 2013
Страна: Австралия
Жанр: Alternative rock
Продолжительность: 00:42:49
Описание: 1. We No Who U R 2. Wide Lovely Eyes 3. Water's Edge 4. Jubilee Street 5. Mermaids 6. We Real Cool 7. Finishing Jubilee Street 8. Higgs Boson Blues 9. Push The Sky Away
Доп. информация: Push the Sky Away - предстоящий пятнадцатый студийный альбом австралийской альтернативной рок-группы Nick Cave and the Bad Seeds, который должен быть выпущен 18 февраля 2013 года на собственном лейбле группы Bad Seed Ltd. Альбом записан в студии La Fabrique на юге Франции, это первый ал ...

05
фев
2016

Nick Cave The Bad Seeds - Ring Of Wild Roses [1996, Alternative Rock, MP3]

Формат: MP3, tracks, 320kbps
Год выпуска: 1996
Страна: Australia
Жанр: Alternative Rock
Продолжительность: 00:59:00
Описание: 01. Brother My Cup Is Empty 02. Loverman 03. Mercy 04. Your Funeral, My Trial 05. Where The Wild Roses Grow 06. The Weeping Song 07. The Mercy Seat 08. Nobody's Baby Now 09. Jack The Ripper 10. Stagger Lee 11. Henry Lee 12. Do You Love Me? 13. Into My Arms 14. Where The Wild Roses Grow
Доп. информация: Unofficial Release. Recorded Live: Tracks 1-9: Bizarre Festival, Germany, Aug. 17th, 1996. Tracks 10-11: White Room, London, Jan. 1996. Tracks 12-14: Brixton Academy, Lo ...

08
мая
2015

Nick Cave And The Bad Seeds - Live At Vicar Street [2003, Alternative Rock, MP3]

Формат: MP3, tracks, 192kbps
Год выпуска: 2003
Страна: Австралия
Жанр: Alternative Rock
Продолжительность: 01:40:31
Описание: 01. Wonderful Life [6:42] 02. Sad Waters [4:55] 03. Halleujah [6:54] 04. The Singer [4:16] 05. Henry Lee [5:08] 06. Dolphins [5:27] 07. Darker With The Day [6:30] 08. The Mercy Seat [6:47] 09. God Is In The House [6:39] 10. Do You Love Me (Part 2) [6:00] 11. Stagger Lee [10:02] 12. Into My Arms [4:39] 13. West Country Girl [4:36] 14. Wild World [10:55] 15. The Ship Song [5:05] 16. Jack The Ripper [5:56]
Доп. информация: Recorded Live at Vicar Street, Dublin, Ireland 20 ...

21
июн
2015

Nick Cave The Bad Seeds - Live @ Big Day Out Festival [25.01.1996, Alternative Rock, MP3]

Формат: MP3, tracks, 320kbps
Год выпуска: 25.01.1996
Страна: Австралия
Жанр: Alternative Rock
Продолжительность: 00:29:06
Описание: 01 Do You Love Me? [4:52] 02 Mercy [4:56] 03 Loverman [5:08] 04 Red Right Hand [5:45] 05 Where The Wild Roses Grow [4:01] 06 The Weeping Song [4:24]

11
янв
2008

Nick cave the bad seeds (1985-1997) (1997) [mp3, 128]

Страна: Австралия
Год выпуска: 1997
Жанр: панк
Продолжительность: более 8 часов
Формат: MP3
Битрейт аудио: 128 кбит/сек
Трэклист: 1985 The First Born Is Dead 1. Tupelo 07:17 2. Say Goodbye to the Little Girl Tree 05:10 3. Train Long-Suffering 03:49 4. Black Crow King 05:05 5. Knockin' On Joe 07:38 6. Wanted Man 05:27 7. Blind Lemon Jefferson 06:10 8. TheSix Strings That Drew Blood 04:49 9. Tupelo (singl version) 1986 Kicking Against The Pricks 1. Muddy Water 05:15 2. I'm Gonna Kill That Woman 03:44 3. Sleeping Annaleah 03:18 4. Long Black Veil 03:46 5. Hey Joe 03:56 6. The Sin ...

08
янв
2016

Allman Brothers Band - Idlewild South (3CD + Blu-ray Audio 45th Anniversary Super Deluxe Edition Box Set) [2015, Blues Rock, FLAC]

Формат: FLAC, (image + .cue), lossless
Год выпуска: 2015
Страна: USA
Жанр: Blues Rock
Продолжительность: 02:44:50
Описание: Idlewild South 0001. Revival 04:06 02. Don't Keep Me Wonderin' 03:31 03. Midnight Rider 03:00 04. In Memory Of Elizabeth Reed 06:59 05. Hoochie Coochie Man 04:58 06. Please Call Home 04:02 07. Leave My Blues At Home 04:20 Bonus 08. Statesboro Blues (Session Outtake) 04:10 09. In Memory Of Elizabeth Reed (Alternate Take) 08:20 10. One More Ride (Session Outtake) 03:48 11. Midnight Rider (Alternate Mix) 03:42 12. Revival (Love Is Everywhere) (Mono Single Version) 02:39 eac ...

24
фев
2008

Nick Cave And The Bad Seeds - Dig Lazarus Dig [mp3-vbr-2008] (2008) [mp3, 192]

Год выпуска: 2008
Жанр: Rock
Формат: MP3
Битрейт аудио: 192-320 VBR
Продолжительность звучания: 53:30
Трэклист: 1. Dig, Lazarus, Dig!!! 2. Today's Lesson 3. Moonland 4. Night Of The Lotus Eaters 5. Albert Goes West 6. We Call Upon The Author 7. Hold On To Yourself 8. Lie Down Here (And Be My Girl) 9. Jesus Of The Moon 10. Midnight Man 11. More News From Nowhere
Доп. информация: Любимейший певец мальчика Бананана.

21
апр
2013

Heaven Shall Burn - Veto (Ltd. Edition 3CD Box Set) [2013, Melodic Death Metal, Metalcore, FLAC]

Формат: FLAC, tracks, lossless
Год выпуска: 2013
Страна: Germany
Жанр: Melodic Death Metal, Metalcore
Продолжительность: 02:44:25
Описание: Disk 01. Godiva 02. Land Of The Upright Ones 03. Die Strme Rufen Dich 04. Fallen 05. Hunters Will Be Hunted 06. You Will Be Godless 07. Valhalla (Blind Guardian cover) 08. Antagonized 09. Like Gods Among Mortals 10. 53 Nations 11. Beyond Redemption 12. European Super State (Bonus track) Лог создания рипа Exact Audio Copy V1.0 beta 3 from 29. August 2011 EAC extraction logfile from 18. April 2013, 20:39 Heaven Shall Burn / Veto Used drive : HL-DT-STDVD ...

19
апр
2013

Heaven Shall Burn - Veto (Ltd. Edition 3CD Box Set) [2013, Melodic Death Metal, Metalcore, MP3]

Формат: MP3, tracks, 320kbps
Год выпуска: 2013
Страна: Germany
Жанр: Melodic Death Metal, Metalcore
Продолжительность: 02:44:25
Описание: Disk 01. Godiva 02. Land Of The Upright Ones 03. Die Strme Rufen Dich 04. Fallen 05. Hunters Will Be Hunted 06. You Will Be Godless 07. Valhalla (Blind Guardian cover) 08. Antagonized 09. Like Gods Among Mortals 10. 53 Nations 11. Beyond Redemption 12. European Super State (Bonus track) Disk 01. Counterweight (Live in Saalfeld) 02. Profane Believers (Live in Saalfeld) 03. The Only Truth (Live in Saalfeld) 04. The Omen (Live in Saalfeld) 05. Voice Of The Vo ...