10
июн
2013

Beady Eye - BE (Japanese Edition) [2013, Indie Rock, Britpop, FLAC]

Beady Eye - BE
Формат: FLAC, (tracks + .cue), lossless
Год выпуска: 2013
Страна: United Kingdom
Жанр: Indie Rock, Britpop
Продолжительность: 01:15:06

Описание:
01. Flick Of The Finger
02. Soul Love
03. Face The Crowd
04. Second Bite Of The Apple
05. Soon Come Tomorrow
06. Iz Rite
07. I'm Just Saying
08. Don't Brother Me
09. Shine A Light
10. Ballroom Figured
11. Start Anew
12. Dreaming of Some Space (Bonus Track)
13. The World's Not Set In Stone (Bonus Track)
14. Back After The Break (Bonus Track)
15. Off At The Next Exit (Bonus Track)
16. Girls In Uniform (Bonus Track) (Japanese Edition Only)
17. Evil Eye (Bonus Track) (Japanese Edition Only)



Доп. информация:
Издатель (лейбл): Sony Music Japan
Номер по каталогу: SICP 3829
Об альбоме
BE — второй студийный альбом британской рок-группы Beady Eye, дата выпуска 10 июня 2013 г. Премьера первой песни с BE состоялась 15 апреля в эфире радиостанции BBC Radio 1.

Ссылки:
http://www.cdjapan.co.jp/detailview.html?KEY=SICP-3829
http://en.wikipedia.org/wiki/BE_%28Beady_Eye_album%29
Лог создания рипа
X Lossless Decoder version 20130407 (143.0)

XLD extraction logfile from 2013-06-04 20:47:36 +0900

Beady Eye / BE

Used drive : OPTIARC DVD RW AD-5670S (revision 2AHI)
Media type : Pressed CD

Ripper mode : XLD Secure Ripper
Disable audio cache : OK for the drive with a cache less than 1375KiB
Make use of C2 pointers : NO
Read offset correction : 48
Max retry count : 100
Gap status : Analyzed, Appended

TOC of the extracted CD
Track | Start | Length | Start sector | End sector
---------------------------------------------------------
1 | 00:00:00 | 03:45:48 | 0 | 16922
2 | 03:45:48 | 05:10:10 | 16923 | 40182
3 | 08:55:58 | 04:02:35 | 40183 | 58367
4 | 12:58:18 | 03:28:13 | 58368 | 73980
5 | 16:26:31 | 04:58:19 | 73981 | 96349
6 | 21:24:50 | 03:26:48 | 96350 | 111847
7 | 24:51:23 | 03:45:10 | 111848 | 128732
8 | 28:36:33 | 07:30:44 | 128733 | 162526
9 | 36:07:02 | 05:04:54 | 162527 | 185380
10 | 41:11:56 | 03:31:03 | 185381 | 201208
11 | 44:42:59 | 04:34:05 | 201209 | 221763
12 | 49:16:64 | 01:51:28 | 221764 | 230116
13 | 51:08:17 | 04:46:15 | 230117 | 251581
14 | 55:54:32 | 04:09:40 | 251582 | 270296
15 | 60:03:72 | 03:37:27 | 270297 | 286598
16 | 63:41:24 | 06:23:44 | 286599 | 315367
17 | 70:04:68 | 05:01:15 | 315368 | 337957

AccurateRip Summary
Disc not found in AccurateRip DB.

All Tracks
Album gain : -10.36 dB
Peak : 1.000000
Statistics
Read error : 0
Jitter error (maybe fixed) : 0
Retry sector count : 0
Damaged sector count : 0

Track 01
Filename : /Users/funkymiracle/Music/iTunes/iTunes Music/Music/Beady Eye/Beady Eye - BE (2013) [FLAC]/01 - Beady Eye - Flick Of The Finger.flac
Pre-gap length : 00:02:00

Track gain : -10.47 dB
Peak : 0.993805
CRC32 hash (test run) : 48732AAB
CRC32 hash : 48732AAB
CRC32 hash (skip zero) : A0A9F723
AccurateRip v1 signature : AF2883A1
AccurateRip v2 signature : 875EB969
- Track not present in AccurateRip database.
Statistics
Read error : 0
Jitter error (maybe fixed) : 0
Retry sector count : 0
Damaged sector count : 0

Track 02
Filename : /Users/funkymiracle/Music/iTunes/iTunes Music/Music/Beady Eye/Beady Eye - BE (2013) [FLAC]/02 - Beady Eye - Soul Love.flac

Track gain : -7.82 dB
Peak : 1.000000
CRC32 hash (test run) : ED2DBCB9
CRC32 hash : ED2DBCB9
CRC32 hash (skip zero) : 306FE139
AccurateRip v1 signature : 2AB3422C
AccurateRip v2 signature : DDB1FE3C
- Track not present in AccurateRip database.
Statistics
Read error : 0
Jitter error (maybe fixed) : 0
Retry sector count : 0
Damaged sector count : 0

Track 03
Filename : /Users/funkymiracle/Music/iTunes/iTunes Music/Music/Beady Eye/Beady Eye - BE (2013) [FLAC]/03 - Beady Eye - Face The Crowd.flac

Track gain : -11.62 dB
Peak : 1.000000
CRC32 hash (test run) : 46BC916A
CRC32 hash : 46BC916A
CRC32 hash (skip zero) : 2DF98F56
AccurateRip v1 signature : 53F3C210
AccurateRip v2 signature : E38E78DF
- Track not present in AccurateRip database.
Statistics
Read error : 0
Jitter error (maybe fixed) : 0
Retry sector count : 0
Damaged sector count : 0

Track 04
Filename : /Users/funkymiracle/Music/iTunes/iTunes Music/Music/Beady Eye/Beady Eye - BE (2013) [FLAC]/04 - Beady Eye - Second Bite Of The Apple.flac

Track gain : -11.21 dB
Peak : 1.000000
CRC32 hash (test run) : E640A5FA
CRC32 hash : E640A5FA
CRC32 hash (skip zero) : 5C0E8909
AccurateRip v1 signature : 5E1F92B6
AccurateRip v2 signature : 92DB627A
- Track not present in AccurateRip database.
Statistics
Read error : 0
Jitter error (maybe fixed) : 0
Retry sector count : 0
Damaged sector count : 0

Track 05
Filename : /Users/funkymiracle/Music/iTunes/iTunes Music/Music/Beady Eye/Beady Eye - BE (2013) [FLAC]/05 - Beady Eye - Soon Come Tomorrow.flac

Track gain : -9.97 dB
Peak : 1.000000
CRC32 hash (test run) : ADC50A46
CRC32 hash : ADC50A46
CRC32 hash (skip zero) : 0D0E2C16
AccurateRip v1 signature : D847AD47
AccurateRip v2 signature : 406F6773
- Track not present in AccurateRip database.
Statistics
Read error : 0
Jitter error (maybe fixed) : 0
Retry sector count : 0
Damaged sector count : 0

Track 06
Filename : /Users/funkymiracle/Music/iTunes/iTunes Music/Music/Beady Eye/Beady Eye - BE (2013) [FLAC]/06 - Beady Eye - Iz Rite.flac

Track gain : -10.60 dB
Peak : 1.000000
CRC32 hash (test run) : 8D0A4CAB
CRC32 hash : 8D0A4CAB
CRC32 hash (skip zero) : 0F3AEEE2
AccurateRip v1 signature : 661BC2E6
AccurateRip v2 signature : A8827A03
- Track not present in AccurateRip database.
Statistics
Read error : 0
Jitter error (maybe fixed) : 0
Retry sector count : 0
Damaged sector count : 0

Track 07
Filename : /Users/funkymiracle/Music/iTunes/iTunes Music/Music/Beady Eye/Beady Eye - BE (2013) [FLAC]/07 - Beady Eye - I'm Just Saying.flac

Track gain : -11.63 dB
Peak : 1.000000
CRC32 hash (test run) : A278A1DF
CRC32 hash : A278A1DF
CRC32 hash (skip zero) : 8ECA93E3
AccurateRip v1 signature : EA6CC000
AccurateRip v2 signature : 2119CC2F
- Track not present in AccurateRip database.
Statistics
Read error : 0
Jitter error (maybe fixed) : 0
Retry sector count : 0
Damaged sector count : 0

Track 08
Filename : /Users/funkymiracle/Music/iTunes/iTunes Music/Music/Beady Eye/Beady Eye - BE (2013) [FLAC]/08 - Beady Eye - Don't Brother Me.flac

Track gain : -6.95 dB
Peak : 1.000000
CRC32 hash (test run) : 91809016
CRC32 hash : 91809016
CRC32 hash (skip zero) : BDD4D586
AccurateRip v1 signature : 014EC592
AccurateRip v2 signature : E8A4E12E
- Track not present in AccurateRip database.
Statistics
Read error : 0
Jitter error (maybe fixed) : 0
Retry sector count : 0
Damaged sector count : 0

Track 09
Filename : /Users/funkymiracle/Music/iTunes/iTunes Music/Music/Beady Eye/Beady Eye - BE (2013) [FLAC]/09 - Beady Eye - Shine A Light.flac

Track gain : -9.51 dB
Peak : 1.000000
CRC32 hash (test run) : C559A276
CRC32 hash : C559A276
CRC32 hash (skip zero) : 3F448BB9
AccurateRip v1 signature : DF520F7A
AccurateRip v2 signature : CAE4868A
- Track not present in AccurateRip database.
Statistics
Read error : 0
Jitter error (maybe fixed) : 0
Retry sector count : 0
Damaged sector count : 0

Track 10
Filename : /Users/funkymiracle/Music/iTunes/iTunes Music/Music/Beady Eye/Beady Eye - BE (2013) [FLAC]/10 - Beady Eye - Ballroom Figured.flac

Track gain : -6.10 dB
Peak : 1.000000
CRC32 hash (test run) : 8C67F500
CRC32 hash : 8C67F500
CRC32 hash (skip zero) : 1F28FB4D
AccurateRip v1 signature : D286AF5D
AccurateRip v2 signature : DCD5C4FF
- Track not present in AccurateRip database.
Statistics
Read error : 0
Jitter error (maybe fixed) : 0
Retry sector count : 0
Damaged sector count : 0

Track 11
Filename : /Users/funkymiracle/Music/iTunes/iTunes Music/Music/Beady Eye/Beady Eye - BE (2013) [FLAC]/11 - Beady Eye - Start Anew.flac

Track gain : -8.64 dB
Peak : 1.000000
CRC32 hash (test run) : 46818D6C
CRC32 hash : 46818D6C
CRC32 hash (skip zero) : 14F4999C
AccurateRip v1 signature : 8F050EAE
AccurateRip v2 signature : 1CA9DB91
- Track not present in AccurateRip database.
Statistics
Read error : 0
Jitter error (maybe fixed) : 0
Retry sector count : 0
Damaged sector count : 0

Track 12
Filename : /Users/funkymiracle/Music/iTunes/iTunes Music/Music/Beady Eye/Beady Eye - BE (2013) [FLAC]/12 - Beady Eye - Dreaming Of Some Space.flac

Track gain : -5.68 dB
Peak : 1.000000
CRC32 hash (test run) : 5A290B34
CRC32 hash : 5A290B34
CRC32 hash (skip zero) : D9CA7AA4
AccurateRip v1 signature : 667E00C9
AccurateRip v2 signature : BFDE4158
- Track not present in AccurateRip database.
Statistics
Read error : 0
Jitter error (maybe fixed) : 0
Retry sector count : 0
Damaged sector count : 0

Track 13
Filename : /Users/funkymiracle/Music/iTunes/iTunes Music/Music/Beady Eye/Beady Eye - BE (2013) [FLAC]/13 - Beady Eye - The World's Not Set In Stone.flac

Track gain : -10.19 dB
Peak : 1.000000
CRC32 hash (test run) : 153CFFFB
CRC32 hash : 153CFFFB
CRC32 hash (skip zero) : 458DF018
AccurateRip v1 signature : 0CCFD38B
AccurateRip v2 signature : 8C8B97F4
- Track not present in AccurateRip database.
Statistics
Read error : 0
Jitter error (maybe fixed) : 0
Retry sector count : 0
Damaged sector count : 0

Track 14
Filename : /Users/funkymiracle/Music/iTunes/iTunes Music/Music/Beady Eye/Beady Eye - BE (2013) [FLAC]/14 - Beady Eye - Back After The Break.flac

Track gain : -8.45 dB
Peak : 1.000000
CRC32 hash (test run) : AA28F135
CRC32 hash : AA28F135
CRC32 hash (skip zero) : D955038E
AccurateRip v1 signature : 5B8DCA23
AccurateRip v2 signature : 0BAC4269
- Track not present in AccurateRip database.
Statistics
Read error : 0
Jitter error (maybe fixed) : 0
Retry sector count : 0
Damaged sector count : 0

Track 15
Filename : /Users/funkymiracle/Music/iTunes/iTunes Music/Music/Beady Eye/Beady Eye - BE (2013) [FLAC]/15 - Beady Eye - Off At The Next Exit.flac

Track gain : -8.60 dB
Peak : 1.000000
CRC32 hash (test run) : 6E6BEEEE
CRC32 hash : 6E6BEEEE
CRC32 hash (skip zero) : 62EEFD10
AccurateRip v1 signature : 0BC12C57
AccurateRip v2 signature : 3EC435F4
- Track not present in AccurateRip database.
Statistics
Read error : 0
Jitter error (maybe fixed) : 0
Retry sector count : 0
Damaged sector count : 0

Track 16
Filename : /Users/funkymiracle/Music/iTunes/iTunes Music/Music/Beady Eye/Beady Eye - BE (2013) [FLAC]/16 - Beady Eye - Girls In Uniform.flac

Track gain : -8.66 dB
Peak : 1.000000
CRC32 hash (test run) : 590B3D2D
CRC32 hash : 590B3D2D
CRC32 hash (skip zero) : AA686309
AccurateRip v1 signature : ACBBA2D9
AccurateRip v2 signature : C7BA963D
- Track not present in AccurateRip database.
Statistics
Read error : 0
Jitter error (maybe fixed) : 0
Retry sector count : 0
Damaged sector count : 0

Track 17
Filename : /Users/funkymiracle/Music/iTunes/iTunes Music/Music/Beady Eye/Beady Eye - BE (2013) [FLAC]/17 - Beady Eye - Evil Eye.flac

Track gain : -10.29 dB
Peak : 1.000000
CRC32 hash (test run) : A0D3DA45
CRC32 hash : A0D3DA45
CRC32 hash (skip zero) : A971A606
AccurateRip v1 signature : 3C66253F
AccurateRip v2 signature : 77B19E50
- Track not present in AccurateRip database.
Statistics
Read error : 0
Jitter error (maybe fixed) : 0
Retry sector count : 0
Damaged sector count : 0

No errors occurred

End of status report

Музыка / Lossless / Рок, Панк, Метал, Альтернатива.
СКАЧАТЬ БЕСПЛАТНО  [495.4 MB]


06
июн
2013

Beady Eye - BE (Japanese Edition) [2013, Indie Rock, Britpop, MP3]

Формат: MP3, tracks, 320kbps
Год выпуска: 2013
Страна: United Kingdom
Жанр: Indie Rock, Britpop
Продолжительность: 01:15:07
Описание: 1. Flick of The Finger 2. Soul Love 3. Face The Crowd 4. Second Bite of The Apple 5. Soon Come Tomorrow 6. Iz Rite 7. I'm Just Saying 8. Don't Brother Me 9. Shine A Light 10. Ballroom Figured 11. Start Anew 12. Dreaming of Some Space 13. The World's Not Set In Stone 14. Back After The Break 15. Off At The Next Exit 16. Girls In Uniform (Japanese Edition Only) 17. Evil Eye (Japanese Edition Only)
Доп. информация: Label: Sony Music Japan

08
сен
2011

Beady Eye - Different Gear, Still Speeding [2011, Indie Rock, Britpop, MP3]

Формат: MP3, tracks, 320kbps
Год выпуска: 2011
Страна: United Kingdom
Жанр: Indie Rock, Britpop
Продолжительность: 00:51:49
Описание:
Треклист: 01. Four Letter Word (04:16) 02. Millionaire (03:20) 03. The Roller (03:35) 04. Beatles And Stones (02:57) 05. Wind Up Dream (03:27) 06. Bring The Light (03:39) 07. For Anyone (02:16) 08. Kill For A Dream (04:43) 09. Standing On The Edge Of The Noise (02:53) 10. Wigwam (06:395) 11. Three Ring Circus (03:09) 12. The Beat Goes On (04:44) 13. The Morning Son (06:06)
Доп. информация: История группыBeady Eye — английская рок-группа, образованная в 2009 бывш ...

17
июл
2018

Beady Belle - Home [2001, Electronic, Future Jazz, FLAC]

Формат: FLAC, (tracks + .cue), lossless
Год выпуска: 2001
Страна: Norway
Жанр: Electronic, Future Jazz
Продолжительность: 00:53:39
Описание: 01. Ghosts 5:12 02. Moderation 5:17 03. Lose & Win 4:32 04. On The Radio (Interlude) 0:31 05. Drawback 7:13 06. Waiting (Interlude) 0:52 07. In A Good Way 5:37 08. Game 4:38 09. Mobile Bubble 5:32 10. Pantile 5:09 11. Consolatory Dance 8:54
Доп. информация: https://en.wikipedia.org/wiki/Beady_Belle https://ru.wikipedia.org/wiki/Beady_Belle eac Exact Audio Copy V1.0 beta 3 from 29. August 2011 EAC extraction logfile from 26. April 2014, 19:36 Beady B ...

31
авг
2010

Alan Parsons Project - Eye To Eye Live In Madrid [2010, Rock, MP3]

Формат: MP3, tracks, 320kbps
Год выпуска: 2010
Страна: UK
Жанр: Rock
Продолжительность: 01:13:42
Описание: 01. I Robot 02. Can't Take It With You 03. Don't Answer Me 04. Breakdown/The Raven 05. Time 06. Psychobabble 07. I Would't want To Be Like You 08. Damned If I Do 09. More Lost Without You 10. Don't Let It Show 11. Prime Time 12. Sirius/Eye In The Sky
Доп.информация: Не забывайте нажимать

02
ноя
2014

VA - Eye For An Eye a tribute to Nick Cave [2008, Alternative, Indie Rock, MP3]

Формат: MP3, tracks, 320kbps
Год выпуска: 2008
Страна: All World
Жанр: Alternative, Indie Rock
Продолжительность: 00:55:35
Описание: 1. Mr. Russia — Wild World (3:37) 2. My Ruin — Do You Love Me? (4:24) 3. Sheriff Scabs — I Let Love In (3:49) 4. The Red Paintings - The Mercy Seat (5:26) 5. Brides - Mr. Clarinet (5:10) 6. Chiasm - Where The Wild Roses Grow (3:48 ) 7. Ahab Rex - The Curse Of Millhaven (6:24) 8. Miss Derringer - People Ain't No Good (4:37) 9. Nusch Nuschi - Hats On Wrong (3:32) 10. Lolita Storm - Stranger Than Kindness (3:57) 11. Architect's Eye - Your Funeral...My Trial (4:10) ...

24
июн
2017

Ex Eye feat. Colin Stetson - Ex Eye (Deluxe Edition) [2017, Instrumental Experimental Metal, MP3]

Формат: MP3, tracks, 320kbps
Год выпуска: 2017
Страна: U.S.A.
Жанр: Instrumental Experimental Metal
Продолжительность: 00:48:31
Описание: 01 Xenolith; The Anvil 02 Opposition/Perihelion; The Coil 03 Anaitis Hymnal; The Arkose Disc 04 Form Constant; The Grid 05 Tten Crowns; the Corruptor (Bonus Track)

05
июл
2013

Like Moths To Flames - An Eye For An Eye [2013, Metalcore,Post-Hardcore, MP3]

Формат: MP3, tracks, 320kbps
Год выпуска: 2013
Страна: USA
Жанр: Metalcore, Post-Hardcore
Продолжительность: 00:39:05
Описание: 01. You'll Burn 02. A Feast For Crows 03. The Common Misconception 04. I Solemnly Swear 05. Deathmarks 06. The Blackout 07. In Dreams 08. Into The Ground 09. Serpent Herders 10. Nothing But Blood 11. Lord Of Bones 12. My Own Personal Hell
Доп. информация: Релиз представлен группой

02
апр
2008

Astrix - Eye To Eye (2002) [mp3, 192]

Год выпуска: 2002
Жанр: Psy/Goa trance
Продолжительность: 1 hour 15 minutes 33 seconds
Битрейт аудио: 192kbit
Трэклист: 1. Astrix - Life System (7:29) 2. Astrix - Crystal Sequence (8:13) 3. Astrix - Wider (Rmx) (7:23) 4. Astrix - Massive Activity (8:23) 5. Astrix - Eye To Eye (6:38) 6. Astrix - Side Effect (7:04) 7. Astrix - Scientific Reality (7:51) 8. Astrix - Feel. S. D (7:05) 9. Astrix - Valirus (7:38) 10. Astrix - Freestyle Cafe (7:49)

02
авг
2013

Dreamland - Eye For An Eye (Japanese Edition) [2007, Power Metal, FLAC]

Формат: FLAC, (image + .cue), lossless
Год выпуска: 2007
Страна: Sweden
Жанр: Power Metal
Продолжительность: 00:46:18
Описание: 01. Eye for an Eye 03:16 02. Carousel of Pain 03:33 03. Reverse Deny 03:47 04. Secret Signs 04:16 05. Chosen Ones 04:09 06. Spread Your Wings 03:40 07. Shadows of the Night 03:59 08. Heavenly Designed 03:15 09. Children of Tomorrow 04:02 10. Forever and Ever 03:53 11. Revolution in Paradise 05:28 12. Love is Meant to Last Forever (Europe cover) 03:01
Доп. информация: Log EAC Exact Audio Copy V1.0 beta 3 from 29. August 2011 EAC extraction logfile from 10. February 2 ...

14
дек
2011

Eye 2 Eye The Wish [2011, Neo-Progressive Rock, MP3]

Формат: MP3, tracks, 320kbps
Год выпуска: 2011
Страна: France
Жанр: Neo-Progressive Rock
Продолжительность: 01:09:15
Описание: Треклист 01. Back Home (Instrumental) 02. London 03. The Gathering 04. If Only 05. The Curse 06. Sybil 07. Schizophrenia 08. Disillusion 09. The Secret 10. Drugs and Luxury 11. Murder 12. Random Shot 13. Back to the Attic 14. The Picture
Дополнительная информация: Новый третий альбом парижской Neo-Progressive группы "Eye 2 Eye". Релиз проверен Коллективным разумом Panda Global Protection 2012

09
авг
2010

Tystnaden - In Our Eye [2008, Gothic Metal/Dark Melodic Metal, MP3]

Формат: MP3, tracks, 253-289kbps [VBR]
Год выпуска: 2008
Страна: Italy
Жанр: Gothic Metal/Dark Melodic Metal
Продолжительность: 00:44:26
Описание: 1.Nevermore(5:01) 2.Subterranean Gates(4:16) 3.Letters From Silent Heaven(3:59) 4.Fragile(3:34) 5.Born From A Wish(4:01) 6.Greed(5:01) 7.Infected(5:37) 8.Hate(4:05) 9.Wrong With All The Feelings(4:32) 10.Sweet Thief(4:21)
Доп. информация:
Состав группы:Laura De Luca - Vocals Lorenzo Frascaroli - Vocals, Keys and Synths Marco Cardona - Guitar Cesare Codispoti - Guitar Artur Sahakjan - Bass Alberto Iezzi - Drums

28
июл
2013

TobyMac - Eye On It (Deluxe Edition) [2012, Pop, MP3]

Формат: MP3, tracks, 320kbps
Год выпуска: 2012
Страна: USA
Жанр: Pop
Продолжительность: 01:09:16
Описание: 01. Me Without You 02. Steal My Show 03. Eye On It 04. Forgiveness (feat. Lecrae) 05. Speak Life 06. Unstoppable (feat. Blanca from Group 1 Crew) 07. Lose Myself 08. Family 09. Thankful for You 10. Made for Me 11. Mac Daddy (Tru’s Reality) 12. Favorite Song (feat. Jamie Grace) 13. Me Without You (Capital Kings Remix) 14. Steal My Show (Jack Shocklee Remix) 15. Lose Myself (Capital Kings Remix) 16. Family (Jamie Moore Remix) 17. LoudNClear Tru (Telemitry Remix) 18. Me Wit ...

26
июл
2016

Snake Eye - Дискография [2003 - 2015, Hard Rock, Heavy Metal, MP3]

Формат: MP3, tracks, 320kbps
Год выпуска: 2003 - 2015
Страна: Франция
Жанр: Hard Rock, Heavy Metal
Продолжительность: 02:17:13
Описание: 2003 - Wild Senses, 00 01. Countdown To Midnight 02. Downtown 03. Restless 04. Faith 05. Tears In My Eyes 06. Now 07. Hope 08. Make My Day 09. Kids In America 2006 - Ritual Instinct, 00 01. Ritual (Intro) 02. Queen Of The Night 03. Memories (Give Me A Sign) 04. Fire 05. Over The Edge 06. No 07. The Weight Of The Cross 08. Nobody 09. DWB Lonely 10. Walk In The Silence 11. Danger 12. High Enough 13. Never Say Never 2015 - Snake Eye III, 00 01. Resurrection 02 ...

04
сен
2016

Eye Of Solitude - Cenotaph [2016, Doom, Death Metal, MP3]

Формат: MP3, tracks, 320kbps
Год выпуска: 2016
Страна: United Kingdom
Жанр: Doom, Death Metal
Продолжительность: 00:55:17
Описание: 01. Cenotaph (11:54) 02. A Somber Guest (15:52) 03. This Goodbye, The Goodbye (14:19) 04. Loss (13:04)
Доп. информация: Daniel Neagoe - Vocals (Clouds, Colosus, Deos, Ennui, Pantheist, Shape Of Despair, Sidious, ex-My Shadow, ex-Gothic,, ex-Tiarra, ex-Unfathomable Ruination) Chris Davies - Bass (Sidious, Seed Of Detest) Adriano Ferraro - Drums (Cythraul, Nebukadnezza, Inebrious Incarnate) Mark Antoniades - Guitars (Sidious, Vaer) Steffan Gough - Guitars (Sidiou ...

08
ноя
2013

Tempest - Eye of the Storm [1988, Melodic Heavy Metal, MP3]

Формат: MP3, tracks, 320kbps
Год выпуска: 1988
Страна: United States
Жанр: Melodic Heavy Metal
Продолжительность: 00:33:12
Описание: 01. Storms, Rock For The Light 02. Goin' Nowhere 03. Goodbye 04. Let them in 05. True Love (Never Fades Away) 06. All for One 07. Eye of the Storm 08. Lost without your Love 09. Midnight 10. U.S.A.