22
июн
2013

Александр Барыкин И Карнавал (18 альбомов) [1982-2008, Rock, New Wave, APE]

Александр Барыкин И Карнавал (18 альбомов)

Формат: APE, (image + .cue), lossless
Год выпуска: 1982-2008
Страна: Роcия
Жанр: Rock, New Wave
Продолжительность: 17:25:13
Описание:
1982 Концерт В Куйбышеве 01
Александр Барыкин И Карнавал
01. Я знаю теперь
02. Что же ты не рад
03. Взгляды
04. Рыбка
05. Звёздный карнавал
06. Я увидел зал
07. Всё пройдёт
08. Остров
09. Предпочитаю рок
10. Я играю для вас
11. Ааэрофло
12. Балет
13. Радио
14. Ресторан

EAC
Exact Audio Copy V0.99 prebeta 4 from 23. January 2008

Отчёт EAC об извлечении, выполненном 15. августа 2008, 8:36

Александр Барыкин и гр.Карнавал / концерт в куйбышеве

Дисковод: SONY DVD RW DW-G120A Adapter: 3 ID: 1

Режим чтения : Достоверность
Использование точного потока : Да
Отключение кэша аудио : Да
Использование указателей C2 : Нет

Коррекция смещения при чтении : 6
Способность читать области Lead-in и Lead-out : Нет
Заполнение пропущенных сэмплов тишиной : Да
Удаление блоков с тишиной в начале и конце : Нет
При вычислениях CRC использовались нулевые сэмплы : Да
Интерфейс : Установленный внешний ASPI-интерфейс

Выходной формат : Внутренние WAV-операции
Формат сэмплов : 44.100 Гц; 16 бит; стерео

TOC извлечённого CD

Трек | Старт | Длительность | Начальный сектор | Конечный сектор
---------------------------------------------------------------------
1 | 0:00.00 | 7:23.12 | 0 | 33236
2 | 7:23.12 | 3:43.42 | 33237 | 50003
3 | 11:06.54 | 5:39.51 | 50004 | 75479
4 | 16:46.30 | 6:10.50 | 75480 | 103279
5 | 22:57.05 | 5:18.55 | 103280 | 127184
6 | 28:15.60 | 3:18.64 | 127185 | 142098
7 | 31:34.49 | 4:47.37 | 142099 | 163660
8 | 36:22.11 | 4:19.20 | 163661 | 183105
9 | 40:41.31 | 4:30.72 | 183106 | 203427
10 | 45:12.28 | 4:23.24 | 203428 | 223176
11 | 49:35.52 | 4:32.34 | 223177 | 243610
12 | 54:08.11 | 3:40.46 | 243611 | 260156
13 | 57:48.57 | 3:28.01 | 260157 | 275757
14 | 61:16.58 | 4:43.08 | 275758 | 296990

Характеристики диапазона извлечения и сообщения об ошибках

Выбранный диапазон

Имя файла H:MusikA.Barykin&KarnavalКонцерт в куйбышеве 82Александр Барыкин и гр.Карнавал - концерт в куйбышеве.wav

Пиковый уровень 97.7 %
Качество диапазона 99.9 %
CRC копии BDF7D02A
Копирование... OK

Ошибок не произошло

Конец отчёта

1985 Ступени 00
Александр Барыкин И Карнавал
01. Ступени
02. Здравствуй и прощай
03. Элегия
04. Но всё-таки лето
05. Мона Лиза
06. Запасной игрок
07. Стоп мотор
08. Две копейки
09. Потерянный рай
10. Летучий голландец

EAC
Exact Audio Copy V0.99 prebeta 4 from 23. January 2008

Отчёт EAC об извлечении, выполненном 14. августа 2008, 18:44

Александр Барыкин и гр.Карнавал / Ступени

Дисковод: SONY DVD RW DW-G120A Adapter: 3 ID: 1

Режим чтения : Достоверность
Использование точного потока : Да
Отключение кэша аудио : Да
Использование указателей C2 : Нет

Коррекция смещения при чтении : 6
Способность читать области Lead-in и Lead-out : Нет
Заполнение пропущенных сэмплов тишиной : Да
Удаление блоков с тишиной в начале и конце : Нет
При вычислениях CRC использовались нулевые сэмплы : Да
Интерфейс : Установленный внешний ASPI-интерфейс

Выходной формат : Внутренние WAV-операции
Формат сэмплов : 44.100 Гц; 16 бит; стерео

TOC извлечённого CD

Трек | Старт | Длительность | Начальный сектор | Конечный сектор
---------------------------------------------------------------------
1 | 0:00.00 | 4:30.69 | 0 | 20318
2 | 4:30.69 | 4:53.49 | 20319 | 42342
3 | 9:24.43 | 5:17.55 | 42343 | 66172
4 | 14:42.23 | 4:51.68 | 66173 | 88065
5 | 19:34.16 | 4:24.73 | 88066 | 107938
6 | 23:59.14 | 5:23.38 | 107939 | 132201
7 | 29:22.52 | 6:15.04 | 132202 | 160330
8 | 35:37.56 | 5:25.27 | 160331 | 184732
9 | 41:03.08 | 4:58.03 | 184733 | 207085
10 | 46:01.11 | 3:25.22 | 207086 | 222482

Характеристики диапазона извлечения и сообщения об ошибках

Выбранный диапазон

Имя файла H:MusikA.Barykin&KarnavalСтупениАлександр Барыкин и гр.Карнавал - Ступени.wav

Пиковый уровень 89.5 %
Качество диапазона 100.0 %
CRC копии F63874D0
Копирование... OK

Ошибок не произошло

Конец отчёта

1987 Аэропорт 00
Александр Барыкин И Карнавал
01. аэропорт
02. осенний парк
03. голос твой
04. дождь и снег
05. тает тает
06. прошёл всего лишь год
07. без тебя
08. океан
09. про федю протасова
10. за той рекой
11. фея с нло

EAC
Exact Audio Copy V0.99 prebeta 4 from 23. January 2008

Отчёт EAC об извлечении, выполненном 14. августа 2008, 15:10

Александр Барыкин и гр.Карнавал / Аэропорт

Дисковод: SONY DVD RW DW-G120A Adapter: 3 ID: 1

Режим чтения : Достоверность
Использование точного потока : Да
Отключение кэша аудио : Да
Использование указателей C2 : Нет

Коррекция смещения при чтении : 6
Способность читать области Lead-in и Lead-out : Нет
Заполнение пропущенных сэмплов тишиной : Да
Удаление блоков с тишиной в начале и конце : Нет
При вычислениях CRC использовались нулевые сэмплы : Да
Интерфейс : Установленный внешний ASPI-интерфейс

Выходной формат : Внутренние WAV-операции
Формат сэмплов : 44.100 Гц; 16 бит; стерео

TOC извлечённого CD

Трек | Старт | Длительность | Начальный сектор | Конечный сектор
---------------------------------------------------------------------
1 | 0:00.00 | 4:21.57 | 0 | 19631
2 | 4:21.57 | 5:09.32 | 19632 | 42838
3 | 9:31.14 | 5:30.07 | 42839 | 67595
4 | 15:01.21 | 4:41.71 | 67596 | 88741
5 | 19:43.17 | 4:27.42 | 88742 | 108808
6 | 24:10.59 | 5:09.62 | 108809 | 132045
7 | 29:20.46 | 6:11.70 | 132046 | 159940
8 | 35:32.41 | 5:33.48 | 159941 | 184963
9 | 41:06.14 | 3:40.54 | 184964 | 201517
10 | 44:46.68 | 4:08.54 | 201518 | 220171
11 | 48:55.47 | 6:06.06 | 220172 | 247627

Характеристики диапазона извлечения и сообщения об ошибках

Выбранный диапазон

Имя файла H:MusikA.Barykin&KarnavalАэропортАлександр Барыкин и гр.Карнавал - Аэропорт.wav

Пиковый уровень 100.0 %
Качество диапазона 99.9 %
CRC копии 10924C07
Копирование... OK

Ошибок не произошло

Конец отчёта

1988 Спасательный Круг 00
Александр Барыкин И Карнавал
01-ты увидишь карнавал
02-дай мне руку
03-фестиваль
04-разве ты не веришь
05-поверь в себя
06-натали
07-спасательный круг
08-покажи мне дорогу в джунгли
09-я вздрагиваю от холода
10-solo drums
11-песня о мире
12-букет

EAC
Exact Audio Copy V0.99 prebeta 4 from 23. January 2008

Отчёт EAC об извлечении, выполненном 13. августа 2008, 18:50

Александр Барыкин и гр.Карнавал / Спасательный круг

Дисковод: SONY DVD RW DW-G120A Adapter: 3 ID: 1

Режим чтения : Достоверность
Использование точного потока : Да
Отключение кэша аудио : Да
Использование указателей C2 : Нет

Коррекция смещения при чтении : 6
Способность читать области Lead-in и Lead-out : Нет
Заполнение пропущенных сэмплов тишиной : Да
Удаление блоков с тишиной в начале и конце : Нет
При вычислениях CRC использовались нулевые сэмплы : Да
Интерфейс : Установленный внешний ASPI-интерфейс

Выходной формат : Внутренние WAV-операции
Формат сэмплов : 44.100 Гц; 16 бит; стерео

TOC извлечённого CD

Трек | Старт | Длительность | Начальный сектор | Конечный сектор
---------------------------------------------------------------------
1 | 0:00.00 | 3:39.66 | 0 | 16490
2 | 3:39.66 | 5:30.11 | 16491 | 41251
3 | 9:10.02 | 5:21.00 | 41252 | 65326
4 | 14:31.02 | 3:54.18 | 65327 | 82894
5 | 18:25.20 | 5:16.68 | 82895 | 106662
6 | 23:42.13 | 6:30.22 | 106663 | 135934
7 | 30:12.35 | 6:12.63 | 135935 | 163897
8 | 36:25.23 | 3:41.11 | 163898 | 180483
9 | 40:06.34 | 3:20.28 | 180484 | 195511
10 | 43:26.62 | 5:17.40 | 195512 | 219326
11 | 48:44.27 | 5:49.65 | 219327 | 245566
12 | 54:34.17 | 3:49.64 | 245567 | 262805

Характеристики диапазона извлечения и сообщения об ошибках

Выбранный диапазон

Имя файла H:MusikA.Barykin&KarnavalСпасательный кругАлександр Барыкин и гр.Карнавал - Спасательный круг.wav

Пиковый уровень 79.4 %
Качество диапазона 100.0 %
CRC копии 42111CCF
Копирование... OK

Ошибок не произошло

Конец отчёта

1989 Эй Смотри 00
Александр Барыкин И Карнавал
01. в стиле рок
02. с нами любовь
03. программа передач на завтра
04. водоворот
05. эй, смотри
06. как жаль
07. я обнимаю тебя
08. кресты и звезды
09. чили
10. вelladonna

EAC
Exact Audio Copy V0.99 prebeta 4 from 23. January 2008

Отчёт EAC об извлечении, выполненном 14. августа 2008, 16:44

Александр Барыкин и гр.Карнавал / Эй смотри!

Дисковод: SONY DVD RW DW-G120A Adapter: 3 ID: 1

Режим чтения : Достоверность
Использование точного потока : Да
Отключение кэша аудио : Да
Использование указателей C2 : Нет

Коррекция смещения при чтении : 6
Способность читать области Lead-in и Lead-out : Нет
Заполнение пропущенных сэмплов тишиной : Да
Удаление блоков с тишиной в начале и конце : Нет
При вычислениях CRC использовались нулевые сэмплы : Да
Интерфейс : Установленный внешний ASPI-интерфейс

Выходной формат : Внутренние WAV-операции
Формат сэмплов : 44.100 Гц; 16 бит; стерео

TOC извлечённого CD

Трек | Старт | Длительность | Начальный сектор | Конечный сектор
---------------------------------------------------------------------
1 | 0:00.00 | 4:48.69 | 0 | 21668
2 | 4:48.69 | 4:06.66 | 21669 | 40184
3 | 8:55.60 | 3:20.49 | 40185 | 55233
4 | 12:16.34 | 4:36.19 | 55234 | 75952
5 | 16:52.53 | 5:19.73 | 75953 | 99950
6 | 22:12.51 | 5:11.26 | 99951 | 123301
7 | 27:24.02 | 4:53.59 | 123302 | 145335
8 | 32:17.61 | 6:51.68 | 145336 | 176228
9 | 39:09.54 | 4:19.01 | 176229 | 195654
10 | 43:28.55 | 4:31.73 | 195655 | 216052

Характеристики диапазона извлечения и сообщения об ошибках

Выбранный диапазон

Имя файла H:MusikA.Barykin&KarnavalЭй смотри!Александр Барыкин и гр.Карнавал - Эй смотри!.wav

Пиковый уровень 87.7 %
Качество диапазона 100.0 %
CRC копии F97D7F0E
Копирование... OK

Ошибок не произошло

Конец отчёта

1994 Русский Пляж 00
Александр Барыкин И Карнавал
1. одинокий день
2. джамайка
3. жил как жил
4. под шум дождя
5. горько
6. наши взяли вашингтон
7. ну а мне за тебя
8. остров
9. привет из тёплых стран

EAC
Exact Audio Copy V0.99 prebeta 4 from 23. January 2008

Отчёт EAC об извлечении, выполненном 15. августа 2008, 9:02

Александр Барыкин и гр.Карнавал / Русский пляж

Дисковод: SONY DVD RW DW-G120A Adapter: 3 ID: 1

Режим чтения : Достоверность
Использование точного потока : Да
Отключение кэша аудио : Да
Использование указателей C2 : Нет

Коррекция смещения при чтении : 6
Способность читать области Lead-in и Lead-out : Нет
Заполнение пропущенных сэмплов тишиной : Да
Удаление блоков с тишиной в начале и конце : Нет
При вычислениях CRC использовались нулевые сэмплы : Да
Интерфейс : Установленный внешний ASPI-интерфейс

Выходной формат : Внутренние WAV-операции
Формат сэмплов : 44.100 Гц; 16 бит; стерео

TOC извлечённого CD

Трек | Старт | Длительность | Начальный сектор | Конечный сектор
---------------------------------------------------------------------
1 | 0:00.25 | 4:48.45 | 25 | 21669
2 | 4:48.70 | 6:27.25 | 21670 | 50719
3 | 11:16.20 | 4:04.48 | 50720 | 69067
4 | 15:20.68 | 5:17.35 | 69068 | 92877
5 | 20:38.28 | 4:54.20 | 92878 | 114947
6 | 25:32.48 | 3:27.42 | 114948 | 130514
7 | 29:00.15 | 4:54.38 | 130515 | 152602
8 | 33:54.53 | 5:34.35 | 152603 | 177687
9 | 39:29.13 | 4:24.20 | 177688 | 197507

Характеристики диапазона извлечения и сообщения об ошибках

Выбранный диапазон

Имя файла H:MusikA.Barykin&KarnavalРусский пляжАлександр Барыкин и гр.Карнавал - Русский пляж.wav

Пиковый уровень 100.0 %
Качество диапазона 100.0 %
CRC копии 737393AD
Копирование... OK

Ошибок не произошло

Конец отчёта

1994 Фестиваль (РОБИН ГУД) 00
Александр Барыкин И Карнавал
1. Джамайка
2. Спасательный круг
3. Белый туман
4. Ангелы
5. Фея с НЛО-соло барабана
6. Звездный корабль
7. Белладонна
8. Чудо-остров
9. Рок-н-ролл

EAC
Exact Audio Copy V0.99 prebeta 4 from 23. January 2008

Отчёт EAC об извлечении, выполненном 14. января 2009, 7:31

Александр Барыкин / Фестиваль 'Робин Гуд 94' в Лыткарино

Дисковод: SONY DVD RW DW-G120A Adapter: 3 ID: 1

Режим чтения : Достоверность
Использование точного потока : Да
Отключение кэша аудио : Да
Использование указателей C2 : Нет

Коррекция смещения при чтении : 6
Способность читать области Lead-in и Lead-out : Нет
Заполнение пропущенных сэмплов тишиной : Да
Удаление блоков с тишиной в начале и конце : Нет
При вычислениях CRC использовались нулевые сэмплы : Да
Интерфейс : Установленный внешний ASPI-интерфейс

Выходной формат : Внутренние WAV-операции
Формат сэмплов : 44.100 Гц; 16 бит; стерео

TOC извлечённого CD

Трек | Старт | Длительность | Начальный сектор | Конечный сектор
---------------------------------------------------------------------
1 | 0:00.00 | 6:48.12 | 0 | 30611
2 | 6:48.12 | 4:57.33 | 30612 | 52919
3 | 11:45.45 | 5:29.16 | 52920 | 77610
4 | 17:14.61 | 4:08.02 | 77611 | 96212
5 | 21:22.63 | 6:52.25 | 96213 | 127137
6 | 28:15.13 | 4:02.62 | 127138 | 145349
7 | 32:18.00 | 4:56.46 | 145350 | 167595
8 | 37:14.46 | 6:55.51 | 167596 | 198771
9 | 44:10.22 | 5:29.47 | 198772 | 223493

Характеристики диапазона извлечения и сообщения об ошибках

Выбранный диапазон

Имя файла H:Musik1994-Робин ГудАлександр Барыкин - Фестиваль 'Робин Гуд 94' в Лыткарино.wav

Пиковый уровень 100.0 %
Качество диапазона 99.9 %
CRC копии 20A56C45
Копирование... OK

Ошибок не произошло

Конец отчёта

1995 Никогда Не Поздно 00
Александр Барыкин И Карнавал
01. любовь моя
02. месяц май
03. звездный корабль
04. три розы
05. рыбка
06. улыбка
07. аэроплан
08. птица
09. маша
10. музыка ржавых кастрюль
11. ангелы
12. бродяга

EAC
Exact Audio Copy V0.99 prebeta 4 from 23. January 2008

Отчёт EAC об извлечении, выполненном 14. августа 2008, 20:09

Александр Барыкин и гр.Карнавал / Никогда не поздно

Дисковод: SONY DVD RW DW-G120A Adapter: 3 ID: 1

Режим чтения : Достоверность
Использование точного потока : Да
Отключение кэша аудио : Да
Использование указателей C2 : Нет

Коррекция смещения при чтении : 6
Способность читать области Lead-in и Lead-out : Нет
Заполнение пропущенных сэмплов тишиной : Да
Удаление блоков с тишиной в начале и конце : Нет
При вычислениях CRC использовались нулевые сэмплы : Да
Интерфейс : Установленный внешний ASPI-интерфейс

Выходной формат : Внутренние WAV-операции
Формат сэмплов : 44.100 Гц; 16 бит; стерео

TOC извлечённого CD

Трек | Старт | Длительность | Начальный сектор | Конечный сектор
---------------------------------------------------------------------
1 | 0:00.00 | 4:27.10 | 0 | 20034
2 | 4:27.10 | 3:09.12 | 20035 | 34221
3 | 7:36.22 | 4:02.05 | 34222 | 52376
4 | 11:38.27 | 4:16.05 | 52377 | 71581
5 | 15:54.32 | 4:33.63 | 71582 | 92119
6 | 20:28.20 | 5:34.22 | 92120 | 117191
7 | 26:02.42 | 4:58.23 | 117192 | 139564
8 | 31:00.65 | 3:25.07 | 139565 | 154946
9 | 34:25.72 | 3:03.25 | 154947 | 168696
10 | 37:29.22 | 2:15.45 | 168697 | 178866
11 | 39:44.67 | 3:44.48 | 178867 | 195714
12 | 43:29.40 | 4:12.15 | 195715 | 214629

Характеристики диапазона извлечения и сообщения об ошибках

Выбранный диапазон

Имя файла H:MusikA.Barykin&KarnavalНикогда не поздноАлександр Барыкин и гр.Карнавал - Никогда не поздно.wav

Пиковый уровень 100.0 %
Качество диапазона 99.9 %
CRC копии 355ECC29
Копирование... OK

Ошибок не произошло

Конец отчёта

1996 Острова 01
Александр Барыкин И Карнавал
01-боб марлей и тётя варя
02-68
03-сумерки
04-острова
05-мороз
06-регги для тебя
07-лампа на столе
08-дорога в никуда
09-бабочка
10-домой с войны
11-я пою
12-зимой
13-откровение

EAC
Exact Audio Copy V0.99 prebeta 4 from 23. January 2008

Отчёт EAC об извлечении, выполненном 14. августа 2008, 15:54

Александр Барыкин и гр.Карнавал / Острова

Дисковод: SONY DVD RW DW-G120A Adapter: 3 ID: 1

Режим чтения : Достоверность
Использование точного потока : Да
Отключение кэша аудио : Да
Использование указателей C2 : Нет

Коррекция смещения при чтении : 6
Способность читать области Lead-in и Lead-out : Нет
Заполнение пропущенных сэмплов тишиной : Да
Удаление блоков с тишиной в начале и конце : Нет
При вычислениях CRC использовались нулевые сэмплы : Да
Интерфейс : Установленный внешний ASPI-интерфейс

Выходной формат : Внутренние WAV-операции
Формат сэмплов : 44.100 Гц; 16 бит; стерео

TOC извлечённого CD

Трек | Старт | Длительность | Начальный сектор | Конечный сектор
---------------------------------------------------------------------
1 | 0:00.00 | 4:54.35 | 0 | 22084
2 | 4:54.35 | 4:09.49 | 22085 | 40808
3 | 9:04.09 | 3:42.41 | 40809 | 57499
4 | 12:46.50 | 4:14.55 | 57500 | 76604
5 | 17:01.30 | 5:07.48 | 76605 | 99677
6 | 22:09.03 | 4:31.36 | 99678 | 120038
7 | 26:40.39 | 6:00.70 | 120039 | 147108
8 | 32:41.34 | 6:39.06 | 147109 | 177039
9 | 39:20.40 | 4:42.32 | 177040 | 198221
10 | 44:02.72 | 4:04.37 | 198222 | 216558
11 | 48:07.34 | 4:48.32 | 216559 | 238190
12 | 52:55.66 | 1:54.01 | 238191 | 246741
13 | 54:49.67 | 5:31.07 | 246742 | 271573

Характеристики диапазона извлечения и сообщения об ошибках

Выбранный диапазон

Имя файла H:MusikA.Barykin&KarnavalОстроваАлександр Барыкин и гр.Карнавал - Острова.wav

Пиковый уровень 91.2 %
Качество диапазона 100.0 %
CRC копии 582B8E68
Копирование... OK

Ошибок не произошло

Конец отчёта

1997 Я Буду Долго Гнать Велосипед 01
Александр Барыкин И Карнавал
01/ букет
02. река любви
03. рождество
04. Москва. Нью-Йорк
05. маленькая Москва
06. 20.00
07. говори мне о любви
08. девчонка
09. звездный мальчик
10. гала
11. как жаль
12. королева бала
13. ты так мила
14. голубые глаза
15. джульетта
16. в стольном во Киеве

EAC
Exact Audio Copy V0.99 prebeta 4 from 23. January 2008

Отчёт EAC об извлечении, выполненном 14. августа 2008, 21:42

Александр Барыкин и гр.Карнавал / Я буду долго гнать велосипед

Дисковод: SONY DVD RW DW-G120A Adapter: 3 ID: 1

Режим чтения : Достоверность
Использование точного потока : Да
Отключение кэша аудио : Да
Использование указателей C2 : Нет

Коррекция смещения при чтении : 6
Способность читать области Lead-in и Lead-out : Нет
Заполнение пропущенных сэмплов тишиной : Да
Удаление блоков с тишиной в начале и конце : Нет
При вычислениях CRC использовались нулевые сэмплы : Да
Интерфейс : Установленный внешний ASPI-интерфейс

Выходной формат : Внутренние WAV-операции
Формат сэмплов : 44.100 Гц; 16 бит; стерео

TOC извлечённого CD

Трек | Старт | Длительность | Начальный сектор | Конечный сектор
---------------------------------------------------------------------
1 | 0:00.00 | 3:40.47 | 0 | 16546
2 | 3:40.47 | 4:07.20 | 16547 | 35091
3 | 7:47.67 | 3:25.28 | 35092 | 50494
4 | 11:13.20 | 4:05.52 | 50495 | 68921
5 | 15:18.72 | 4:31.38 | 68922 | 89284
6 | 19:50.35 | 4:01.45 | 89285 | 107404
7 | 23:52.05 | 4:22.70 | 107405 | 127124
8 | 28:15.00 | 4:29.17 | 127125 | 147316
9 | 32:44.17 | 4:43.58 | 147317 | 168599
10 | 37:28.00 | 4:40.07 | 168600 | 189606
11 | 42:08.07 | 5:09.53 | 189607 | 212834
12 | 47:17.60 | 4:52.40 | 212835 | 234774
13 | 52:10.25 | 3:30.57 | 234775 | 250581
14 | 55:41.07 | 4:18.08 | 250582 | 269939
15 | 59:59.15 | 5:24.37 | 269940 | 294276
16 | 65:23.52 | 4:23.00 | 294277 | 314001

Характеристики диапазона извлечения и сообщения об ошибках

Выбранный диапазон

Имя файла H:MusikA.Barykin&KarnavalЯ буду долго гнать велосипедАлександр Барыкин и гр.Карнавал - Я буду долго гнать велосипед.wav

Пиковый уровень 98.9 %
Качество диапазона 100.0 %
CRC копии 544FCC67
Копирование... OK

Ошибок не произошло

Конец отчёта

1998 Легенды Русского Рока 01
Александр Барыкин И Карнавал
01. Внезапный тупик
02. Остров
03. Пустое слово
04. Я знаю теперь
05. Мона Лиза
06. Тень печали
07. Карусель
08. Взгляды
09. Мир надежд моих
10. Рок-н-рольный марафон
11. Я играю для вас
12. Спасательный круг
13. Крот
14. Звездный корабль
15. Эй, смотри
16. Аэропорт
17. Сумерки

EAC
Exact Audio Copy V0.99 prebeta 4 from 23. January 2008

Отчёт EAC об извлечении, выполненном 13. января 2009, 12:08

Карнавал и Александр Барыкин / Легенды русского рока

Дисковод: SONY DVD RW DW-G120A Adapter: 3 ID: 1

Режим чтения : Достоверность
Использование точного потока : Да
Отключение кэша аудио : Да
Использование указателей C2 : Нет

Коррекция смещения при чтении : 6
Способность читать области Lead-in и Lead-out : Нет
Заполнение пропущенных сэмплов тишиной : Да
Удаление блоков с тишиной в начале и конце : Нет
При вычислениях CRC использовались нулевые сэмплы : Да
Интерфейс : Установленный внешний ASPI-интерфейс

Выходной формат : Внутренние WAV-операции
Формат сэмплов : 44.100 Гц; 16 бит; стерео

TOC извлечённого CD

Трек | Старт | Длительность | Начальный сектор | Конечный сектор
---------------------------------------------------------------------
1 | 0:00.00 | 5:02.15 | 0 | 22664
2 | 5:02.15 | 4:35.58 | 22665 | 43347
3 | 9:37.73 | 3:13.35 | 43348 | 57857
4 | 12:51.33 | 4:26.32 | 57858 | 77839
5 | 17:17.65 | 4:26.68 | 77840 | 97857
6 | 21:44.58 | 6:06.52 | 97858 | 125359
7 | 27:51.35 | 5:00.62 | 125360 | 147921
8 | 32:52.22 | 4:42.20 | 147922 | 169091
9 | 37:34.42 | 3:22.28 | 169092 | 184269
10 | 40:56.70 | 5:01.00 | 184270 | 206844
11 | 45:57.70 | 4:12.52 | 206845 | 225796
12 | 50:10.47 | 4:30.00 | 225797 | 246046
13 | 54:40.47 | 2:33.45 | 246047 | 257566
14 | 57:14.17 | 4:01.20 | 257567 | 275661
15 | 61:15.37 | 5:18.72 | 275662 | 299583
16 | 66:34.34 | 4:18.40 | 299584 | 318973
17 | 70:52.74 | 3:40.13 | 318974 | 335486

Характеристики диапазона извлечения и сообщения об ошибках

Выбранный диапазон

Имя файла H:Musik1997-Легенды русского рокаКарнавал и Александр Барыкин - Легенды русского рока.wav

Пиковый уровень 85.3 %
Качество диапазона 100.0 %
CRC копии 46A20987
Копирование... OK

Ошибок не произошло

Конец отчёта

2001 Волга 01
Александр Барыкин И Карнавал
01. не забудь никогда
02. волга
03. казак
0. птицы
05. регги-егерь
06. ночной клуб
07. первый снег
08. синий цвет
09. друг или враг
10. брат
11. у ворот
12. пойдём со мной
13. первая любовь
14. люберецкие перчатки
15. beladonna
16. 20.00(remix)
17. букет(remix)

EAC
Exact Audio Copy V0.99 prebeta 4 from 23. January 2008

Отчёт EAC об извлечении, выполненном 13. августа 2008, 17:39

Александр Барыкин и гр.Карнавал / Волга

Дисковод: SONY DVD RW DW-G120A Adapter: 3 ID: 1

Режим чтения : Достоверность
Использование точного потока : Да
Отключение кэша аудио : Да
Использование указателей C2 : Нет

Коррекция смещения при чтении : 6
Способность читать области Lead-in и Lead-out : Нет
Заполнение пропущенных сэмплов тишиной : Да
Удаление блоков с тишиной в начале и конце : Нет
При вычислениях CRC использовались нулевые сэмплы : Да
Интерфейс : Установленный внешний ASPI-интерфейс

Выходной формат : Внутренние WAV-операции
Формат сэмплов : 44.100 Гц; 16 бит; стерео

TOC извлечённого CD

Трек | Старт | Длительность | Начальный сектор | Конечный сектор
---------------------------------------------------------------------
1 | 0:00.00 | 4:22.44 | 0 | 19693
2 | 4:22.44 | 4:47.71 | 19694 | 41289
3 | 9:10.40 | 3:35.20 | 41290 | 57434
4 | 12:45.60 | 5:16.32 | 57435 | 81166
5 | 18:02.17 | 4:21.06 | 81167 | 100747
6 | 22:23.23 | 4:10.39 | 100748 | 119536
7 | 26:33.62 | 3:38.35 | 119537 | 135921
8 | 30:12.22 | 4:27.09 | 135922 | 155955
9 | 34:39.31 | 4:39.67 | 155956 | 176947
10 | 39:19.23 | 5:56.14 | 176948 | 203661
11 | 45:15.37 | 4:49.17 | 203662 | 225353
12 | 50:04.54 | 3:33.02 | 225354 | 241330
13 | 53:37.56 | 5:18.69 | 241331 | 265249
14 | 58:56.50 | 3:29.41 | 265250 | 280965
15 | 62:26.16 | 4:47.43 | 280966 | 302533
16 | 67:13.59 | 3:35.07 | 302534 | 318665
17 | 70:48.66 | 3:59.69 | 318666 | 336659

Характеристики диапазона извлечения и сообщения об ошибках

Выбранный диапазон

Имя файла H:MusikA.Barykin&KarnavalВолгаАлександр Барыкин и гр.Карнавал - Волга.wav

Пиковый уровень 98.8 %
Качество диапазона 100.0 %
CRC копии 98FA1C22
Копирование... OK

Ошибок не произошло

Конец отчёта

2002 Молись, Дитя! 00
Александр Барыкин И Карнавал
01-Молись, дитя!
02-Аминь!
03-Божие слово
04-Диво-дивное
05-Каюсь
06-Облака
07-Откровение
08-Птицы
09-Чистые ключи
10-Брат
11-Все пройдет
12-Свети, любовь

EAC
Exact Audio Copy V0.99 prebeta 4 from 23. January 2008

Отчёт EAC об извлечении, выполненном 25. ноября 2008, 16:09

Александр Барыкин / Молись, дитя!

Дисковод: SONY DVD RW DW-G120A Adapter: 3 ID: 1

Режим чтения : Достоверность
Использование точного потока : Да
Отключение кэша аудио : Да
Использование указателей C2 : Нет

Коррекция смещения при чтении : 6
Способность читать области Lead-in и Lead-out : Нет
Заполнение пропущенных сэмплов тишиной : Да
Удаление блоков с тишиной в начале и конце : Нет
При вычислениях CRC использовались нулевые сэмплы : Да
Интерфейс : Установленный внешний ASPI-интерфейс

Выходной формат : Внутренние WAV-операции
Формат сэмплов : 44.100 Гц; 16 бит; стерео

TOC извлечённого CD

Трек | Старт | Длительность | Начальный сектор | Конечный сектор
---------------------------------------------------------------------
1 | 0:00.00 | 3:26.51 | 0 | 15500
2 | 3:26.51 | 4:21.23 | 15501 | 35098
3 | 7:47.74 | 5:00.45 | 35099 | 57643
4 | 12:48.44 | 3:05.12 | 57644 | 71530
5 | 15:53.56 | 4:55.73 | 71531 | 93728
6 | 20:49.54 | 5:47.56 | 93729 | 119809
7 | 26:37.35 | 4:51.05 | 119810 | 141639
8 | 31:28.40 | 5:20.33 | 141640 | 165672
9 | 36:48.73 | 3:03.02 | 165673 | 179399
10 | 39:52.00 | 6:00.21 | 179400 | 206420
11 | 45:52.21 | 4:35.61 | 206421 | 227106
12 | 50:28.07 | 5:57.73 | 227107 | 253954

Характеристики диапазона извлечения и сообщения об ошибках

Выбранный диапазон

Имя файла H:MusikA.BarykinМолись, дитя!Александр Барыкин - Молись, дитя!.wav

Пиковый уровень 98.9 %
Качество диапазона 99.9 %
CRC копии C60681EF
Копирование... OK

Ошибок не произошло

Конец отчёта

2003 Река И Море 01
Александр Барыкин И Карнавал
01. на реке
02. парус
03. черешни
04. осень пришла
05. северные дети
06. волга - река
07. вечер на рейде
08. пляж
09. два цветка
10. наша любовь
11. течет река Волга
12. ночь - голубая тайна
13. любовь земная

EAC
Exact Audio Copy V0.99 prebeta 4 from 23. January 2008

Отчёт EAC об извлечении, выполненном 25. ноября 2008, 4:47

Александр Барыкин / Река и море

Дисковод: SONY DVD RW DW-G120A Adapter: 3 ID: 1

Режим чтения : Достоверность
Использование точного потока : Да
Отключение кэша аудио : Да
Использование указателей C2 : Нет

Коррекция смещения при чтении : 6
Способность читать области Lead-in и Lead-out : Нет
Заполнение пропущенных сэмплов тишиной : Да
Удаление блоков с тишиной в начале и конце : Нет
При вычислениях CRC использовались нулевые сэмплы : Да
Интерфейс : Установленный внешний ASPI-интерфейс

Выходной формат : Внутренние WAV-операции
Формат сэмплов : 44.100 Гц; 16 бит; стерео

TOC извлечённого CD

Трек | Старт | Длительность | Начальный сектор | Конечный сектор
---------------------------------------------------------------------
1 | 0:00.00 | 4:24.48 | 0 | 19847
2 | 4:24.48 | 5:09.73 | 19848 | 43095
3 | 9:34.46 | 4:55.15 | 43096 | 65235
4 | 14:29.61 | 4:37.41 | 65236 | 86051
5 | 19:07.27 | 6:57.59 | 86052 | 117385
6 | 26:05.11 | 5:24.52 | 117386 | 141737
7 | 31:29.63 | 4:30.36 | 141738 | 162023
8 | 36:00.24 | 4:12.30 | 162024 | 180953
9 | 40:12.54 | 4:58.00 | 180954 | 203303
10 | 45:10.54 | 4:18.09 | 203304 | 222662
11 | 49:28.63 | 4:46.15 | 222663 | 244127
12 | 54:15.03 | 3:27.61 | 244128 | 259713
13 | 57:42.64 | 5:19.43 | 259714 | 283681

Характеристики диапазона извлечения и сообщения об ошибках

Выбранный диапазон

Имя файла H:MusikA.BarykinРека и мореАлександр Барыкин - Река и море.wav

Пиковый уровень 99.6 %
Качество диапазона 100.0 %
CRC копии 341B4308
Копирование... OK

Ошибок не произошло

Конец отчёта

2005 Любовь 00
Александр Барыкин И Карнавал
01. О любви
02. Без слов
03. Сон
04. Играй, играй
05. Коснись меня
06. Белые туманы
07. Super Woman
08. Любовь земная
09. Дали
10. Вернись домой
11. Птицы

EAC
Exact Audio Copy V0.99 prebeta 4 from 23. January 2008

Отчёт EAC об извлечении, выполненном 25. ноября 2008, 16:50

Александр Барыкин / Любовь

Дисковод: SONY DVD RW DW-G120A Adapter: 3 ID: 1

Режим чтения : Достоверность
Использование точного потока : Да
Отключение кэша аудио : Да
Использование указателей C2 : Нет

Коррекция смещения при чтении : 6
Способность читать области Lead-in и Lead-out : Нет
Заполнение пропущенных сэмплов тишиной : Да
Удаление блоков с тишиной в начале и конце : Нет
При вычислениях CRC использовались нулевые сэмплы : Да
Интерфейс : Установленный внешний ASPI-интерфейс

Выходной формат : Внутренние WAV-операции
Формат сэмплов : 44.100 Гц; 16 бит; стерео

TOC извлечённого CD

Трек | Старт | Длительность | Начальный сектор | Конечный сектор
---------------------------------------------------------------------
1 | 0:00.00 | 5:11.56 | 0 | 23380
2 | 5:11.56 | 6:12.35 | 23381 | 51315
3 | 11:24.16 | 3:53.73 | 51316 | 68863
4 | 15:18.14 | 5:08.36 | 68864 | 91999
5 | 20:26.50 | 4:22.53 | 92000 | 111702
6 | 24:49.28 | 5:18.39 | 111703 | 135591
7 | 30:07.67 | 3:56.71 | 135592 | 153362
8 | 34:04.63 | 5:23.59 | 153363 | 177646
9 | 39:28.47 | 4:49.42 | 177647 | 199363
10 | 44:18.14 | 4:06.27 | 199364 | 217840
11 | 48:24.41 | 5:13.70 | 217841 | 241385

Характеристики диапазона извлечения и сообщения об ошибках

Выбранный диапазон

Имя файла H:MusikA.BarykinЛюбовьАлександр Барыкин - Любовь.wav

Пиковый уровень 96.7 %
Качество диапазона 100.0 %
CRC копии 217F91CC
Копирование... OK

Ошибок не произошло

Конец отчёта

2006 Нелли 00
Александр Барыкин И Карнавал
01. ну и пусть
02. к тебе
03. её зовут Нелли04-судьба
05. аphrodite's сhild
06. цветы любви
07. ангел мой
08. о, Нелли
09. держись
10. я пройду

EAC
Exact Audio Copy V0.99 prebeta 4 from 23. January 2008

Отчёт EAC об извлечении, выполненном 25. ноября 2008, 15:08

Александр Барыкин / Нелли

Дисковод: SONY DVD RW DW-G120A Adapter: 3 ID: 1

Режим чтения : Достоверность
Использование точного потока : Да
Отключение кэша аудио : Да
Использование указателей C2 : Нет

Коррекция смещения при чтении : 6
Способность читать области Lead-in и Lead-out : Нет
Заполнение пропущенных сэмплов тишиной : Да
Удаление блоков с тишиной в начале и конце : Нет
При вычислениях CRC использовались нулевые сэмплы : Да
Интерфейс : Установленный внешний ASPI-интерфейс

Выходной формат : Внутренние WAV-операции
Формат сэмплов : 44.100 Гц; 16 бит; стерео

TOC извлечённого CD

Трек | Старт | Длительность | Начальный сектор | Конечный сектор
---------------------------------------------------------------------
1 | 0:00.00 | 3:47.09 | 0 | 17033
2 | 3:47.09 | 4:25.69 | 17034 | 36977
3 | 8:13.03 | 4:17.46 | 36978 | 56298
4 | 12:30.49 | 4:34.48 | 56299 | 76896
5 | 17:05.22 | 4:16.45 | 76897 | 96141
6 | 21:21.67 | 5:45.28 | 96142 | 122044
7 | 27:07.20 | 4:48.58 | 122045 | 143702
8 | 31:56.03 | 3:54.67 | 143703 | 161319
9 | 35:50.70 | 3:43.66 | 161320 | 178110
10 | 39:34.61 | 5:03.00 | 178111 | 200835

Характеристики диапазона извлечения и сообщения об ошибках

Выбранный диапазон

Имя файла H:MusikA.BarykinНеллиАлександр Барыкин - Нелли.wav

Пиковый уровень 96.6 %
Качество диапазона 100.0 %
CRC копии A256F796
Копирование... OK

Ошибок не произошло

Конец отчёта

2008 Александр Барыкин (и Владимир Кузьмин) и гр. Карнавал 00
Александр Барыкин И Карнавал
01. Внезапный тупик
02. Пустое слово
03. Я знаю теперь
04. Ступени
05. Элегия
06. Но все-таки лето!
07. Мона Лиза
08. Запасной игрок
09. Стоп мотор
10. Две копейки
11. Программа телепередач на завтра
12. Когда мы влюблены
13. Букет

EAC
Exact Audio Copy V1.0 beta 3 from 29. August 2011

EAC extraction logfile from 16. February 2012, 7:59

А. БАРЫКИН и гр. КАРНАВАЛ / The best of (Melodiya ua NMCCD-0180)

Used drive : HL-DT-STDVDRAM GH20NS10 Adapter: 3 ID: 0

Read mode : Secure
Utilize accurate stream : Yes
Defeat audio cache : Yes
Make use of C2 pointers : No

Read offset correction : 667
Overread into Lead-In and Lead-Out : No
Fill up missing offset samples with silence : Yes
Delete leading and trailing silent blocks : No
Null samples used in CRC calculations : Yes
Used interface : Native Win32 interface for Win NT & 2000

Used output format : User Defined Encoder
Selected bitrate : 896 kBit/s
Quality : High
Add ID3 tag : No
Command line compressor : C:Program Files (x86)Exact Audio Copywavpack.exe
Additional command line options : -hm %source% %dest%

TOC of the extracted CD

Track | Start | Length | Start sector | End sector
---------------------------------------------------------
1 | 0:00.00 | 5:00.24 | 0 | 22523
2 | 5:00.24 | 3:12.33 | 22524 | 36956
3 | 8:12.57 | 3:48.43 | 36957 | 54099
4 | 12:01.25 | 4:30.64 | 54100 | 74413
5 | 16:32.14 | 5:19.22 | 74414 | 98360
6 | 21:51.36 | 4:54.36 | 98361 | 120446
7 | 26:45.72 | 4:25.09 | 120447 | 140330
8 | 31:11.06 | 5:11.30 | 140331 | 163685
9 | 36:22.36 | 6:17.50 | 163686 | 192010
10 | 42:40.11 | 5:26.00 | 192011 | 216460
11 | 48:06.11 | 3:19.14 | 216461 | 231399
12 | 51:25.25 | 4:15.56 | 231400 | 250580
13 | 55:41.06 | 3:37.41 | 250581 | 266896

Range status and errors

Selected range

Filename C:UsersАндрейMusicА. БАРЫКИН и гр. КАРНАВАЛ - The best ofА. БАРЫКИН и гр. КАРНАВАЛ - The best of (Melodiya ua NMCCD-0180).wav

Peak level 100.0 %
Extraction speed 7.9 X
Range quality 100.0 %
Test CRC EE404D5D
Copy CRC EE404D5D
Copy OK

No errors occurred

AccurateRip summary

Track 1 accurately ripped (confidence 1) [90B3EF27] (AR v1)
Track 2 accurately ripped (confidence 1) (AR v1)
Track 3 accurately ripped (confidence 1) [470AD119] (AR v1)
Track 4 accurately ripped (confidence 1) [8733590D] (AR v1)
Track 5 accurately ripped (confidence 1) [8403C374] (AR v1)
Track 6 accurately ripped (confidence 1) (AR v1)
Track 7 accurately ripped (confidence 1) [F21F2060] (AR v1)
Track 8 accurately ripped (confidence 1) [20C0D1B2] (AR v1)
Track 9 accurately ripped (confidence 1) [411751C6] (AR v1)
Track 10 accurately ripped (confidence 1) [CCF88925] (AR v1)
Track 11 accurately ripped (confidence 1) [7DA4E709] (AR v1)
Track 12 accurately ripped (confidence 1) [944A56F4] (AR v1)
Track 13 accurately ripped (confidence 1) [D562C593] (AR v1)

All tracks accurately ripped

End of status report

==== Log checksum F02793A9DC33AD3B6A6160BCAB7C2264CE2561619D7B83029352A907C90228C3 ====

2008 Ракета С Юга (А. Барыкин и группа DUB TV) 00
Александр Барыкин И Карнавал
01. Ракета с Юга
02. Джамайк
03. Под Шум Дождя
04. Рыбка
05. Чайник
06. Корабль )
07. Звёздный Карнавал
08. Лето
09. Я Знаю Теперь
10. Будь со Мной Рядом
11. 20-00
12. Сбежало Молоко
13. 20-0Dub
14. Good-bye, Kingston (Вечер на Рейде – ремикс)

EAC
Exact Audio Copy V0.99 prebeta 4 from 23. January 2008

Отчёт EAC об извлечении, выполненном 13. января 2009, 9:38

БАРЫКИН АЛЕКСАНДР И ГРУППА DUB TV / Ракета с Юга

Дисковод: SONY DVD RW DW-G120A Adapter: 3 ID: 1

Режим чтения : Достоверность
Использование точного потока : Да
Отключение кэша аудио : Да
Использование указателей C2 : Нет

Коррекция смещения при чтении : 6
Способность читать области Lead-in и Lead-out : Нет
Заполнение пропущенных сэмплов тишиной : Да
Удаление блоков с тишиной в начале и конце : Нет
При вычислениях CRC использовались нулевые сэмплы : Да
Интерфейс : Установленный внешний ASPI-интерфейс

Выходной формат : Внутренние WAV-операции
Формат сэмплов : 44.100 Гц; 16 бит; стерео

TOC извлечённого CD

Трек | Старт | Длительность | Начальный сектор | Конечный сектор
---------------------------------------------------------------------
1 | 0:00.00 | 5:33.29 | 0 | 25003
2 | 5:33.29 | 3:24.00 | 25004 | 40303
3 | 8:57.29 | 5:38.57 | 40304 | 65710
4 | 14:36.11 | 5:11.19 | 65711 | 89054
5 | 19:47.30 | 3:49.57 | 89055 | 106286
6 | 23:37.12 | 3:34.10 | 106287 | 122346
7 | 27:11.22 | 5:04.10 | 122347 | 145156
8 | 32:15.32 | 3:34.10 | 145157 | 161216
9 | 35:49.42 | 4:01.19 | 161217 | 179310
10 | 39:50.61 | 4:18.57 | 179311 | 198717
11 | 44:09.43 | 3:48.19 | 198718 | 215836
12 | 47:57.62 | 3:48.19 | 215837 | 232955
13 | 51:46.06 | 3:14.66 | 232956 | 247571
14 | 55:00.72 | 3:28.16 | 247572 | 263187

Характеристики диапазона извлечения и сообщения об ошибках

Выбранный диапазон

Имя файла H:Musik2008-Ракета с югаБАРЫКИН АЛЕКСАНДР И ГРУППА DUB TV - Ракета с Юга.wav

Пиковый уровень 98.8 %
Качество диапазона 100.0 %
CRC копии 6A630204
Копирование... OK

Ошибок не произошло

Конец отчёта
Музыка / Lossless / Рок, Панк, Метал, Альтернатива.
СКАЧАТЬ БЕСПЛАТНО  [6.2 GB]


04
апр
2011

Александр Барыкин и рок-группа Карнавал - Карнавал.25 лет. [2005, Rock, DVD5 (сжатый)]

Формат: DVD5 (сжатый), DVD Video, MPEG2, AC3
Песня: Карнавал.25 лет.
Жанр: Rock
Продолжительность: 03:01:12
Год выпуска: 2005
Видео: 720*576(4:3),25 fps,MPEG-2 (PAL),~3112 kbps(8000 kbps) avg, 0.684 bit/pixel
Аудио: 48 kHz, MPEG Layer 3, 2 ch,AC-3, ~192.00 kbps avg
Доп. информация: Памяти Александра Барыкина... Треклист01. Спасательный круг (А. Барыкин) 02. Мосты (А. Барыкин) 03. 20-00 (А. Барыкин) 04. Храни меня мой талисман (А. Барыкин) 05. Девушка моей мечты (А. Барыкин) 06. Кресты и звезды (А. Барыкин) 07. Дождь и снег (А. Барыкин) 08. Программа телепередач (А. Барыкин) 09. Аэропорт (А. Б ...

11
янв
2014

Александр Барыкин и группа Карнавал (Мелодия Украина) [1982, Рок, MP3]

Формат: MP3, tracks, 320kbps
Год выпуска: 1982
Страна: СССР
Жанр: Рок
Продолжительность: 01:06:02
Описание: 01. Внезапный тупик (В.Кузьмин - И.Кохановский) 02. Пустое слово (В.Кузьмин, В.Матецкий - И.Кохановский) 03. Я знаю теперь (А.Барыкин, В.Кузьмин - И.Кохановский) 04. Ступени (Д.Тухманов - И.Кохановский) 05. Элегия (Д.Тухманов - И.Кохановский) 06. Но всё-таки лето! (Д.Тухманов - В.Харитонов) 07. Мона Лиза (Д.Тухманов - И.Кохановский) 08. Запасной игрок (А.Барыкин - П.Жагун) 09. Стоп, мотор (А.Барыкин - П.Жагун) 10. Две копейки (Д.Тухманов - Б.Дубровин) 11. Программа телепередач на завтр ...

21
фев
2013

Александр Барыкин и группа Карнавал - 30 лет спустя [2009, Rock, DVDRip]

Формат: DVDRip, AVI, Другой MPEG4, MP3
Песня: 30 лет спустя
Жанр: Rock
Продолжительность: 01:12:44
Год выпуска: 20.11.2009
Видео: 640 х 480 (4:3), 25.000 fps, MPEG-4 Visual, ~2689 kbps avg, 0.350 bit/pixel
Аудио: 44.1 KHz, MPEG Layer 3, 2 ch, 224 Kbps avg
Доп. информация: Юбилейный концерт в ГЦКЗ "РОССИЯ" в Лужниках, посвященный тридцатилетию рок группы "Карнавал"
Треклист: 01 Ты увидишь карнавал 02 Внезапный тупик 03 Я знаю теперь 04 Звёздный корабль 05 Чудо-остров 06 20-00 07 Дождь и снег 08 Сбежало молоко 09 Май 10 Дай мне руку, сестра 11 Поверь в себя 12 Аэропорт 13 Букет 14 Спасательный ...

28
сен
2009

Александр Барыкин и группа Dub TV Ракета с юга [2009, Rock, Reggae, Dub]

Формат: MP3, tracks, 320kbps
Год выпуска: 2009
Страна: Россия
Жанр: Rock, Reggae, Dub
Продолжительность: 00:58:29
Трэклист: 01. Ракета с юга 02. Джамайка 03. Под шум дождя 04. Рыбка 05. Чайник 06. Звездный корабль 07. Звёздный карнавал 08. Лето 09. Я знаю теперь 10. Будь со мной рядом 11. 20.00 12. Одинокий день 13. 20-00 Dub 14. Good-bye, Kingston Не забывайте нажимать:

26
апр
2014

Александр Барыкин и Давид Тухманов - Ступени (24 bits, 96 khz, VinylRip) [1985, Rock, FLAC]

Формат: FLAC, (image + .cue), lossless
Год выпуска: 1985
Страна: СССР
Жанр: Rock
Продолжительность: 00:36:33
Описание: 01 - Ступени 02 - Элегия 03 - Но все-таки лето! 04 - Мона Лиза 05 - Запасной игрок 06 - Стоп, мотор 07 - Две копейки
Доп. информация: Источник оцифровки автором раздачи. Код класса состояния винила EX Устройство воспроизведения Panasonic SL-H401 Головка звукоснимателя AudioTechnica AT130E + AT450E Occ Stylus Предварительный усилитель-фонокорректор NAD PP2 АЦП Creative E-MU 0404PCI Программа-оцифровщик Adobe Audition CC6 Обработка НЕТ. Спектр, АЧХ, уровень записи Инфор ...

31
мая
2010

Александр Барыкин - Grand Collection [2000, Pop, MP3]

Формат: MP3, tracks, 320kbps
Год выпуска: 2000
Страна: Россия
Жанр: Pop
Продолжительность: 01:13:06
Трэклист: 01. Букет 02. Мороз 03. Маленькая Москва 04. Любовь моя 05. Никогда не поздно 06. Про Федю Протасова 07. За той рекой 08. 20.00 09. Аэропорт 10. Тает, тает 11. Сумерки 12. Внезапный тупик 13. Я знаю теперь 14. Больше не встречу 15. Натали 16. Остров 17. Программа передач на завтра Не забывайте нажимать:

28
мар
2014

Александр Барыкин, Давид Тухманов - Ступени [1985, Рок, MP3]

Формат: MP3, tracks, 320kbps
Год выпуска: 1985
Страна: СССР
Жанр: Рок
Продолжительность: 00:36:05
Описание: 01. Ступени (Д.Тухманов - И.Кохановский) 02. Элегия (Д.Тухманов - И.Кохановский) 03. Но все-таки лето! (Д.Тухманов - В.Харитонов) 04. Мона Лиза (Д.Тухманов - И.Кохановский) 05. Запасной игрок (А.Барыкин - П.Жагун) 06. Стоп, мотор (А.Барыкин - П.Жагун) 07. Две копейки (Д.Тухманов - Б.Дубровин)

06
сен
2009

Александр Барыкин - Rock не Star [2009, Rock]

Формат: MP3, tracks, 320kbps
Год выпуска: 2009
Страна: Россия
Жанр: Rock
Продолжительность: 00:43:12
Трэклист: 01. Его небесные глаза 02. Карусель 03. Игрок 04. Поверь в себя 05. Rock-n-Roll 06. Весна 07. Ангел господень 08. Ни один из нас 09. На дороге 10. Облака Посмотреть 11. Всегда 12. Лира
Доп. информация: Новый альбом Александра Барыкина, записан им к 30 летию группы "Карнавал", совместно с гитаристами Геннадием Мартовым (экс "Рондо", гр."Земляне") и Григорием Безугловым (гр."Круиз"). В альбом вошли 3 композиции группы "Карнавал" начала 80-х (в новом звуке), 5 новых песен в стиле glam & ...

21
дек
2010

E-Rotic - 18 Альбомов [1994-2006, Eurodance, MP3]

Формат: MP3, tracks, 128kbps
Год выпуска: 1994-2006
Страна: Германия
Жанр: Eurodance
Продолжительность: 14:07:48
Описание: 1994 Max Don't Have Sex With Your Ex 001. Max Don't Have Sex With Your Ex (3:31) 2. Max Don't Have Sex With Your Ex (5:24) 3. Max Don't Have Sex With Your Ex (5:05) 4. Max Don't Have Sex With Your Ex (5:23) 1995 Sex Affairs 001. Max Don't Have Sex With Your Ex (3:31) 2. Big Max (4:23) 3. Sex Me (4:00) 4. Come On Make Love To Me (3:28 ) 5. Fred Come To Bed (3:58 ) 6. Wild Love (3:59) 7. Sex On The Phone (3:57) 8. Falling For A Witch (3:47) 9. Take My Love (4:59) 10. Final ...

22
фев
2011

Александр Маршал - Вне альбомов [2011, Шансон, MP3]

Формат: MP3, tracks, 320kbps
Год выпуска: 2011
Страна: Россия
Жанр: Шансон
Продолжительность: 02:53:41
Описание: Треклист 01 Маршал Александр и Toto Cutugno - Эммигрант 02 Маршал Александр и Иванов Александр - Спасательный круг 03 Маршал и Самсон Александр - Время - вор 04 Маршал Алексадр и Стоцкая Анастасия - Дай мне 05 Маршал Александр и Ариана - Я тебя никогда не забуду 06 Маршал Александр и Медяник Владислав - У кафе Метелица 07 Маршал Александр и Доктор Ватсон - Песня о друге 08 Маршал Александр и Калинина Е - Снежный вальс 09 Маршал Александр и Лолита - Две любви 10 Маршал Александр и Лю ...

07
сен
2008

Александр Шапиро - 13 альбомов [1996-2007, Шансон]

Формат: MP3, 320kbps
Год выпуска: 1996-2007
Жанр: Шансон
Альбомы: 1996 - Играй моя гитара 01. Играй, моя гитара 02. Печаль 03. Вы сейчас далеко 04. Продавец К.П. 05. Принцесса 06. Старый парк 07. Аленушка 08. Разгулялась непогода 09. Грусть, молчи 10. Побег 11. Свидание 12. Гуляй, братва 13. Не забывай 14. Встреча 1997 - Моя дорога 01. Моя дорога 02. У цыганского костра 03. Кукушка 04. Одиночество 05. Ты со мной 06. Волшебный саксофон 07. Фотография 08. Променял 09. На семь бед 10. Говорила мама 11. Колыбельная 12. Под мотив дождя 13. Он тебя в Париже ждет 14. От Нью-Йорка до Москвы 1998 - ...

24
июл
2008

Александр Солодуха - 6 альбомов / 1996-2007/ [1996-2007, Шансон]

Формат: MP3, 256-320 kb/s
Год выпуска: 1996-2007
Жанр: Шансон
Треклист: Посвящение женщине 1996 01. Любимая женщина 02. Неравный брак 03. Неприкаянная любовь 04. Посвящение женщине 05. Бессонница 06. Поздняя любовь 07. На улице старинной 08. Одиночество 09. Одинокий 10. На ветру 11. Вспоминайте меня 12. Дорога моя Калина, калина 2000 01. Смородина 02. Калина, калина 03. Вишневый туман 04. Между двух огней 05. Обнимала, не любила 06. Плыть 07. Сын 08. Дым 09. Грешник 10. Кто не рискует... Одинокий 2002 01. Одинокий 02. Эта женщина уходит от меня 03. Королева зимы 04. Дни любви 05. Окольцо ...

24
июн
2008

Александр Кузнецов - 6 альбомов /2000-2006/ [mp3, 192]

Жанр: Шансон
Формат: MP3
Битрейт аудио: 192 - 320 kb/s
Трэклист: Судьба (2000) 01. Смеются вороны 02. Моя звезда 03. Вагончик катится 04. Судьба 05. Доброй ночи 06. Седой налетчик 07. Мой кореш Колька 08. Люси 09. Застава 10. Я возвращаюсь Закон - тайга (2001) 01. Закон - Тайга 02. Стукачок 03. Чифирок 04. Автозак 05. Я когда-то вернусь 06. Звонок 07. Закон тюрьмы 08. Сизари 09. Письмецо 10. Вы правы мадам 11. На Покровке 12. Пишите письма Несознанка (2001) 01. Мой брат по крови 02. Несознанка 03. Амнистия 04. Тома 05. Ай догорай 06. Вагончик катится 07. Казенный дом 08. На 101-м километ ...

09
июл
2007

(Шансон)Александр Розенбаум Философии (6 альбомов) (2004) [mp3, 224]

Страна: Россия
Год выпуска: 2004
Жанр: шансон
Продолжительность: 6ч. 46мин.
Формат: MP3
Битрейт аудио: 224кБит/сек
Трэклист: 1. А.Розенбаум - 01 Вещая судьба (3:47) 2. А.Розенбаум - 02 Воскресение (3:54) 3. А.Розенбаум - 03 Братан (4:05) 4. А.Розенбаум - 04 Разговор подслушанный в электричке Ленинград - МГА (2:18) 5. А.Розенбаум - 05 У окна (0:59) 6. А.Розенбаум - 06 Камикадзе (2:55) 7. А.Розенбаум - 07 Нету времени (3:01) 8. А.Розенбаум - 08 Низкий старт (3:52) 9. А.Розенбаум - 09 Перекати поле (3:40) 10. А.Розенбаум - 10 Два билета на Манхеттен (5:08) 11. А.Розенбаум - 11 Целая жизнь (4:43) ...

20
июн
2008

Черный Лукич (Вадим Кузьмин), 18 альбомов + 2 концерта (2008) [mp3, 320]

Страна: Россия
Год выпуска: 2008
Жанр: Punk, Rock
Формат: MP3
Битрейт аудио: 320 kbps
Трэклист: Спинки мента1987 - Кучи в ночи (192 kbps) Кучи в ночи
Год выпуска: 1987
Формат: MP3
Битрейт аудио: 192 kbps
Продолжительность: 26:53
Трэклист: 1. Спинки Мента - Доброе утро (2:16) 2. Спинки Мента - Ночь близка (3:34) 3. Спинки Мента - Сказка сказок (2:33) 4. Спинки Мента - Кучи в ночи (3:32) 5. Спинки Мента - Панковская предвыборная (2:03) 6. Спинки Мента - Military country (Афган) (1:12) 7. Спинки Мента - Весна 2 (1:42) 8. Спинки Мента - Одеяльце для Миши Горбачёва (0:45) 9. Спинки Мента - Грязным ...