02
апр
2013

Boney M. - Ultimate [2011, Disco, FLAC]

Boney M. - Ultimate

Формат: FLAC, (tracks+ .cue), lossless
Год выпуска: 2011
Страна: Germany
Жанр: Disco
Продолжительность: 02:22:20
Описание:
Треклист

CD -1 66:11

Classic Hits

01. Daddy Cool
02. Rasputin
03. Rivers of Babylon
04. Ma Baker
05. Hooray! Hooray! It's a Holi-Holiday
06. Sunny
07. Happy Song
08. Belfast
09. Brown Girl in the Ring
10. Kalimba de Luna
11. Felicidad (Margherita)
12. Mary's Boy Child/Oh My Lord
13. Baby Do You Wanna Bump
14. Painter Man
15. Gotta Go Home
16. No Woman No Cry
17. Sunny (Mousse T. Radio Mix)
18. A Moment of Love

CD -2 76:09

Boney M. Goes Club

01. Barbra Streisand (Mega Mashup-Mix-Medley vs. La Bouche, No Mercy, Chicken Soup)
02. Boney M. (Mega Mashup-Mix-Medley vs. No Mercy, Eruption, La Bouche)
03. Ma Baker (Club Mix)
04. Daddy Cool (Club Mix)
05. Sunny (Club Mix)
06. Rivers of Babylon (Club Mix)
07. Gotta Go Home (Club Mix)
08. Rasputin (Club Mix)
09. Happy Song (Club Mix)
10. Barbra Streisand vs. Marilyn Monroe (Club Mix)
11. Who the F**k Is Wikileaks
12. Be Bop A Lula (House Mix/Radio Edit)
13. Barbra Streisand (Radio Edit by Duck Sauce)

Доп. информация:
EAC CD 1
Exact Audio Copy V1.0 beta 1 from 15. November 2010

EAC extraction logfile from 12. July 2011, 10:34

Boney M. / Classic Hits CD1

Used drive : PLEXTOR CD-R PREMIUM2 Adapter: 4 ID: 0

Read mode : Secure
Utilize accurate stream : Yes
Defeat audio cache : Yes
Make use of C2 pointers : No

Read offset correction : 30
Overread into Lead-In and Lead-Out : Yes
Fill up missing offset samples with silence : Yes
Delete leading and trailing silent blocks : No
Null samples used in CRC calculations : Yes
Used interface : Native Win32 interface for Win NT & 2000
Gap handling : Appended to previous track

Used output format : User Defined Encoder
Selected bitrate : 1024 kBit/s
Quality : High
Add ID3 tag : No
Command line compressor : C:Program Files (x86)Exact Audio CopyFlacflac.exe
Additional command line options : -8 -V -T "ARTIST=%a" -T "TITLE=%t" -T "ALBUM=%g" -T "DATE=%y" -T "TRACKNUMBER=%n" -T "TOTALTRACKS=%x" -T "GENRE=%m" -T "ALBUMARTIST=%v" -T "ALBUM ARTIST=%v" -T "COMMENT=EAC Secure Mode, Test & Copy, AccurateRip, FLAC -8" %s

TOC of the extracted CD

Track | Start | Length | Start sector | End sector
---------------------------------------------------------
1 | 0:00.00 | 3:28.43 | 0 | 15642
2 | 3:28.43 | 4:27.30 | 15643 | 35697
3 | 7:55.73 | 4:17.00 | 35698 | 54972
4 | 12:12.73 | 4:07.30 | 54973 | 73527
5 | 16:20.28 | 3:57.00 | 73528 | 91302
6 | 20:17.28 | 3:58.45 | 91303 | 109197
7 | 24:15.73 | 3:59.45 | 109198 | 127167
8 | 28:15.43 | 3:28.60 | 127168 | 142827
9 | 31:44.28 | 4:02.15 | 142828 | 160992
10 | 35:46.43 | 4:14.15 | 160993 | 180057
11 | 40:00.58 | 2:53.00 | 180058 | 193032
12 | 42:53.58 | 4:03.00 | 193033 | 211257
13 | 46:56.58 | 2:28.45 | 211258 | 222402
14 | 49:25.28 | 3:18.30 | 222403 | 237282
15 | 52:43.58 | 2:33.60 | 237283 | 248817
16 | 55:17.43 | 4:19.30 | 248818 | 268272
17 | 59:36.73 | 3:21.15 | 268273 | 283362
18 | 62:58.13 | 3:13.03 | 283363 | 297840

Track 1

Filename J:EAC1 - Daddy Cool.wav

Pre-gap length 0:00:02.00

Peak level 99.9 %
Extraction speed 2.1 X
Track quality 100.0 %
Test CRC 85B72D79
Copy CRC 85B72D79
Track not present in AccurateRip database
Copy OK

Track 2

Filename J:EAC2 - Rasputin.wav

Pre-gap length 0:00:00.72

Peak level 99.9 %
Extraction speed 2.3 X
Track quality 100.0 %
Test CRC D937EC7F
Copy CRC D937EC7F
Track not present in AccurateRip database
Copy OK

Track 3

Filename J:EAC3 - Rivers Of Babylon.wav

Pre-gap length 0:00:00.74

Peak level 99.9 %
Extraction speed 2.3 X
Track quality 99.9 %
Test CRC AA6724D9
Copy CRC AA6724D9
Track not present in AccurateRip database
Copy OK

Track 4

Filename J:EAC4 - Ma Baker.wav

Pre-gap length 0:00:00.74

Peak level 99.9 %
Extraction speed 2.4 X
Track quality 99.9 %
Test CRC 0A0D7063
Copy CRC 0A0D7063
Track not present in AccurateRip database
Copy OK

Track 5

Filename J:EAC5 - Hooray! Hooray! It's A Holi-Holiday.wav

Pre-gap length 0:00:00.71

Peak level 99.9 %
Extraction speed 2.6 X
Track quality 100.0 %
Test CRC F40745F9
Copy CRC F40745F9
Track not present in AccurateRip database
Copy OK

Track 6

Filename J:EAC6 - Sunny.wav

Pre-gap length 0:00:00.72

Peak level 99.9 %
Extraction speed 2.3 X
Track quality 100.0 %
Test CRC 23FF4638
Copy CRC 23FF4638
Track not present in AccurateRip database
Copy OK

Track 7

Filename J:EAC7 - Happy Song.wav

Pre-gap length 0:00:00.72

Peak level 99.9 %
Extraction speed 2.3 X
Track quality 100.0 %
Test CRC 4073E234
Copy CRC 4073E234
Track not present in AccurateRip database
Copy OK

Track 8

Filename J:EAC8 - Belfast.wav

Pre-gap length 0:00:00.72

Peak level 99.9 %
Extraction speed 2.3 X
Track quality 100.0 %
Test CRC 871CB52D
Copy CRC 871CB52D
Track not present in AccurateRip database
Copy OK

Track 9

Filename J:EAC9 - Brown Girl In The Ring.wav

Pre-gap length 0:00:00.72

Peak level 99.9 %
Extraction speed 2.3 X
Track quality 100.0 %
Test CRC 35C70319
Copy CRC 35C70319
Track not present in AccurateRip database
Copy OK

Track 10

Filename J:EAC10 - Kalimba De Luna.wav

Pre-gap length 0:00:00.72

Peak level 99.9 %
Extraction speed 2.2 X
Track quality 100.0 %
Test CRC A5373E13
Copy CRC A5373E13
Track not present in AccurateRip database
Copy OK

Track 11

Filename J:EAC11 - Felicidad (Margherita).wav

Pre-gap length 0:00:00.71

Peak level 99.9 %
Extraction speed 2.7 X
Track quality 99.9 %
Test CRC 5F2D5C2C
Copy CRC 5F2D5C2C
Track not present in AccurateRip database
Copy OK

Track 12

Filename J:EAC12 - Mary's Boy Child - Oh My Lord.wav

Pre-gap length 0:00:00.73

Peak level 99.9 %
Extraction speed 2.4 X
Track quality 100.0 %
Test CRC 2E941D20
Copy CRC 2E941D20
Track not present in AccurateRip database
Copy OK

Track 13

Filename J:EAC13 - Baby Do You Wanna Bump.wav

Pre-gap length 0:00:00.72

Peak level 99.9 %
Extraction speed 2.4 X
Track quality 100.0 %
Test CRC 12DE748B
Copy CRC 12DE748B
Track not present in AccurateRip database
Copy OK

Track 14

Filename J:EAC14 - Painter Man.wav

Pre-gap length 0:00:00.73

Peak level 99.9 %
Extraction speed 2.4 X
Track quality 100.0 %
Test CRC 98678A55
Copy CRC 98678A55
Track not present in AccurateRip database
Copy OK

Track 15

Filename J:EAC15 - Gotta Go Home.wav

Pre-gap length 0:00:00.72

Peak level 99.9 %
Extraction speed 2.5 X
Track quality 100.0 %
Test CRC 940A307E
Copy CRC 940A307E
Track not present in AccurateRip database
Copy OK

Track 16

Filename J:EAC16 - No Woman No Cry.wav

Pre-gap length 0:00:00.72

Peak level 99.9 %
Extraction speed 2.2 X
Track quality 100.0 %
Test CRC 66AF2A74
Copy CRC 66AF2A74
Track not present in AccurateRip database
Copy OK

Track 17

Filename J:EAC17 - Sunny (Mouse T. Radio Mix).wav

Pre-gap length 0:00:00.73

Peak level 99.9 %
Extraction speed 2.2 X
Track quality 100.0 %
Test CRC 0F114809
Copy CRC 0F114809
Track not present in AccurateRip database
Copy OK

Track 18

Filename J:EAC18 - A Moment Of Love.wav

Pre-gap length 0:00:00.73

Peak level 99.9 %
Extraction speed 2.2 X
Track quality 100.0 %
Test CRC AF354279
Copy CRC AF354279
Track not present in AccurateRip database
Copy OK

None of the tracks are present in the AccurateRip database

No errors occurred

End of status report

EAC CD 2
Exact Audio Copy V1.0 beta 1 from 15. November 2010

EAC extraction logfile from 14. July 2011, 21:17

Boney M. / Boney M. Goes Club CD2

Used drive : PLEXTOR CD-R PREMIUM2 Adapter: 4 ID: 0

Read mode : Secure
Utilize accurate stream : Yes
Defeat audio cache : Yes
Make use of C2 pointers : No

Read offset correction : 30
Overread into Lead-In and Lead-Out : Yes
Fill up missing offset samples with silence : Yes
Delete leading and trailing silent blocks : No
Null samples used in CRC calculations : Yes
Used interface : Native Win32 interface for Win NT & 2000
Gap handling : Appended to previous track

Used output format : User Defined Encoder
Selected bitrate : 1024 kBit/s
Quality : High
Add ID3 tag : No
Command line compressor : C:Program Files (x86)Exact Audio CopyFlacflac.exe
Additional command line options : -8 -V -T "ARTIST=%a" -T "TITLE=%t" -T "ALBUM=%g" -T "DATE=%y" -T "TRACKNUMBER=%n" -T "TOTALTRACKS=%x" -T "GENRE=%m" -T "ALBUMARTIST=%v" -T "ALBUM ARTIST=%v" -T "COMMENT=EAC Secure Mode, Test & Copy, AccurateRip, FLAC -8" %s

TOC of the extracted CD

Track | Start | Length | Start sector | End sector
---------------------------------------------------------
1 | 0:00.00 | 15:53.00 | 0 | 71474
2 | 15:53.00 | 14:44.15 | 71475 | 137789
3 | 30:37.15 | 4:55.45 | 137790 | 159959
4 | 35:32.60 | 4:42.15 | 159960 | 181124
5 | 40:15.00 | 4:10.00 | 181125 | 199874
6 | 44:25.00 | 4:15.00 | 199875 | 218999
7 | 48:40.00 | 4:26.45 | 219000 | 238994
8 | 53:06.45 | 4:33.00 | 238995 | 259469
9 | 57:39.45 | 3:57.00 | 259470 | 277244
10 | 61:36.45 | 3:13.45 | 277245 | 291764
11 | 64:50.15 | 4:14.30 | 291765 | 310844
12 | 69:04.45 | 3:51.00 | 310845 | 328169
13 | 72:55.45 | 3:12.64 | 328170 | 342633

Track 1

Filename J:EAC1 - Barbara Streisand (Mega Mashup-Mix-Medley Vs La Bouche - No Mercy - Chicken Soup).wav

Pre-gap length 0:00:02.00

Peak level 99.9 %
Extraction speed 2.3 X
Track quality 99.9 %
Test CRC 2972AD06
Copy CRC 2972AD06
Track not present in AccurateRip database
Copy OK

Track 2

Filename J:EAC2 - Boneym M. (Mega Mashup-Mix-Medley Vs No Mercy - Eruption - La Bouche).wav

Pre-gap length 0:00:00.74

Peak level 99.0 %
Extraction speed 2.3 X
Track quality 100.0 %
Test CRC 8E06CBBC
Copy CRC 8E06CBBC
Track not present in AccurateRip database
Copy OK

Track 3

Filename J:EAC3 - Ma Baker (Club Mix).wav

Pre-gap length 0:00:00.73

Peak level 98.9 %
Extraction speed 2.3 X
Track quality 100.0 %
Test CRC 7400F468
Copy CRC 7400F468
Track not present in AccurateRip database
Copy OK

Track 4

Filename J:EAC4 - Daddy Cool (Club Mix).wav

Pre-gap length 0:00:00.72

Peak level 89.0 %
Extraction speed 2.3 X
Track quality 100.0 %
Test CRC D2901EEC
Copy CRC D2901EEC
Track not present in AccurateRip database
Copy OK

Track 5

Filename J:EAC5 - Sunny (Club Mix).wav

Pre-gap length 0:00:00.74

Peak level 97.1 %
Extraction speed 2.3 X
Track quality 100.0 %
Test CRC 98E764FB
Copy CRC 98E764FB
Track not present in AccurateRip database
Copy OK

Track 6

Filename J:EAC6 - Rivers Of Babylon (Club Mix).wav

Pre-gap length 0:00:00.72

Peak level 97.1 %
Extraction speed 2.3 X
Track quality 99.9 %
Test CRC 36D7EF05
Copy CRC 36D7EF05
Track not present in AccurateRip database
Copy OK

Track 7

Filename J:EAC7 - Gotta Go Home (Club Mix).wav

Pre-gap length 0:00:00.72

Peak level 97.6 %
Extraction speed 2.2 X
Track quality 100.0 %
Test CRC 9283EC80
Copy CRC 9283EC80
Track not present in AccurateRip database
Copy OK

Track 8

Filename J:EAC8 - Rasputin (Club Mix).wav

Pre-gap length 0:00:00.72

Peak level 93.8 %
Extraction speed 2.2 X
Track quality 100.0 %
Test CRC 7903F027
Copy CRC 7903F027
Track not present in AccurateRip database
Copy OK

Track 9

Filename J:EAC9 - Happy Song (Club Mix).wav

Pre-gap length 0:00:00.72

Peak level 98.8 %
Extraction speed 2.3 X
Track quality 100.0 %
Test CRC 8B822193
Copy CRC 8B822193
Track not present in AccurateRip database
Copy OK

Track 10

Filename J:EAC10 - Barbara Streisand Vs Marilyn Monroe (Club Mix).wav

Pre-gap length 0:00:00.72

Peak level 98.8 %
Extraction speed 2.3 X
Track quality 99.9 %
Test CRC 37685E3D
Copy CRC 37685E3D
Track not present in AccurateRip database
Copy OK

Track 11

Filename J:EAC11 - Who The F..K Is Wikileaks.wav

Pre-gap length 0:00:00.73

Peak level 98.8 %
Extraction speed 2.3 X
Track quality 100.0 %
Test CRC 98C3BF12
Copy CRC 98C3BF12
Track not present in AccurateRip database
Copy OK

Track 12

Filename J:EAC12 - Be Bop A Lula (House Mix - Radio Edit).wav

Pre-gap length 0:00:00.73

Peak level 99.9 %
Extraction speed 2.2 X
Track quality 100.0 %
Test CRC FA8FEDCF
Copy CRC FA8FEDCF
Track not present in AccurateRip database
Copy OK

Track 13

Filename J:EAC13 - Barbara Streisand (Radio Edit By Duck Sauce).wav

Pre-gap length 0:00:00.72

Peak level 90.9 %
Extraction speed 2.2 X
Track quality 100.0 %
Test CRC 28947081
Copy CRC 28947081
Track not present in AccurateRip database
Copy OK

None of the tracks are present in the AccurateRip database

No errors occurred

End of status report


Страна-производитель диска: France

Издатель (лейбл): Sony Music

Номер по каталогу: 88697 84794 2
Музыка / Lossless / Поп музыка
СКАЧАТЬ БЕСПЛАТНО  [1.0 GB]


05
сен
2009

Ultimate Boney M - Long Versions Vol.3 [2009, Eurodance / Popmusic / Disco, MP3]

Формат: MP3, tracks, 320kbps
Год выпуска: 2009
Страна: Германия
Жанр: Eurodance, Pop, Disco
Продолжительность: 1:13:52
Описание: TRACKLIST ----------------- 01. Exocus (Noah's Ark 2001) (Maxi Version) 05:47 02. Wild Planet (Maxi Version) 03:43 03. Somewhere in the World (Long Version) 05:08 04. Future World (Long Promo Version) 04:10 05. 10.000 Lightyears (Promo Version) 04:22 06. Kalimba De Luna (US Club Mix) 09:40 07. Young, Free and Single (12'' Version) 08:09 08. Daddy Cool (Anniversary Recording '86) (Special Club Mix) 09:11 09. Mother and Child Reunion (Frank Farian Corporation) (Long ...

13
ноя
2010

Boney M - Ultimate: Long Versions and Rarities (3CD) [2009, Disco, Eurodance, FLAC]

Формат: FLAC, (image + .cue), lossless
Год выпуска: 2009
Страна: Germany
Жанр: Disco, Eurodance
Продолжительность: 03:57:49
Описание: Boney M - Ultimate Disc-1:"Vol.1 (1976-1980)" ---------------------------------------- 01. Help! Help! (Long Version) [0:06:06.37] 02. Rivers Of Babylon (US Extended Promo Version) [0:07:25.57] 03. Mary's Boy Child Oh My Lord (Long 12'' Version) [0:06:20.59] 04. Dancing In The Streets (Long 12'' Version) [0:06:22.62] 05. Ribbons Of Blue (Original Long 7'' Version) [0:04:08.73] 06. Gotta Go Home (Long 12'' Version) [0:05:07.08] 07. Bahama Mama (Long 12'' Version ...

21
янв
2011

Boney M - The Magic Of Boney M (20 Golden Hits) [1983, Disco, FLAC]

Формат: FLAC, (image + .cue), lossless
Год выпуска: 1983
Страна: Germany
Жанр: Disco
Продолжительность: 01:10:38
Описание: 1. Rivers Of Babylon 2. Daddy Cool 3. Sunny 4. Belfast 5. El Lute 6. No Women No Cry 7. Rasputin 8. Painter Man 9. Ma Baker 10. Gotta Go Home 11. My Friend Jack 12. I See A Boat On The River 13. Brown Girl In The Ring 14. Mary's Boy Child 15. Bahama Mama 16. I'm Born Again 17. Oceans Of Fantasy 18. Ribbons Of Blue 19. Still I'm Sad 20. Hooray! Hooray! It's A Holi-Holiday
Доп. информация: EAC log file Exact Audio Copy V0.99 prebeta 5 from 4. May 2009 Отчёт EAC об извлече ...

21
ноя
2012

Boney M - Barbra Streisand Boney M. Goes Club [2011,Disco, MP3]

Формат: MP3, tracks, 320kbps
Год выпуска: 2011
Страна: Germany
Жанр: Disco
Продолжительность: 01:28:44
Описание: 01 - Gotta Go Home 02 - Sweet Dreams 03 - Ma Baker - Club Mix 04 - Daddy Cool - Club Mix 05 - Sunny - Club Mix 06 - Rivers Of Babylon - Club Mix 07 - Gotta Go Home - Club Mix 08 - Rasputin - Club Mix 09 - Happy Song - Club Mix 10 - Barbra Streisand vs. Marilyn Monroe - Club Mix 11 - Who The Fxxk Is WikiLeaks 12 - Be Bop A Lula - House Mix -Radio Edit

22
окт
2012

Boney M. - Long Versions Rarities - Ultimate Vol.1 - Vol.3 [2008-2009, Disco, OGG ]

Формат: OGG tracks, 460-520kbps
Год выпуска: 2008-2009
Страна: Germany
Жанр: Disco
Продолжительность: 03:47:42
Описание: Boney M. - Long Versions & Rarities - Ultimate Volume 101. Help! Help! (Long Version) (6:06) 02. My Friend Jack (Long 12'' Version) (8:26) 03. Children Of Paradise (Long 12'' Version) (5:19) 04. Gadda-Da-Vida (Long 12'' Version) (8:56) 05. Rivers Of Babylon (US Extended Promo Version) (7:24) 06. Mary's Boy Child / Oh My Lord (Long 12'' Version) (6:21) 07. Dancing In The Streets (Long 12'' Version) (6:21) 08. Ribbons Of Blue (Original Long 7'' Version) (4:08) 09. Gotta Go ...

08
сен
2015

Boney M. - Boney M. in Dublin, Ireland [1978, Disco, DVDRip]

Формат: DVDRip, AVI, XviD, AC3
Песня: Boney M. in Dublin, Ireland 1978
Жанр: Disco
Продолжительность: 01:09:44
Год выпуска: 1978
Видео: 640x480 (4:3), 29.970 fps, XviD MPEG-4, ~1977 kbps, 0.215 bit/pixel
Аудио: 48 kHz, AC3, 2 ch, 224 kbps
Доп. информация: Впервые изданный официально концерт Boney M. в Дублине, снятый ирландским телевидением в далёком 1978 году. Интересен не только абсолютно "живым" звуком, но и своим треклистом, включающим большинство песен из альбома "Nightflight to Venus", а также никогда не издававшиеся на их дисках песню Лео Сейера "When I Need You" и "Big Spender" - ном ...

30
июл
2008

Магия Boney M - The Magic Of Boney M [2006, DVD-5]

Исполнитель: Boney M
Название: Магия Boney M
Оригинальное название: The Magic Of Boney M
Жанр: Disco
Режиссер: Фрэнк Фарриан
Продолжительность: 01:15:56
Год выпуска: 2006
Описание: BONEY M не только была культовой группой диско 70-х и 80, но остаётся живой легендой всей эпохи диско. Образованная в Германии автором и продюсером Фрэнком ФАРИАНОМ, BONEY M была одной их диско-поп групп, доминирующей в Европейских чартах в конце семидесятых, начале восьмидесятых с целым рядом хитов хорошо известных до сегодняшнего дня. ФАРИАН собрал группу из 4х человек в стиле танцевальной поп моды, со сногсшибат ...

08
сен
2015

Boney M. - Boney M. on Stage, Germany [1986, Disco, DVDRip]

Формат: DVDRip, AVI, XviD, AC3
Песня: Boney M. on Stage, Germany 1986
Жанр: Disco
Продолжительность: 00:24:19
Год выпуска: 1986
Видео: 640x480 (4:3), 29.970 fps, XviD MPEG-4, ~2024 kbps, 0.227 bit/pixel
Аудио: 48 kHz, AC3, 2 ch, 224 kbps
Доп. информация: В начале 1986 года Фрэнк Фариан объявил о завершении существования Boney M. Здесь представлено их прощальное шоу на телеканале ZDF, данное группой 16 января 1986 года в «классическом» составе. Несмотря на свою абсолютную "фонограммность" по своему интересно тем, что на сцене одновременно находятся Бобби Фаррел и Реджи Чибо.
Треклист: 01. N ...

06
июн
2016

Boney M - The Best Of... [1975 - 1990, Disco, DVD5]

Формат: DVD5, DVD Video, MPEG2, AC3
Песня: The Best Of...
Жанр: Disco
Продолжительность: 01:42:44
Год выпуска: 1975 - 1990
Видео: 720х576 (PAL 16:9), 25,000 fps, MPEG-2, ~5478 kbps avg, 0.528 bit/pixel
Аудио: 48.0 КГц, Audio Coding 3, 2 ch, 192 kbps
Доп. информация: Диско-группа, созданная в 1975 году в ФРГ известным западногерманским музыкальным продюсером Фрэнком Фарианом. Все привлечённые к проекту исполнители родились за пределами Германии, на Карибских островах, перебравшись в Западную Европу в подростковом возрасте. Во время работы в проекте «Boney M.», участники группы проживали в Вел ...

06
апр
2008

Boney M / Boney M (BMG Entertainment International) [2001, Видеоклипы, TeleCine]

Страна: UK & Ireland Limited
Режиссер: BMG Entertainment International
Жанр: Видеоклипы
Продолжительность: 1ч.15мин.
Год выпуска: 2001
Перевод: Не требуется
В ролях: Boney M
Описание: Сборник клипов группы Boney M
Качество: TeleCine
Формат: AVI
Видео кодек: DivX
Аудио кодек: MPEG Audio
Видео: 512 x 384 (4:3), 25,000 Гц, DIV3
Аудио: 0x0055 (ISO MPEG-1 Layer3), 44100 Гц, Стерео, 217 Кбит/сек

27
мар
2008

Boney M - The best [2003,Popmusic,MP3]

Страна: ФРГ
Год выпуска: 2003
Жанр: Поп
Продолжительность: 77:05
Формат: MP3
Битрейт аудио: 320 kbps
Трэклист: 1. Daddy Cool 2. Nightflight To Venus 3. Rasputin 4. Sunny 5. Belfast 6. Ei Lute 7. Felicidad 8. Ma Baker 9. Gotta Go Home 10. My Friend Jack 11. Brown Girl in the Ring 12. Kalimba De Luna 13. Bahama Mama 14. I'm Born Again 15. Oceans Of Fantasy 16. Happy Song 17. Hooray! Hooray! It's A Holi-Holiday. Доп. информация
Биография: Всё началось в конце 1974 года, когда Фрэнк Фариан записал диско-трэк "Baby Do You Wanna Bump?" под псевдонимом Zambie. Эту песню Фариан записал самостоятельно, ...

19
мая
2012

Boney M - The Best of Boney M [1976-2011, Disco, MP3]

Формат: MP3, tracks, 224kbps
Год выпуска: 1976-2011
Страна: Германия
Жанр: Disco
Продолжительность: 09:42:46 Описание : Раскрыть 1. 6 Years of Boney M. Hits (Boney M. on 45) (11:16) 2. A Moment Of Love (3:13) 3. A Woman Can Change A Man (3:31) 4. African Moon [Long Version] (6:43) 5. Baby Do You Wanna Bump (6:53) 6. (I Need A) Babysitter (Original Version) (3:35) 7. Bahama Mama (5:14) 8. Bang Bang Lulu (4:00) 9. Barbarella Fortuneteller (2:55) 10. Belfast (3:28) 11. Boonoonoonoos [Long Version] (12:15) 12. Breakaway (4:18) 13. Brown Girl In The Ring (4:03) 14. Bye Bye Bluebird ...

18
сен
2010

Boney M - All Hits [2010, Pop, Disco, MP3]

Формат: MP3, tracks, 320kbps
Год выпуска: 2010
Страна: Германия
Жанр: Pop, Disco
Продолжительность: 02:37:10
Описание: CD-1 01 01. Bahama Mama 02. Daddy Cool 03. Ma Baker 04. Rasputin 05. Kalimba De Luna 06. Gotta Go Home 07. Sunny 08. Rivers Of Babylon 09. Happy Song 10. Young, Free And Single 11. Painter Man 12. Belfast 13. No Woman No Cry 14. Chica Da Silva 15. Hooray! Hooray! It' s A Holi-Holiday 16. Brown Girl In The Ring 17. Mary's Boy Child - Oh My Lord 18. Felicidad America (Obama - Obama) (Long English Version) CD-2 01 01. Going Back West 02. Take The Heat Off Me 03. Love For Sale ...

14
мая
2015

Boney M - Diamonds [2015, Disco, Euro Disco, DVDRip-AVC]

Формат: DVDRip-AVC, MKV, H.264, AC3
Песня: Diamonds
Жанр: Disco, Euro Disco
Продолжительность: 02:22:00 + 02:04:17 + 02:17:47
Год выпуска: 2015
Видео: 720x536p (4:3), 23,976 fps, MPEG4 AVC (x264), High@L4.1 ~2053 Kbps avg, 0.222 bit/pixel
Аудио: 48 kHz, AC3, 2 ch ~ 256 Kbps Треклист boney_M_vol_01 01 Baby Do You Wanna Bump 02 Daddy Cool 03 Sunny 04 Rasputin 05 Brown Girl In The Ring 06 Rivers Of Babylon 07 El Lute 08 Calendar Song (January, February, March…) 09 Gotta Go Home 10 Bahama Mama 11 Children Of Paradise 12 Mary’s Boy Child 13 Felicidad 14 Consuela Biaz 15 Little Drum ...

06
июн
2012

Boney M - Discography (Collector's Edition) [2012, Disco, FLAC]

Формат: FLAC, (image + .cue), lossless
Год выпуска: 2012
Страна: Germany
Жанр: Disco
Продолжительность: 11:11:45
Описание: 1976 Take The Heat Off Me 01 01. Daddy Cool 02. Take The Heat Off Me 03. Sunny 04. Baby Do You Wanna Bump 05. No Woman No Cry 06. Fever 07. Got A Man On My Mind 08. Lovin' Or Leavin' 09. Help! Help! 10. Got A Man On My Mind (Extended version) 11. Daddy Cool (Brass version) 12. Baby Do You Wanna Bump (Part I) [7'' Single] 13. Baby Do You Wanna Bump (Part II) [7'' Single] 14. New York City 15. Daddy Cool (Anniversary mix) EACExact Audio Copy V0.99 prebeta 5 from 4. May 2009 ...