19
мая
2012

Boney M. - The Maxi-Singles Collection. Volume 1-4 [2005 - 2006, Disco, APE]

Boney M. - The Maxi-Singles Collection. Volume 1-4

Формат: APE, (image + .cue), lossless
Год выпуска: 2005 - 2006
Страна: Germany
Жанр: Disco
Продолжительность: 05:05:18
Описание:
Vol 1 01
Boney M. - The Maxi-Singles Collection. Volume 1-4
01. Dancing In The Streets
02. Rasputin
03. Painter Man
03. My Friend Jack
05. I See A Boat (On The River)
06. Gotta Go Home
07. El Lute
08. Gadda-Da-Vida (Long Version)
09. Children Of Paradise
10. Felicidad (Margherita)
11. Strange
12. Mary's Boy Child - Oh My Lord

EAC золотой
Exact Audio Copy V1.0 beta 3 from 29. August 2011

Отчёт EAC об извлечении, выполненном 4. апреля 2012, 0:21

Boney M. / The Maxi-Single Collection Volume 1

Дисковод: LITE-ON DVDRW LH-20A1S Adapter: 0 ID: 1

Режим чтения : Достоверность
Использование точного потока : Да
Отключение кэша аудио : Да
Использование указателей C2 : Нет

Коррекция смещения при чтении : 6
Способность читать области Lead-in и Lead-out : Нет
Заполнение пропущенных сэмплов тишиной : Да
Удаление блоков с тишиной в начале и конце : Нет
При вычислениях CRC использовались нулевые сэмплы : Да
Интерфейс : Встроенный Win32-интерфейс для Win NT/2000

Выходной формат : Внутренние WAV-операции
Формат сэмплов : 44.100 Гц; 16 бит; стерео

TOC извлечённого CD

Трек | Старт | Длительность | Начальный сектор | Конечный сектор
---------------------------------------------------------------------
1 | 0:00.00 | 6:23.26 | 0 | 28750
2 | 6:23.26 | 7:36.24 | 28751 | 62974
3 | 13:59.50 | 3:12.58 | 62975 | 77432
4 | 17:12.33 | 8:27.59 | 77433 | 115516
5 | 25:40.17 | 6:07.13 | 115517 | 143054
6 | 31:47.30 | 5:07.19 | 143055 | 166098
7 | 36:54.49 | 5:11.67 | 166099 | 189490
8 | 42:06.41 | 8:57.20 | 189491 | 229785
9 | 51:03.61 | 5:20.39 | 229786 | 253824
10 | 56:24.25 | 11:48.03 | 253825 | 306927
11 | 68:12.28 | 3:30.74 | 306928 | 322751
12 | 71:43.27 | 6:20.35 | 322752 | 351286

Характеристики диапазона извлечения и сообщения об ошибках

Выбранный диапазон

Имя файла H:BONEY MBoney M. - The Maxi-Single Collection Volume 1Boney M. - The Maxi-Single Collection Volume 1.wav

Пиковый уровень 96.6 %
Скорость извлечения 3.5 X
Качество диапазона 99.9 %
CRC теста 9909792F
CRC копии 9909792F
Копирование... OK

Ошибок не произошло

AccurateRip: сводка

Трек 1 отсутствует в базе данных
Трек 2 отсутствует в базе данных
Трек 3 отсутствует в базе данных
Трек 4 отсутствует в базе данных
Трек 5 отсутствует в базе данных
Трек 6 отсутствует в базе данных
Трек 7 отсутствует в базе данных
Трек 8 отсутствует в базе данных
Трек 9 отсутствует в базе данных
Трек 10 отсутствует в базе данных
Трек 11 отсутствует в базе данных
Трек 12 отсутствует в базе данных

Ни одного трека нет в базе AccurateRip

Конец отчёта

==== Контрольная сумма отчёта 47D268BF59FE43F8F5C5633F1B50563A097D539411AF38B5903017B648DD2DA2 ====

EAC - простой
Exact Audio Copy V1.0 beta 3 from 29. August 2011

Отчёт EAC об извлечении, выполненном 13. апреля 2012, 22:18

Boney M. / The Maxi-Single Collection Volume 1

Дисковод: LITE-ON DVDRW LH-20A1S Adapter: 0 ID: 1

Режим чтения : Достоверность
Использование точного потока : Да
Отключение кэша аудио : Да
Использование указателей C2 : Нет

Коррекция смещения при чтении : 6
Способность читать области Lead-in и Lead-out : Нет
Заполнение пропущенных сэмплов тишиной : Да
Удаление блоков с тишиной в начале и конце : Нет
При вычислениях CRC использовались нулевые сэмплы : Да
Интерфейс : Встроенный Win32-интерфейс для Win NT/2000

Выходной формат : Внутренние WAV-операции
Формат сэмплов : 44.100 Гц; 16 бит; стерео

TOC извлечённого CD

Трек | Старт | Длительность | Начальный сектор | Конечный сектор
---------------------------------------------------------------------
1 | 0:00.00 | 6:25.26 | 0 | 28900
2 | 6:25.26 | 7:38.24 | 28901 | 63274
3 | 14:03.50 | 3:14.58 | 63275 | 77882
4 | 17:18.33 | 8:29.59 | 77883 | 116116
5 | 25:48.17 | 6:09.13 | 116117 | 143804
6 | 31:57.30 | 5:09.19 | 143805 | 166998
7 | 37:06.49 | 5:13.67 | 166999 | 190540
8 | 42:20.41 | 8:59.20 | 190541 | 230985
9 | 51:19.61 | 5:22.39 | 230986 | 255174
10 | 56:42.25 | 11:50.03 | 255175 | 308427
11 | 68:32.28 | 3:32.74 | 308428 | 324401
12 | 72:05.27 | 6:20.35 | 324402 | 352936

Характеристики диапазона извлечения и сообщения об ошибках

Выбранный диапазон

Имя файла H:BONEY MBoney M. - The Maxi-Single Collection Volume 1Boney M. - The Maxi-Single Collection Volume 1.wav

Пиковый уровень 96.6 %
Скорость извлечения 3.6 X
Качество диапазона 100.0 %
CRC теста 16295BE8
CRC копии 16295BE8
Копирование... OK

Ошибок не произошло

AccurateRip: сводка

Трек 1 : извлечено точно (доверие 1) [9A89979E] (AR v1)
Трек 2 : извлечено точно (доверие 1) [7F2C5228] (AR v1)
Трек 3 : извлечено точно (доверие 1) [66C26BBA] (AR v1)
Трек 4 : извлечено точно (доверие 1) [F4D3477E] (AR v1)
Трек 5 : извлечено точно (доверие 1) [DB5C1C3E] (AR v1)
Трек 6 : извлечено точно (доверие 1) [2A992980] (AR v1)
Трек 7 : извлечено точно (доверие 1) [675E6C08] (AR v1)
Трек 8 : извлечено точно (доверие 1) [1BAF5191] (AR v1)
Трек 9 : извлечено точно (доверие 1) [166216A1] (AR v1)
Трек 10 : извлечено точно (доверие 1) [A6DFEF3A] (AR v1)
Трек 11 : извлечено точно (доверие 1) [1DDB9372] (AR v1)
Трек 12 : извлечено точно (доверие 1) [EFB5AEE7] (AR v1)

Все треки извлечены точно

Конец отчёта

==== Контрольная сумма отчёта FB088805FBBB50F307038BF7CA27EBAAF516A7EB5DB5DE6E9387BD163C3D9B7D ====

Vol 2 01
Boney M. - The Maxi-Singles Collection. Volume 1-4
01. Everybody Wants To Dance Like Josephine Baker (12'' Mix)
02. Going Back West
03. Silly Confusion
04. The Carnival Is Over (Good-Bye True Lover)
05. African Moon (Long Version)
06. Jambo - Hakuma Matata (No Problems)
07. The Bushman
08. 10.000 Lightyears
09. Kalimba De Luna
10. Happy Song
11. School's Out
12. Calendar Song
13. Chica Da Silva
14. Bang Bang Lulu (Maxi Version)
15. Megamix (Extended Version)

EAC - золотой
Exact Audio Copy V1.0 beta 3 from 29. August 2011

Отчёт EAC об извлечении, выполненном 3. апреля 2012, 23:25

Boney M. / The Maxi-Singles Collection Volume 2

Дисковод: LITE-ON DVDRW LH-20A1S Adapter: 0 ID: 1

Режим чтения : Достоверность
Использование точного потока : Да
Отключение кэша аудио : Да
Использование указателей C2 : Нет

Коррекция смещения при чтении : 6
Способность читать области Lead-in и Lead-out : Нет
Заполнение пропущенных сэмплов тишиной : Да
Удаление блоков с тишиной в начале и конце : Нет
При вычислениях CRC использовались нулевые сэмплы : Да
Интерфейс : Встроенный Win32-интерфейс для Win NT/2000

Выходной формат : Внутренние WAV-операции
Формат сэмплов : 44.100 Гц; 16 бит; стерео

TOC извлечённого CD

Трек | Старт | Длительность | Начальный сектор | Конечный сектор
---------------------------------------------------------------------
1 | 0:00.00 | 6:46.52 | 0 | 30501
2 | 6:46.52 | 5:02.13 | 30502 | 53164
3 | 11:48.65 | 4:03.09 | 53165 | 71398
4 | 15:51.74 | 4:54.48 | 71399 | 93496
5 | 20:46.47 | 6:44.55 | 93497 | 123851
6 | 27:31.27 | 5:33.20 | 123852 | 148846
7 | 33:04.47 | 4:28.53 | 148847 | 168999
8 | 37:33.25 | 4:34.12 | 169000 | 189561
9 | 42:07.37 | 7:09.71 | 189562 | 221807
10 | 49:17.33 | 8:12.61 | 221808 | 258768
11 | 57:30.19 | 3:06.58 | 258769 | 272776
12 | 60:37.02 | 2:48.02 | 272777 | 285378
13 | 63:25.04 | 4:35.65 | 285379 | 306068
14 | 68:00.69 | 4:00.20 | 306069 | 324088
15 | 72:01.14 | 7:02.39 | 324089 | 355777

Характеристики диапазона извлечения и сообщения об ошибках

Выбранный диапазон

Имя файла H:BONEY MBoney M. - The Maxi-Single Collection Volume 2Boney M. - The Maxi-Singles Collection Volume 2.wav

Пиковый уровень 96.6 %
Скорость извлечения 3.6 X
Качество диапазона 100.0 %
CRC теста BEDED3E0
CRC копии BEDED3E0
Копирование... OK

Ошибок не произошло

AccurateRip: сводка

Трек 1 точность не определена (достоверность 1) [A6FCC02C], AccurateRip вернул (AR v2)
Трек 2 точность не определена (достоверность 1) [16B36085], AccurateRip вернул (AR v2)
Трек 3 точность не определена (достоверность 1) [080C56A6], AccurateRip вернул [88BD1108] (AR v2)
Трек 4 точность не определена (достоверность 1) [32A2C39B], AccurateRip вернул [FD457723] (AR v2)
Трек 5 точность не определена (достоверность 1) [83781197], AccurateRip вернул [1D15C68A] (AR v2)
Трек 6 точность не определена (достоверность 1) [7C5844E2], AccurateRip вернул [2D71BA65] (AR v2)
Трек 7 точность не определена (достоверность 1) [59CD152B], AccurateRip вернул [EBFD78E3] (AR v2)
Трек 8 точность не определена (достоверность 1) [80A275B7], AccurateRip вернул [86B384B3] (AR v2)
Трек 9 точность не определена (достоверность 1) [14D4701E], AccurateRip вернул [8978A5C3] (AR v2)
Трек 10 точность не определена (достоверность 1) [35C591B6], AccurateRip вернул [328F0882] (AR v2)
Трек 11 точность не определена (достоверность 1) [A6613592], AccurateRip вернул [60C24129] (AR v2)
Трек 12 точность не определена (достоверность 1) [C2C968DA], AccurateRip вернул (AR v2)
Трек 13 точность не определена (достоверность 1) [DE4EEC3B], AccurateRip вернул [09B67A36] (AR v2)
Трек 14 точность не определена (достоверность 1) [024B6BB1], AccurateRip вернул [57677BE3] (AR v2)
Трек 15 точность не определена (достоверность 1) [A0BB0302], AccurateRip вернул [E72B0DFF] (AR v2)

Ни один трек не прошёл проверки на точность
В вашей базе может быть иной вариант штамповки диска

Конец отчёта

==== Контрольная сумма отчёта DAB42F659B458AEF8DA1F818254D1CE25A9BA03179264102C921CBC6E1D156E3 ====

EAC - простой
Exact Audio Copy V1.0 beta 3 from 29. August 2011

Отчёт EAC об извлечении, выполненном 18. апреля 2012, 7:20

Boney M. / The Maxi-Singles Collection Volume 2

Дисковод: LITE-ON DVDRW LH-20A1S Adapter: 0 ID: 1

Режим чтения : Достоверность
Использование точного потока : Да
Отключение кэша аудио : Да
Использование указателей C2 : Нет

Коррекция смещения при чтении : 6
Способность читать области Lead-in и Lead-out : Нет
Заполнение пропущенных сэмплов тишиной : Да
Удаление блоков с тишиной в начале и конце : Нет
При вычислениях CRC использовались нулевые сэмплы : Да
Интерфейс : Встроенный Win32-интерфейс для Win NT/2000

Выходной формат : Внутренние WAV-операции
Формат сэмплов : 44.100 Гц; 16 бит; стерео

TOC извлечённого CD

Трек | Старт | Длительность | Начальный сектор | Конечный сектор
---------------------------------------------------------------------
1 | 0:00.00 | 6:48.52 | 0 | 30651
2 | 6:48.52 | 5:04.13 | 30652 | 53464
3 | 11:52.65 | 4:05.09 | 53465 | 71848
4 | 15:57.74 | 4:56.48 | 71849 | 94096
5 | 20:54.47 | 6:46.55 | 94097 | 124601
6 | 27:41.27 | 5:35.20 | 124602 | 149746
7 | 33:16.47 | 4:30.53 | 149747 | 170049
8 | 37:47.25 | 4:36.12 | 170050 | 190761
9 | 42:23.37 | 7:11.71 | 190762 | 223157
10 | 49:35.33 | 8:14.61 | 223158 | 260268
11 | 57:50.19 | 3:08.58 | 260269 | 274426
12 | 60:59.02 | 2:50.02 | 274427 | 287178
13 | 63:49.04 | 4:37.65 | 287179 | 308018
14 | 68:26.69 | 4:02.20 | 308019 | 326188
15 | 72:29.14 | 7:02.39 | 326189 | 357877

Характеристики диапазона извлечения и сообщения об ошибках

Выбранный диапазон

Имя файла H:BONEY MBoney M. - The Maxi-Single Collection Volume 2простойBoney M. - The Maxi-Singles Collection Volume 2.wav

Пиковый уровень 96.6 %
Скорость извлечения 3.6 X
Качество диапазона 100.0 %
CRC теста 0C0C5718
CRC копии 0C0C5718
Копирование... OK

Ошибок не произошло

AccurateRip: сводка

Трек 1 отсутствует в базе данных
Трек 2 отсутствует в базе данных
Трек 3 отсутствует в базе данных
Трек 4 отсутствует в базе данных
Трек 5 отсутствует в базе данных
Трек 6 отсутствует в базе данных
Трек 7 отсутствует в базе данных
Трек 8 отсутствует в базе данных
Трек 9 отсутствует в базе данных
Трек 10 отсутствует в базе данных
Трек 11 отсутствует в базе данных
Трек 12 отсутствует в базе данных
Трек 13 отсутствует в базе данных
Трек 14 отсутствует в базе данных
Трек 15 отсутствует в базе данных

Ни одного трека нет в базе AccurateRip

Конец отчёта

==== Контрольная сумма отчёта 351E63B4574F401A674B11EA02E70D86FB1C4AB88E9650EE38C692A35BAFEEEA ====

Vol 3 01
Boney M. - The Maxi-Singles Collection. Volume 1-4
01. Help! Help! (Extended version)
02. Gloria, Can You Waddle
03. Boonoonoonoos (Extended Version)
04. Let It Be Music (Single Version)
05. A Woman Can Change A Man
06. Sunny
07. New York City
08. He Was A Steppenwolf
09. No More Chain Gain
10. Take A Heat Off Me
11. No Time To Lose
12. Voodoonights
13. 6 Years Of Boney M. Hits (Short Version)
14. Home Christmas
15. Ma Baker (Remix '93)
16. Lady Godiva

EAC
Exact Audio Copy V1.0 beta 3 from 29. August 2011

Отчёт EAC об извлечении, выполненном 3. апреля 2012, 21:09

Boney M. / The Maxi Singles Collection Volume 3

Дисковод: LITE-ON DVDRW LH-20A1S Adapter: 0 ID: 1

Режим чтения : Достоверность
Использование точного потока : Да
Отключение кэша аудио : Да
Использование указателей C2 : Нет

Коррекция смещения при чтении : 6
Способность читать области Lead-in и Lead-out : Нет
Заполнение пропущенных сэмплов тишиной : Да
Удаление блоков с тишиной в начале и конце : Нет
При вычислениях CRC использовались нулевые сэмплы : Да
Интерфейс : Встроенный Win32-интерфейс для Win NT/2000

Выходной формат : Внутренние WAV-операции
Формат сэмплов : 44.100 Гц; 16 бит; стерео

TOC извлечённого CD

Трек | Старт | Длительность | Начальный сектор | Конечный сектор
---------------------------------------------------------------------
1 | 0:00.00 | 6:05.48 | 0 | 27422
2 | 6:05.48 | 3:58.06 | 27423 | 45278
3 | 10:03.54 | 11:16.72 | 45279 | 96050
4 | 21:20.51 | 5:54.10 | 96051 | 122610
5 | 27:14.61 | 3:33.14 | 122611 | 138599
6 | 30:48.00 | 4:02.62 | 138600 | 156811
7 | 34:50.62 | 3:44.39 | 156812 | 173650
8 | 38:35.26 | 6:53.10 | 173651 | 204635
9 | 45:28.36 | 5:43.61 | 204636 | 230421
10 | 51:12.22 | 4:48.15 | 230422 | 252036
11 | 56:00.37 | 3:30.02 | 252037 | 267788
12 | 59:30.39 | 3:33.30 | 267789 | 283793
13 | 63:03.69 | 4:50.73 | 283794 | 305616
14 | 67:54.67 | 3:46.03 | 305617 | 322569
15 | 71:40.70 | 4:05.13 | 322570 | 340957
16 | 75:46.08 | 3:32.70 | 340958 | 356927

Характеристики диапазона извлечения и сообщения об ошибках

Выбранный диапазон

Имя файла H:BONEY MBoney M. - The Maxi-Single Collection Volume 3Boney M. - The Maxi Singles Collection Volume 3.wav

Пиковый уровень 99.6 %
Скорость извлечения 3.6 X
Качество диапазона 100.0 %
CRC теста 20F9B95A
CRC копии 20F9B95A
Копирование... OK

Ошибок не произошло

AccurateRip: сводка

Трек 1 отсутствует в базе данных
Трек 2 отсутствует в базе данных
Трек 3 отсутствует в базе данных
Трек 4 отсутствует в базе данных
Трек 5 отсутствует в базе данных
Трек 6 отсутствует в базе данных
Трек 7 отсутствует в базе данных
Трек 8 отсутствует в базе данных
Трек 9 отсутствует в базе данных
Трек 10 отсутствует в базе данных
Трек 11 отсутствует в базе данных
Трек 12 отсутствует в базе данных
Трек 13 отсутствует в базе данных
Трек 14 отсутствует в базе данных
Трек 15 отсутствует в базе данных
Трек 16 отсутствует в базе данных

Ни одного трека нет в базе AccurateRip

Конец отчёта

==== Контрольная сумма отчёта 10E27F01A99446EF0A3EEACA842C95C27D3ACC112637909F2D2EAAD0FECE4D78 ====

Vol 4 01
Boney M. - The Maxi-Singles Collection. Volume 1-4
01. Young, Free And Single (Extended Club Mix)
02. Kalimba De Luna (US Club Mix)
03. Daddy Cool (Special Club Mix)
04. Rasputin (ReMix 88
05. Rivers Of Babylon (Maxi-Remix - Axid House Mix)
06. Everybody Wants To Dance Like Josephine Baker (7'' Mix)
07. Blue Beach
08. Kalimba De Luna (US Club Mix - Dub Version)
09. B.M.A.G.O. (Dub Version)
10. The Summer Megamix (Extended Version)
EAC
Exact Audio Copy V1.0 beta 3 from 29. August 2011

Отчёт EAC об извлечении, выполненном 3. апреля 2012, 22:10

Boney M. / The Maxi Singles Collection Volume 4

Дисковод: LITE-ON DVDRW LH-20A1S Adapter: 0 ID: 1

Режим чтения : Достоверность
Использование точного потока : Да
Отключение кэша аудио : Да
Использование указателей C2 : Нет

Коррекция смещения при чтении : 6
Способность читать области Lead-in и Lead-out : Нет
Заполнение пропущенных сэмплов тишиной : Да
Удаление блоков с тишиной в начале и конце : Нет
При вычислениях CRC использовались нулевые сэмплы : Да
Интерфейс : Встроенный Win32-интерфейс для Win NT/2000

Выходной формат : Внутренние WAV-операции
Формат сэмплов : 44.100 Гц; 16 бит; стерео

TOC извлечённого CD

Трек | Старт | Длительность | Начальный сектор | Конечный сектор
---------------------------------------------------------------------
1 | 0:00.00 | 8:09.47 | 0 | 36721
2 | 8:09.47 | 9:17.60 | 36722 | 78556
3 | 17:27.32 | 9:11.62 | 78557 | 119943
4 | 26:39.19 | 5:29.41 | 119944 | 144659
5 | 32:08.60 | 7:14.30 | 144660 | 177239
6 | 39:23.15 | 3:39.20 | 177240 | 193684
7 | 43:02.35 | 4:09.38 | 193685 | 212397
8 | 47:11.73 | 6:38.30 | 212398 | 242277
9 | 53:50.28 | 9:10.60 | 242278 | 283587
10 | 63:01.13 | 7:28.24 | 283588 | 317211

Характеристики диапазона извлечения и сообщения об ошибках

Выбранный диапазон

Имя файла H:BONEY MBoney M. - The Maxi-Single Collection Volume 4Boney M. - The Maxi Singles Collection Volume 4.wav

Пиковый уровень 97.1 %
Скорость извлечения 3.2 X
Качество диапазона 100.0 %
CRC теста 30809616
CRC копии 30809616
Копирование... OK

Ошибок не произошло

AccurateRip: сводка

Трек 1 отсутствует в базе данных
Трек 2 отсутствует в базе данных
Трек 3 отсутствует в базе данных
Трек 4 отсутствует в базе данных
Трек 5 отсутствует в базе данных
Трек 6 отсутствует в базе данных
Трек 7 отсутствует в базе данных
Трек 8 отсутствует в базе данных
Трек 9 отсутствует в базе данных
Трек 10 отсутствует в базе данных

Ни одного трека нет в базе AccurateRip

Конец отчёта

==== Контрольная сумма отчёта 270D4AF74D4241043A334FA1CB60159DB1C31F92740EFE2BEECAB042726332EE ====

Доп. информация:
Об Альбоме
В раздачу входит 4CD+2CD gold Boney M. - The Maxi-Singles Collection. Volume 1-4


Страна-производитель диска: Russia

Издатель (лейбл): ESonCD

Номер по каталогу: ESCD20054-2, ESCD20055-2, ESCD20066-2, ESCD20067-2
Музыка / Lossless / Поп музыка
СКАЧАТЬ БЕСПЛАТНО  [4.2 GB]


09
ноя
2010

Boney M - The Maxi-Singles Collection Vol.1-4 [2005-2006, Disco, APE]

Формат: APE, (image + .cue), lossless
Год выпуска: 2005-2006
Страна: Germany
Жанр: Disco
Продолжительность: 05:06:56
Описание: Boney M - The Maxi-Singles Collection Vol.1-4 Boney M - The Maxi-Singles Collection Vol.1 (2005) Tracklist: --------------------------- 01. Dancing In The Streets (6:23) 02. Rasputin (7:36) 03. Painter Man (3:13) 04. My Friend Jack (8:28) 05. I See A Boat (On The River) (6:07) 06. Gotta Go Home (5:07) 07. El Lute (5:12) 08. Gadda-Da-Vida (Long Version) (8:57) 09. Children Of Paradise (5:21) 10. Felicidad (Margherita) (11:48) 11. Strange (3:31) 12. Mary's Boy Child / O ...

30
апр
2015

VA - Disco Fox 80 Volume 4 - The Original Maxi-Singles Collection [2015, Disco, Synthpop, Eurodisco, Hi NRG, Italodisco, MP3]

Формат: MP3, tracks, 320kbps
Год выпуска: 2015
Страна: Germany
Жанр: Disco, Synthpop, Eurodisco, Hi NRG, Italodisco
Продолжительность: 01:09:03
Описание:
Трeклист: 01. Ryan Paris - Dolce Vita (Extended Vocal Version) [05:38] 02. Fancy - Slice Me Nice (12" Version) [05:30] 03. The Twins - The Desert Place (Long Version) [06:02] 04. Roxanne - Charlene (Long Version) [06:11] 05. Ken Laszlo - Hey Hey Guy (Extended Vocal Version) [07:36] 06. Bad Boys Blue - Pretty Young Girl (Maxi-Single Version) [05:47] 07. Silent Circle - Stop The Rain (12" Version) [05:41] 08. Bruce & Bongo - Geil (Geiloma ...

27
июн
2014

VA - Disco Fox 80 Volume 2 - The Original Maxi-Singles Collection [2014, Disco, Synthpop, Eurodisco, Hi NRG, Italodisco, MP3]

Формат: MP3, tracks, 320kbps
Год выпуска: 2014
Страна: Germany
Жанр: Disco, Synthpop, Eurodisco, Hi NRG, Italodisco
Продолжительность: 01:09:14
Описание:
Трeклист: 01. Scotch - Mirage (12" Version) [04:42] 02. Gazebo - Lunatic (12" Version) [06:09] 03. Miko Mission - Toc Toc Toc (Disco Mix) [05:04] 04. Bad Boys Blue - Come Back And Stay (Dance Mix) [07:37] 05. Roxanne - Boys In Black Cars (Dance remix) [05:27] 06. Silent Circle - I Am Your Believer (Club Mix) [05:47] 07. Bernie Paul - Attenzione Go Go Radio (12" Version) [06:24] 08. Sweet Connection - Need Your Passion (12" Version) ...

04
окт
2014

VA - Disco Fox 80 Volume 3 - The Original Maxi-Singles Collection [2014, Disco, Synthpop, Eurodisco, Hi NRG, Italodisco, MP3]

Формат: MP3, tracks, 320kbps
Год выпуска: 2014
Страна: Germany
Жанр: Disco, Synthpop, Eurodisco, Hi NRG, Italodisco
Продолжительность: 00:59:07
Описание:
Трeклист: 01. Fancy - Flames Of Love (Extended Version) [05:20] 02. Meccano - Activate My Heart (12" Version) [05:14] 03. Jessica - Chinese Magic (Extended Mix) [05:19] 04. T. Toly - The Witch Queen Of New Orleans (12" Version) [05:22] 05. Bad Boys Blue - A World Without You (Michelle) (Dance Mix) [05:45] 06. Silent Circle - Time For Love (Super Action Mix) [05:25] 07. The Twins - Ballet Dancer (Club Mix) [04:50] 08. Tony Espos ...

26
мая
2016

VA - Disco Fox 80 Volume 6 - The Original Maxi-Singles Collection [2016, Disco, Synthpop, Eurodisco, Hi NRG, Italodisco, MP3]

Формат: MP3, tracks, 320kbps
Год выпуска: 2016
Страна: Germany
Жанр: Disco, Synthpop, Eurodisco, Hi NRG, Italodisco
Продолжительность: 01:14:49
Описание: 01. Leslie Mandoki - Korea (Special Arirang Version) [07:39] 02. Bad Boys Blue - Lady In Black (Shakespearean Mix) [06:07] 03. The Twins - I Need You (12" Version) [06:50] 04. Silent Circle - What a Shame (Masterbeat Mix) [06:36] 05. Fancy - No Tears (Extended Version) [05:30] 06. Split Mirrors - Voices (Extended Version) [07:15] 07. T. Ark - How Old Are You (Extended Version) [06:29] 08. Ken Laszlo - Don't Cry (The Marquee Remix) [07 ...

06
ноя
2015

VA - Disco Fox 80 Volume 5 - The Original Maxi-Singles Collection [2015, Disco, Synthpop, Eurodisco, Hi NRG, Italodisco, MP3]

Формат: MP3, tracks, 320kbps
Год выпуска: 2015
Страна: Germany
Жанр: Disco, Synthpop, Eurodisco, Hi NRG, Italodisco
Продолжительность: 01:03:53
Описание: 01.Colors - Never Mind [05:42] 02.Fair Control - Symphony Of Love [05:36] 03.Bad Boys Blue - Don't Walk Away Suzanne [07:13] 04.The Twins - Love In The Dark [05:55] 05.Valerie Dore - Get Closer [06:17] 06.Neil Smith - Help Me Through The Summer [05:10] 07.Double Take - When You Said Hello [05:04] 08.Silent Circle - Oh, Don't Lose Your Heart Tonight [05:54] 09.Jessica - Like A Burning Star [05:08] 10.Francesco Napoli - Stai Con M ...

20
ноя
2014

Modern Talking - Maxi-Singles Collection [2001, EuroDisco, MP3]

Формат: MP3, tracks, 320kbps
Год выпуска: 2001
Страна: Россия
Жанр: EuroDisco
Продолжительность: 01:17:53
Описание: Треклист01. You're My Heart, You're My Soul (Ultra Long Version) 7:20 02. You Can Win If You Want (Special Dance Version) 5:16 03. Cheri, Cheri Lady (Special Dance Version) 4:45 04. Brother Louie (Long Version) 5:18 05. Atlantis Is Calling (S.O.S. For Love) (Extended Version) 5:19 06. Geronimo's Cadillac (Long Vocal Version) 4:54 07. Jet Airliner (Fasten-Seat-Belt-Mix) 5:51 08. In 100 Years... (Long Version - Future Mix) 6:37 09. China In Her Eyes (Remix) 4:24 10. Don't Take Awa ...

11
июл
2015

Mike Mareen - The Maxi-Singles Collection [2009, Italo-Disco, APE]

Формат: APE, (image + .cue), lossless
Год выпуска: 2009
Страна: Germany
Жанр: Italo-Disco
Продолжительность: 01:19:46
Описание: 01. Agent Of Liberty (Nik Z.WC Remix) 4:56 02. Lady Ecstasy (Extended Version) 5:32 03. Love Spy (Night Mix) 8:40 04. Don't Talk To The Snake (Maxi Version) 7:58 05. Agent Of Liberty (Maxi Version) 8:47 06. Heavy Water (Maxi Version) 6:45 07. Dancing In The Dark (Bonus Remix) 5:40 08. Here I Am (Hammer Mix) 5:37 09. Double Trouble (Extended Version) 5:07 10. Double Dub 4:09 11. Agent Of Liberty (Instrumental) 6:49 12. Love Spy (Instrumental) 4:01 13. Right Into My He ...

30
дек
2014

Savage The Original Maxi-Singles Collection [2014, Italo Disco, MP3]

Формат: MP3, tracks, 320kbps
Год выпуска: 2014
Страна: Italy, Germany
Жанр: Italo Disco
Продолжительность: 01:19:55
Описание: 01. Don't Cry Tonight (12''Version) [06:45] 02. Only You (12''Version) [06:59] 03. Radio (12''Version) [06:00] 04. A Love Again (Special Remix) [06:32] 05. Fugitive (12''Version) [06:46] 06. Time (12''Version) [05:11] 07. Love Is Death (Extended Version) [06:14] 08. Celebrate (Military Mix) [05:44] 09. I'm Loosing You (Extended Version) [06:14] 10. So Close (Long Version) [06:39] 11. Good-Bye (Extended Version) [06:39] 12. I Just Died In Your Arms (Extended Version ...

19
окт
2014

Boytronic - The Original Maxi-Singles Collection [2014, Synthpop, MP3]

Формат: MP3, tracks, 320kbps
Год выпуска: 2014
Страна: Germany
Жанр: Synthpop
Продолжительность: 01:19:57
Описание: 01. You (Extended Version) [07:10] 02. Diamonds And Loving Arms (Special Front Mix) [06:56] 03. Man In A Uniform (Continental-Mix) [05:17] 04. Hold On (Deaf Dumb & Blind Mix 115 BPM) [06:22] 05. Late Night Satellite (Long Version) [07:43] 06. Hurts (12'' Version) [07:49] 07. I Will Survive (Extended Vocal Version) [07:07] 08. Bryllant (33 1/3 Plus 8 Radio Edit) [05:31] 09. Tears (Extended Version) [06:46] 10. Don't Let Me Down (Extended Euro Mix) [06:19] 11. Love For Sale (E ...

04
фев
2014

Fancy - The Original Maxi-Singles Collection [2013, Eurodisco, MP3]

Формат: MP3, tracks, 320kbps
Год выпуска: 2013
Страна: Germany
Жанр: Eurodisco
Продолжительность: 02:28:04
Описание: Tracklist CD 1. 01:12:20 01. Slice Me Nice (12'' Version) [05:28] 02. Chinese Eyes (12'' Version) [05:51] 03. Get Lost Tonight (12'' Version) [06:32] 04. L.A.D.Y O. (12'' Version) [05:38] 05. Get Your Kicks (12'' Version) [05:33] 06. Colder Than Ice (12'' Version) [05:08] 07. Bolero (Hold Me In Your Arms Again) (12'' Version) [05:40] 08. Lady Of Ice (12'' Version) [04:57] 09. Latin Fire (12'' Version) [05:52] 10. Raving Queen (12'' Version) [05:16] 11. China Blue (12'' ...

19
окт
2014

Max-Him The Original Maxi-Singles Collection [2014, Italo Disco, MP3]

Формат: MP3, tracks, 320kbps
Год выпуска: 2014
Страна: Germany
Жанр: Italo Disco
Продолжительность: 01:16:18
Описание: 01. Roadhouse Blues (Psychotic Version) [08:01] 02. No Escape (Vocal) (12" Version) [06:37] 03. Lady Fantasy (Vocal) (12" Version) [06:19] 04. Japanese Girl (Vocal Version) [05:59] 05. Danger Danger (Vocal) (12" Version) [06:39] 06. Melanie (Remix) [07:13] 07. Just A Love Affair (A Cruisin’ Mix) [07:25] 08. No Escape (Vocal Remix) [06:08] 09. Lady Fantasy (Remix) [06:38] 10. Japanese Girl (Remix) [06:27] 11. Just A Love Affair (A Nightmare Mix) [08:46]

13
янв
2016

Silver Pozzoli - The Original Maxi-Singles Collection [2015, Italo Disco, MP3]

Формат: MP3, tracks, 320kbps
Год выпуска: 2015
Страна: Italy
Жанр: Italo Disco
Продолжительность: 01:10:26
Описание: 01. Around My Dream (Vocal Version) [05:42] 02. Step By Step (Club Mix) [05:26] 03. From You To Me (Vocal Version) [06:13] 04. Pretty Baby (Vocal Version) [05:59] 05. Chica Boom (Vocal Version) [05:24] 06. Cross My Heart (Vocal Version) [04:26] 07. Call Me (12“ Version) [04:30] 08. Love Is The Best (12“ Version) [05:54] 09. Get Alone (12“ Version) [04:56] 10. Around My Dream (Vocal Remix Version) [04:49] 11. Around My Dream (Instrumental) [06:07] 12. From You To Me (Instrum ...

28
мар
2014

Silent Circle - The Original Maxi-Singles Collection [2014, Eurodisco, Synthpop, Disco, MP3]

Формат: MP3, tracks, 320kbps
Год выпуска: 2014
Страна: Germany
Жанр: Eurodisco, Synthpop, Disco
Продолжительность: 01:02:54
Описание:
Трeклист: 01. Hide Away - Man Is Comin! (Special Mix) [05:11] 02. Touch In The Night (Crash Version) [05:35] 03. Stop The Rain (12'' Version) [05:39] 04. Love Is Just A Word (Reggae Version) [05:46] 05. Moonlight Affair (12'' Version) [06:01] 06. Time For Love (Super Action Mix) [05:24] 07. Danger Danger (Racing Mix) [06:02] 08. Oh, Don't Lose Your Heart Tonight (12'' Version) [05:49] 09. I Am Your Believer (Club Mix) [05:46] 10. Forget The Stranger (Sim ...

22
янв
2016

Mike Mareen - The Original Maxi-Singles Collection [2016, Italo Disco, Disco, Synthpop, MP3]

Формат: MP3, tracks, 320kbps
Год выпуска: 2016
Страна: Germany
Жанр: Italo Disco, Disco, Synthpop
Продолжительность: 01:15:19
Описание: 01. Cecilia (Remix Version) [07:17] 02. Dancing In The Dark (12“ Version) [05:44] 03. Double Trouble (Zeppelin Remix) [06:34] 04. Here I Am (Megatrain Mix) [07:35] 05. Love-Spy (The Badman-Mix) [06:24] 06. Agent Of Liberty (12“ Version) [08:53] 07. Don’t Talk To The Snake (12“ Version) [08:00] 08. Stand Up (12“ Version) [06:31] 09. Lady Ecstasy (12“ Version) [05:37] 10. Right Into My Heart (Inner Town-Deep-Houzz-Mix) [06:46] 11. Love Spy / Back To Spy (O ...