14
мая
2016

VA - Millenium Sexy 4 [2012, Pop, HDTVRip]

VA - Millenium Sexy 4
Формат: HDTVRip, MPEG4, mkv, H.264, AAC
Песня: Millenium Sexy 4
Жанр: Pop
Продолжительность: 02:52:11
Год выпуска: 2012
Видео: 1920x1080, 1280X720, (16:9), 25.000 fps, AVC, 4.496 kbps avg, 0.87 bit.pixel
Аудио: 44.1 KHz, AAC, 2 ch, stereo, 155-380 Kbps avg
Доп. информация:
Треклист

01 Duran Duran - Girl Panic!
02 Fly Project - UNISEX
03 Narcotic Sound and Christian D - Mamasita
04 Misstress Barbara - I'm not human
05 Federico Scavo feat. Andrea Guzzoletti - Strump
06 Is Tropical - Lies
07 Joelina Drews ft. Al Walser - Trendsetter
08 Jessica 6 - White Horse
09 Money Boy - Stripclub
10 Javi Mula - Come on
11 Anda Adam - Feel
12 Armin van Buuren feat. Laura V - Drowning
13 The Good The Bad - 030
14 Scissor Sisters - Invisible Light
15 ETHERNITY - Desires
16 TYSON - AFTER YOU'RE GONE
17 The Micronauts - Reaction
18 Tina More - Touch Me
19 Sasha Lopez feat Broono & Ale Blake - Weekend
20 Sergio Mauri Feat. April Raquel - I Feel In The Air
21 Kerli - Army Of Love
22 Andra - Telephone
23 King Fantastic - Why Where What
24 Lady GaGa - Alejandro
25 Lloyd - Be The One ft. Trey Songz, Young Jeezy
26 Maverick Sabre - No One
27 Pedro Cazanova - Selfish love (Аня Морячка)
28 EbRu MusiQ - Conga
29 Hampenberg & Alexander Brown - Raise The Roof (feat. Pitbull, Fatman Scoop & Nabiha)
30 Chat de Sexo para Iphone - Lanzamiento Sexole
31 Phonique feat. Rebecca - Feel What You Want
32 Dara Rolins - Fobia
33 Beat Sekas - Like To Be
34 Sean Paul - She Doesn't Mind
35 Eric Chase - Love Comes Around
36 Melissa Molinaro - Dance Floor
37 The Coolbreezers - take me djs from(mars remix)
38 NICOLE M.Y a.k.a. T-DJ NOCOLE- Play in sex
39 Rudeejay & Freaks Jam feat. Jenny B - The Rhythm Is Magic
40 Alexandra Stan feat Carlprit - 1.000.000
41 Zahia Dehar in BIONIC - Short Film by Greg Williams
42 Morris feat. Sonny Flame - Havana Lover
43 Tom Boxer & Morena feat Meital De Razon - Voulez Vous
44 Sash! Feat. Jean Pearl - Mirror Mirror (Radio Edit)
45 DJ Layla feat Radu Sirbu & Armina Rosi - Party Boy


MediaInfo
Общее
Полное имя : H:MilleniumMillenium AllMillenium SexyMillenium Sexy 4 HDTV1 Duran Duran - Girl Panic!.mp4
Формат : MPEG-4
Профиль формата : Base Media / Version 2
Идентификатор кодека : mp42 (isom/mp42)
Размер файла : 408 Мбайт
Продолжительность : 9 м. 34 с.
Режим общего битрейта : Переменный
Общий поток : 5956 Кбит/сек
Дата кодирования : UTC 2011-11-07 04:53:29
Дата пометки : UTC 2011-11-07 04:53:29
gsst : 0
gstd : 574716
gssd : B4A7DA8C3HH1325089456288871
gshh : v3.nonxt1.c.youtube.com

Видео
Идентификатор : 1
Формат : AVC
Формат/Информация : Advanced Video Codec
Профиль формата : High@L4
Параметр CABAC формата : Да
Параметр ReFrames формата : 1 кадр
Параметр GOP формата : M=1, N=25
Идентификатор кодека : avc1
Идентификатор кодека/Информация : Advanced Video Coding
Продолжительность : 9 м. 34 с.
Битрейт : 5802 Кбит/сек
Максимальный битрейт : 16,5 Мбит/сек
Ширина : 1920 пикселей
Высота : 1080 пикселей
Соотношение сторон : 16:9
Режим частоты кадров : Постоянный
Частота кадров : 25,000 кадров/сек
Цветовое пространство : YUV
Субдискретизация насыщенности : 4:2:0
Битовая глубина : 8 бит
Тип развёртки : Прогрессивная
Бит/(Пиксели*Кадры) : 0.112
Размер потока : 397 Мбайт (97%)
Дата кодирования : UTC 1970-01-01 00:00:00
Дата пометки : UTC 2011-11-07 04:53:33

Аудио
Идентификатор : 2
Формат : AAC
Формат/Информация : Advanced Audio Codec
Профиль формата : LC
Идентификатор кодека : 40
Продолжительность : 9 м. 34 с.
Вид битрейта : Переменный
Битрейт : 151 Кбит/сек
Максимальный битрейт : 232 Кбит/сек
Каналы : 2 канала
Расположение каналов : Front: L R
Частота : 44,1 КГц
Частота кадров : 43,066 кадра/сек (1024 spf)
Метод сжатия : С потерями
Размер потока : 10,4 Мбайт (3%)
Заголовок : IsoMedia File Produced by Google, 5-11-2011
Дата кодирования : UTC 2011-11-07 04:53:33
Дата пометки : UTC 2011-11-07 04:53:33

Общее
Полное имя : H:MilleniumMillenium AllMillenium SexyMillenium Sexy 4 HDTV2 Fly Project - Unisex.mp4
Формат : MPEG-4
Профиль формата : Base Media / Version 2
Идентификатор кодека : mp42 (mp42/mp41)
Размер файла : 192 Мбайт
Продолжительность : 3 м. 40 с.
Общий поток : 7304 Кбит/сек
Дата кодирования : UTC 2016-05-13 12:41:57
Дата пометки : UTC 2016-05-13 12:42:00
©TIM : 00:00:00:00
©TSC : 25
©TSZ : 1

Видео
Идентификатор : 1
Формат : HEVC
Формат/Информация : High Efficiency Video Coding
Профиль формата : Main@L4.1@Main
Идентификатор кодека : hvc1
Идентификатор кодека/Информация : High Efficiency Video Coding
Продолжительность : 3 м. 40 с.
Битрейт : 6982 Кбит/сек
Ширина : 1920 пикселей
Высота : 1080 пикселей
Соотношение сторон : 16:9
Режим частоты кадров : Постоянный
Частота кадров : 25,000 кадров/сек
Цветовое пространство : YUV
Субдискретизация насыщенности : 4:2:0
Битовая глубина : 8 бит
Бит/(Пиксели*Кадры) : 0.135
Размер потока : 184 Мбайт (96%)
Язык : English
Дата кодирования : UTC 2016-05-13 12:41:57
Дата пометки : UTC 2016-05-13 12:41:57
Цветовой диапазон : Full
Основные цвета : BT.709
Характеристики трансфера : BT.709
Коэффициенты матрицы : BT.709

Аудио
Идентификатор : 2
Формат : AAC
Формат/Информация : Advanced Audio Codec
Профиль формата : LC
Идентификатор кодека : 40
Продолжительность : 3 м. 40 с.
Продолжительность оригинала : 3 м. 40 с.
Вид битрейта : Постоянный
Битрейт : 317 Кбит/сек
Каналы : 2 канала
Расположение каналов : Front: L R
Частота : 48,0 КГц
Частота кадров : 46,875 кадров/сек (1024 spf)
Метод сжатия : С потерями
Размер потока : 8,34 Мбайт (4%)
Размер потока оригинала : 8,34 Мбайт (4%)
Язык : English
Дата кодирования : UTC 2016-05-13 12:41:57
Дата пометки : UTC 2016-05-13 12:41:57

Общее
Полное имя : H:MilleniumMillenium AllMillenium SexyMillenium Sexy 4 HDTV3 Narcotic Sound and Christian D - Mamasita.mp4
Формат : MPEG-4
Профиль формата : Base Media / Version 2
Идентификатор кодека : mp42 (mp42/mp41)
Размер файла : 169 Мбайт
Продолжительность : 3 м. 13 с.
Режим общего битрейта : Переменный
Общий поток : 7365 Кбит/сек
Дата кодирования : UTC 2016-05-13 17:30:35
Дата пометки : UTC 2016-05-13 17:30:39
©TIM : 00:00:00:00
©TSC : 24
©TSZ : 1

Видео
Идентификатор : 1
Формат : HEVC
Формат/Информация : High Efficiency Video Coding
Профиль формата : Main@L4.1@Main
Идентификатор кодека : hvc1
Идентификатор кодека/Информация : High Efficiency Video Coding
Продолжительность : 3 м. 13 с.
Битрейт : 7043 Кбит/сек
Ширина : 1920 пикселей
Высота : 1080 пикселей
Соотношение сторон : 16:9
Режим частоты кадров : Постоянный
Частота кадров : 24,000 кадра/сек
Цветовое пространство : YUV
Субдискретизация насыщенности : 4:2:0
Битовая глубина : 8 бит
Бит/(Пиксели*Кадры) : 0.142
Размер потока : 162 Мбайт (96%)
Язык : English
Дата кодирования : UTC 2016-05-13 17:30:35
Дата пометки : UTC 2016-05-13 17:30:35
Цветовой диапазон : Full
Основные цвета : BT.709
Характеристики трансфера : BT.709
Коэффициенты матрицы : BT.709

Аудио
Идентификатор : 2
Формат : AAC
Формат/Информация : Advanced Audio Codec
Профиль формата : LC
Идентификатор кодека : 40
Продолжительность : 3 м. 13 с.
Продолжительность оригинала : 3 м. 13 с.
Вид битрейта : Переменный
Битрейт : 317 Кбит/сек
Максимальный битрейт : 416 Кбит/сек
Каналы : 2 канала
Расположение каналов : Front: L R
Частота : 48,0 КГц
Частота кадров : 46,875 кадров/сек (1024 spf)
Метод сжатия : С потерями
Размер потока : 7,30 Мбайт (4%)
Размер потока оригинала : 7,30 Мбайт (4%)
Язык : English
Дата кодирования : UTC 2016-05-13 17:30:35
Дата пометки : UTC 2016-05-13 17:30:35

Общее
Полное имя : H:MilleniumMillenium AllMillenium SexyMillenium Sexy 4 HDTV4 Misstress Barbara - I'm No Human.mp4
Формат : MPEG-4
Профиль формата : Base Media / Version 2
Идентификатор кодека : mp42 (isom/mp42)
Размер файла : 166 Мбайт
Продолжительность : 4 м. 5 с.
Режим общего битрейта : Переменный
Общий поток : 5651 Кбит/сек
Дата кодирования : UTC 2011-04-21 03:12:54
Дата пометки : UTC 2011-04-21 03:12:54
gsst : 0
gstd : 245760
gssd : B4A7DDAE6MH1327340566778965
gshh : v6.cache8.c.youtube.com

Видео
Идентификатор : 1
Формат : AVC
Формат/Информация : Advanced Video Codec
Профиль формата : High@L4
Параметр CABAC формата : Да
Параметр ReFrames формата : 1 кадр
Параметр GOP формата : M=1, N=25
Идентификатор кодека : avc1
Идентификатор кодека/Информация : Advanced Video Coding
Продолжительность : 4 м. 5 с.
Битрейт : 5494 Кбит/сек
Максимальный битрейт : 12,8 Мбит/сек
Ширина : 1920 пикселей
Высота : 1080 пикселей
Соотношение сторон : 16:9
Режим частоты кадров : Постоянный
Частота кадров : 25,000 кадров/сек
Цветовое пространство : YUV
Субдискретизация насыщенности : 4:2:0
Битовая глубина : 8 бит
Тип развёртки : Прогрессивная
Бит/(Пиксели*Кадры) : 0.106
Размер потока : 161 Мбайт (97%)
Дата кодирования : UTC 1970-01-01 00:00:00
Дата пометки : UTC 2011-04-21 03:12:59

Аудио
Идентификатор : 2
Формат : AAC
Формат/Информация : Advanced Audio Codec
Профиль формата : LC
Идентификатор кодека : 40
Продолжительность : 4 м. 5 с.
Вид битрейта : Переменный
Битрейт : 152 Кбит/сек
Максимальный битрейт : 211 Кбит/сек
Каналы : 2 канала
Расположение каналов : Front: L R
Частота : 44,1 КГц
Частота кадров : 43,066 кадра/сек (1024 spf)
Метод сжатия : С потерями
Размер потока : 4,45 Мбайт (3%)
Заголовок : (C) 2007 Google Inc. v08.13.2007.
Дата кодирования : UTC 2011-04-21 03:12:57
Дата пометки : UTC 2011-04-21 03:12:59

Общее
Полное имя : H:MilleniumMillenium AllMillenium SexyMillenium Sexy 4 HDTV5 Federico Scavo feat. Andrea Guzzoletti - Strump.mp4
Формат : MPEG-4
Профиль формата : Base Media / Version 2
Идентификатор кодека : mp42 (isom/mp42)
Размер файла : 39,9 Мбайт
Продолжительность : 3 м. 39 с.
Режим общего битрейта : Переменный
Общий поток : 1524 Кбит/сек
Дата кодирования : UTC 2011-09-08 12:29:49
Дата пометки : UTC 2011-09-08 12:29:49
gsst : 0
gstd : 219640
gssd : BD0419AC1MH1329328524682322
gshh : tc.v1.cache7.c.youtube.com

Видео
Идентификатор : 1
Формат : AVC
Формат/Информация : Advanced Video Codec
Профиль формата : High@L3.1
Параметр CABAC формата : Да
Параметр ReFrames формата : 1 кадр
Идентификатор кодека : avc1
Идентификатор кодека/Информация : Advanced Video Coding
Продолжительность : 3 м. 39 с.
Битрейт : 1367 Кбит/сек
Максимальный битрейт : 4350 Кбит/сек
Ширина : 1280 пикселей
Высота : 720 пикселей
Соотношение сторон : 16:9
Режим частоты кадров : Постоянный
Частота кадров : 25,000 кадров/сек
Цветовое пространство : YUV
Субдискретизация насыщенности : 4:2:0
Битовая глубина : 8 бит
Тип развёртки : Прогрессивная
Бит/(Пиксели*Кадры) : 0.059
Размер потока : 35,8 Мбайт (90%)
Дата кодирования : UTC 1970-01-01 00:00:00
Дата пометки : UTC 2011-09-08 12:29:49

Аудио
Идентификатор : 2
Формат : AAC
Формат/Информация : Advanced Audio Codec
Профиль формата : LC
Идентификатор кодека : 40
Продолжительность : 3 м. 39 с.
Вид битрейта : Переменный
Битрейт : 152 Кбит/сек
Максимальный битрейт : 198 Кбит/сек
Каналы : 2 канала
Расположение каналов : Front: L R
Частота : 44,1 КГц
Частота кадров : 43,066 кадра/сек (1024 spf)
Метод сжатия : С потерями
Размер потока : 3,98 Мбайт (10%)
Заголовок : IsoMedia File Produced by Google, 5-11-2011
Дата кодирования : UTC 2011-09-08 12:29:49
Дата пометки : UTC 2011-09-08 12:29:49

Общее
Полное имя : H:MilleniumMillenium AllMillenium SexyMillenium Sexy 4 HDTV6 Is Tropical - Lies.mp4
Формат : MPEG-4
Профиль формата : Base Media / Version 2
Идентификатор кодека : mp42 (isom/mp42)
Размер файла : 70,7 Мбайт
Продолжительность : 3 м. 27 с.
Режим общего битрейта : Переменный
Общий поток : 2863 Кбит/сек
Дата кодирования : UTC 2011-09-02 19:23:19
Дата пометки : UTC 2011-12-19 07:57:47
gsst : 0
gstd : 207038
gssd : B4A7DDAC4MH1323568193492502
gshh : v4.cache7.c.youtube.com

Видео
Идентификатор : 1
Формат : AVC
Формат/Информация : Advanced Video Codec
Профиль формата : High@L3.1
Параметр CABAC формата : Да
Параметр ReFrames формата : 1 кадр
Идентификатор кодека : avc1
Идентификатор кодека/Информация : Advanced Video Coding
Продолжительность : 3 м. 27 с.
Битрейт : 2705 Кбит/сек
Максимальный битрейт : 7682 Кбит/сек
Ширина : 1280 пикселей
Высота : 720 пикселей
Соотношение сторон : 16:9
Режим частоты кадров : Переменный
Частота кадров : 23,976 кадра/сек
Минимальная частота кадров : 23,810 кадра/сек
Максимальная частота кадров : 24,390 кадра/сек
Цветовое пространство : YUV
Субдискретизация насыщенности : 4:2:0
Битовая глубина : 8 бит
Тип развёртки : Прогрессивная
Бит/(Пиксели*Кадры) : 0.122
Размер потока : 66,8 Мбайт (94%)
Дата кодирования : UTC 1970-01-01 00:00:00
Дата пометки : UTC 2011-09-02 19:23:19

Аудио
Идентификатор : 2
Формат : AAC
Формат/Информация : Advanced Audio Codec
Профиль формата : LC
Идентификатор кодека : 40
Продолжительность : 3 м. 26 с.
Вид битрейта : Переменный
Битрейт : 152 Кбит/сек
Максимальный битрейт : 202 Кбит/сек
Каналы : 2 канала
Расположение каналов : Front: L R
Частота : 44,1 КГц
Частота кадров : 43,066 кадра/сек (1024 spf)
Метод сжатия : С потерями
Размер потока : 3,75 Мбайт (5%)
Заголовок : IsoMedia File Produced by Google, 5-11-2011
Дата кодирования : UTC 2011-09-02 19:23:19
Дата пометки : UTC 2011-09-02 19:23:19

Общее
Полное имя : H:MilleniumMillenium AllMillenium SexyMillenium Sexy 4 HDTV7 Joelina Drews ft. Al Walser - Trendsetter.mp4
Формат : MPEG-4
Профиль формата : Base Media / Version 2
Идентификатор кодека : mp42 (isom/mp42)
Размер файла : 77,3 Мбайт
Продолжительность : 3 м. 24 с.
Режим общего битрейта : Переменный
Общий поток : 3173 Кбит/сек
Дата кодирования : UTC 2010-12-18 10:25:17
Дата пометки : UTC 2010-12-18 10:25:17
gsst : 0
gstd : 204403
gssd : BD075F942MH1326172961296919
gshh : tc.v17.cache7.c.youtube.com

Видео
Идентификатор : 1
Формат : AVC
Формат/Информация : Advanced Video Codec
Профиль формата : High@L3.1
Параметр CABAC формата : Да
Параметр ReFrames формата : 1 кадр
Параметр GOP формата : M=1, N=30
Идентификатор кодека : avc1
Идентификатор кодека/Информация : Advanced Video Coding
Продолжительность : 3 м. 24 с.
Битрейт : 3041 Кбит/сек
Максимальный битрейт : 11,9 Мбит/сек
Ширина : 1280 пикселей
Высота : 720 пикселей
Соотношение сторон : 16:9
Режим частоты кадров : Переменный
Частота кадров : 30,000 кадров/сек
Минимальная частота кадров : 29,412 кадров/сек
Максимальная частота кадров : 55,556 кадров/сек
Цветовое пространство : YUV
Субдискретизация насыщенности : 4:2:0
Битовая глубина : 8 бит
Тип развёртки : Прогрессивная
Бит/(Пиксели*Кадры) : 0.110
Размер потока : 74,1 Мбайт (96%)
Дата кодирования : UTC 1970-01-01 00:00:00
Дата пометки : UTC 2010-12-18 10:25:21

Аудио
Идентификатор : 2
Формат : AAC
Формат/Информация : Advanced Audio Codec
Профиль формата : LC
Идентификатор кодека : 40
Продолжительность : 3 м. 24 с.
Вид битрейта : Переменный
Битрейт : 126 Кбит/сек
Максимальный битрейт : 169 Кбит/сек
Каналы : 2 канала
Расположение каналов : Front: L R
Частота : 44,1 КГц
Частота кадров : 43,066 кадра/сек (1024 spf)
Метод сжатия : С потерями
Размер потока : 3,06 Мбайт (4%)
Заголовок : (C) 2007 Google Inc. v08.13.2007.
Дата кодирования : UTC 2010-12-18 10:25:19
Дата пометки : UTC 2010-12-18 10:25:21

Общее
Полное имя : H:MilleniumMillenium AllMillenium SexyMillenium Sexy 4 HDTV8 Jessica 6 - White Horse.mp4
Формат : MPEG-4
Профиль формата : Base Media / Version 2
Идентификатор кодека : mp42 (isom/mp42)
Размер файла : 179 Мбайт
Продолжительность : 4 м. 9 с.
Режим общего битрейта : Переменный
Общий поток : 6018 Кбит/сек
Дата кодирования : UTC 2011-02-26 21:14:04
Дата пометки : UTC 2011-02-26 21:14:04
gsst : 0
gstd : 249448
gssd : BADC23004MH1324040042139356
gshh : o-o.preferred.arn06s03.v14.lscache1.c.youtube.com

Видео
Идентификатор : 1
Формат : AVC
Формат/Информация : Advanced Video Codec
Профиль формата : High@L4
Параметр CABAC формата : Да
Параметр ReFrames формата : 1 кадр
Идентификатор кодека : avc1
Идентификатор кодека/Информация : Advanced Video Coding
Продолжительность : 4 м. 9 с.
Битрейт : 5884 Кбит/сек
Максимальный битрейт : 16,3 Мбит/сек
Ширина : 1920 пикселей
Высота : 1080 пикселей
Соотношение сторон : 16:9
Режим частоты кадров : Переменный
Частота кадров : 29,970 кадров/сек
Минимальная частота кадров : 29,412 кадров/сек
Максимальная частота кадров : 30,303 кадров/сек
Цветовое пространство : YUV
Субдискретизация насыщенности : 4:2:0
Битовая глубина : 8 бит
Тип развёртки : Прогрессивная
Бит/(Пиксели*Кадры) : 0.095
Размер потока : 175 Мбайт (98%)
Дата кодирования : UTC 1970-01-01 00:00:00
Дата пометки : UTC 2011-02-26 21:14:15

Аудио
Идентификатор : 2
Формат : AAC
Формат/Информация : Advanced Audio Codec
Профиль формата : LC
Идентификатор кодека : 40
Продолжительность : 4 м. 9 с.
Вид битрейта : Переменный
Битрейт : 128 Кбит/сек
Максимальный битрейт : 152 Кбит/сек
Каналы : 2 канала
Расположение каналов : Front: L R
Частота : 44,1 КГц
Частота кадров : 43,066 кадра/сек (1024 spf)
Метод сжатия : С потерями
Размер потока : 3,79 Мбайт (2%)
Заголовок : (C) 2007 Google Inc. v08.13.2007.
Дата кодирования : UTC 2011-02-26 21:14:11
Дата пометки : UTC 2011-02-26 21:14:15

Общее
Уникальный идентификатор : 219158355165145050188900096509368832761 (0xA4E05D2713C2ADE49D99CE22822F92F9)
Полное имя : H:MilleniumMillenium AllMillenium SexyMillenium Sexy 4 HDTV9 Money Boy - Stripclub.mkv
Формат : Matroska
Версия формата : Version 2
Размер файла : 40,1 Мбайт
Продолжительность : 2 м. 35 с.
Общий поток : 2167 Кбит/сек
Название фильма : www.musicdawn.ru | Money Boy - Stripclub [2011, Hip-Hop, HDrip]
Дата кодирования : UTC 2011-09-19 05:32:06
Программа кодирования : mkvmerge v2.9.8 ('C'est le bon') built on Aug 13 2009 12:49:06
Библиотека кодирования : libebml v0.7.7 + libmatroska v0.8.1

Видео
Идентификатор : 1
Формат : AVC
Формат/Информация : Advanced Video Codec
Профиль формата : High@L3.1
Параметр CABAC формата : Да
Параметр ReFrames формата : 4 кадра
Идентификатор кодека : V_MPEG4/ISO/AVC
Продолжительность : 2 м. 35 с.
Ширина : 1280 пикселей
Высота : 720 пикселей
Соотношение сторон : 16:9
Режим частоты кадров : Постоянный
Частота кадров : 25,000 кадров/сек
Цветовое пространство : YUV
Субдискретизация насыщенности : 4:2:0
Битовая глубина : 8 бит
Тип развёртки : Прогрессивная
Библиотека кодирования : Vimeo Encoder
Default : Да
Forced : Нет

Аудио
Идентификатор : 2
Формат : AAC
Формат/Информация : Advanced Audio Codec
Профиль формата : LC
Идентификатор кодека : A_AAC
Продолжительность : 2 м. 35 с.
Каналы : 2 канала
Расположение каналов : Front: L R
Частота : 44,1 КГц
Частота кадров : 43,066 кадра/сек (1024 spf)
Метод сжатия : С потерями
Default : Да
Forced : Нет

Общее
Полное имя : H:MilleniumMillenium AllMillenium SexyMillenium Sexy 4 HDTV10 Javi Mula - Come on.mp4
Формат : MPEG-4
Профиль формата : Base Media / Version 2
Идентификатор кодека : mp42 (isom/mp42)
Размер файла : 112 Мбайт
Продолжительность : 3 м. 22 с.
Режим общего битрейта : Переменный
Общий поток : 4620 Кбит/сек
Дата кодирования : UTC 2011-11-29 00:05:54
Дата пометки : UTC 2011-11-29 00:05:54
gsst : 0
gstd : 202710
gssd : BADC23A05MH1330869452771182
gshh : v5.nonxt6.c.youtube.com

Видео
Идентификатор : 1
Формат : AVC
Формат/Информация : Advanced Video Codec
Профиль формата : High@L4
Параметр CABAC формата : Да
Параметр ReFrames формата : 1 кадр
Идентификатор кодека : avc1
Идентификатор кодека/Информация : Advanced Video Coding
Продолжительность : 3 м. 22 с.
Битрейт : 4480 Кбит/сек
Максимальный битрейт : 12,4 Мбит/сек
Ширина : 1920 пикселей
Высота : 1080 пикселей
Соотношение сторон : 16:9
Режим частоты кадров : Постоянный
Частота кадров : 25,000 кадров/сек
Цветовое пространство : YUV
Субдискретизация насыщенности : 4:2:0
Битовая глубина : 8 бит
Тип развёртки : Прогрессивная
Бит/(Пиксели*Кадры) : 0.086
Размер потока : 108 Мбайт (97%)
Дата кодирования : UTC 1970-01-01 00:00:00
Дата пометки : UTC 2011-11-29 00:05:55

Аудио
Идентификатор : 2
Формат : AAC
Формат/Информация : Advanced Audio Codec
Профиль формата : LC
Идентификатор кодека : 40
Продолжительность : 3 м. 22 с.
Вид битрейта : Переменный
Битрейт : 137 Кбит/сек
Максимальный битрейт : 188 Кбит/сек
Каналы : 2 канала
Расположение каналов : Front: L R
Частота : 44,1 КГц
Частота кадров : 43,066 кадра/сек (1024 spf)
Метод сжатия : С потерями
Размер потока : 3,32 Мбайт (3%)
Заголовок : IsoMedia File Produced by Google, 5-11-2011
Дата кодирования : UTC 2011-11-29 00:05:55
Дата пометки : UTC 2011-11-29 00:05:55

Общее
Полное имя : H:MilleniumMillenium AllMillenium SexyMillenium Sexy 4 HDTV11 Anda Adam - Feel.mp4
Формат : MPEG-4
Профиль формата : Base Media / Version 2
Идентификатор кодека : mp42 (isom/mp42)
Размер файла : 147 Мбайт
Продолжительность : 3 м. 34 с.
Режим общего битрейта : Переменный
Общий поток : 5745 Кбит/сек
Дата кодирования : UTC 2011-05-22 18:44:49
Дата пометки : UTC 2011-05-22 18:44:49
gsst : 0
gstd : 214720
gssd : B4A7D0947MM1306681702020259
gshh : o-o.preferred.netservicos-gru1.v15.lscache8.c.youtube.com

Видео
Идентификатор : 1
Формат : AVC
Формат/Информация : Advanced Video Codec
Профиль формата : High@L4
Параметр CABAC формата : Да
Параметр ReFrames формата : 1 кадр
Параметр GOP формата : M=1, N=25
Идентификатор кодека : avc1
Идентификатор кодека/Информация : Advanced Video Coding
Продолжительность : 3 м. 34 с.
Битрейт : 5589 Кбит/сек
Максимальный битрейт : 17,1 Мбит/сек
Ширина : 1920 пикселей
Высота : 1080 пикселей
Соотношение сторон : 16:9
Режим частоты кадров : Постоянный
Частота кадров : 25,000 кадров/сек
Цветовое пространство : YUV
Субдискретизация насыщенности : 4:2:0
Битовая глубина : 8 бит
Тип развёртки : Прогрессивная
Бит/(Пиксели*Кадры) : 0.108
Размер потока : 143 Мбайт (97%)
Дата кодирования : UTC 1970-01-01 00:00:00
Дата пометки : UTC 2011-05-22 18:44:54

Аудио
Идентификатор : 2
Формат : AAC
Формат/Информация : Advanced Audio Codec
Профиль формата : LC
Идентификатор кодека : 40
Продолжительность : 3 м. 34 с.
Вид битрейта : Переменный
Битрейт : 151 Кбит/сек
Максимальный битрейт : 180 Кбит/сек
Каналы : 2 канала
Расположение каналов : Front: L R
Частота : 44,1 КГц
Частота кадров : 43,066 кадра/сек (1024 spf)
Метод сжатия : С потерями
Размер потока : 3,87 Мбайт (3%)
Дата кодирования : UTC 2011-05-22 18:44:52
Дата пометки : UTC 2011-05-22 18:44:54

Общее
Полное имя : H:MilleniumMillenium AllMillenium SexyMillenium Sexy 4 HDTV12 Armin van Buuren feat. Laura V - Drowning.mp4
Формат : MPEG-4
Профиль формата : Base Media / Version 2
Идентификатор кодека : mp42 (isom/mp42)
Размер файла : 61,8 Мбайт
Продолжительность : 2 м. 36 с.
Режим общего битрейта : Переменный
Общий поток : 3315 Кбит/сек
Дата кодирования : UTC 2011-03-30 20:52:19
Дата пометки : UTC 2011-03-30 20:52:19
gsst : 0
gstd : 156440
gssd : BADC214E3MH1328441409798146
gshh : o-o.preferred.par08s05.v13.lscache7.c.youtube.com

Видео
Идентификатор : 1
Формат : AVC
Формат/Информация : Advanced Video Codec
Профиль формата : High@L4
Параметр CABAC формата : Да
Параметр ReFrames формата : 1 кадр
Идентификатор кодека : avc1
Идентификатор кодека/Информация : Advanced Video Coding
Продолжительность : 2 м. 36 с.
Битрейт : 3182 Кбит/сек
Максимальный битрейт : 17,2 Мбит/сек
Ширина : 1920 пикселей
Высота : 1080 пикселей
Соотношение сторон : 16:9
Режим частоты кадров : Постоянный
Частота кадров : 25,000 кадров/сек
Цветовое пространство : YUV
Субдискретизация насыщенности : 4:2:0
Битовая глубина : 8 бит
Тип развёртки : Прогрессивная
Бит/(Пиксели*Кадры) : 0.061
Размер потока : 59,3 Мбайт (96%)
Дата кодирования : UTC 1970-01-01 00:00:00
Дата пометки : UTC 2011-03-30 20:52:22

Аудио
Идентификатор : 2
Формат : AAC
Формат/Информация : Advanced Audio Codec
Профиль формата : LC
Идентификатор кодека : 40
Продолжительность : 2 м. 36 с.
Вид битрейта : Переменный
Битрейт : 128 Кбит/сек
Максимальный битрейт : 232 Кбит/сек
Каналы : 2 канала
Расположение каналов : Front: L R
Частота : 44,1 КГц
Частота кадров : 43,066 кадра/сек (1024 spf)
Метод сжатия : С потерями
Размер потока : 2,39 Мбайт (4%)
Заголовок : (C) 2007 Google Inc. v08.13.2007.
Дата кодирования : UTC 2011-03-30 20:52:21
Дата пометки : UTC 2011-03-30 20:52:22

Общее
Уникальный идентификатор : 184050968443978816995925145693291153465 (0x8A76ED592D245D5C98315080FFC60839)
Полное имя : H:MilleniumMillenium AllMillenium SexyMillenium Sexy 4 HDTV13 The Good The Bad - 030 .mkv
Формат : Matroska
Версия формата : Version 2
Размер файла : 47,2 Мбайт
Продолжительность : 3 м. 3 с.
Общий поток : 2164 Кбит/сек
Дата кодирования : UTC 2010-09-29 07:15:14
Программа кодирования : mkvmerge v2.9.8 ('C'est le bon') built on Aug 13 2009 12:49:06
Библиотека кодирования : libebml v0.7.7 + libmatroska v0.8.1

Видео
Идентификатор : 1
Формат : AVC
Формат/Информация : Advanced Video Codec
Профиль формата : High@L3.1
Параметр CABAC формата : Да
Параметр ReFrames формата : 4 кадра
Идентификатор кодека : V_MPEG4/ISO/AVC
Продолжительность : 3 м. 3 с.
Ширина : 1280 пикселей
Высота : 720 пикселей
Соотношение сторон : 16:9
Режим частоты кадров : Постоянный
Частота кадров : 25,000 кадров/сек
Цветовое пространство : YUV
Субдискретизация насыщенности : 4:2:0
Битовая глубина : 8 бит
Тип развёртки : Прогрессивная
Библиотека кодирования : Vimeo Encoder
Default : Да
Forced : Нет

Аудио
Идентификатор : 2
Формат : AAC
Формат/Информация : Advanced Audio Codec
Профиль формата : LC
Идентификатор кодека : A_AAC
Продолжительность : 3 м. 3 с.
Каналы : 2 канала
Расположение каналов : Front: L R
Частота : 44,1 КГц
Частота кадров : 43,066 кадра/сек (1024 spf)
Метод сжатия : С потерями
Default : Да
Forced : Нет

Общее
Полное имя : H:MilleniumMillenium AllMillenium SexyMillenium Sexy 4 HDTV14 Scissor Sisters - Invisible Light.mp4
Формат : MPEG-4
Профиль формата : Base Media / Version 2
Идентификатор кодека : mp42 (isom/mp42)
Размер файла : 69,5 Мбайт
Продолжительность : 4 м. 5 с.
Режим общего битрейта : Переменный
Общий поток : 2370 Кбит/сек
Дата кодирования : UTC 2010-12-12 18:29:43
Дата пометки : UTC 2010-12-12 18:29:43
gsst : 0
gstd : 245880
gssd : BADC20502HH1292494984621876
gshh : r18.lhr14s07.c.youtube.com

Видео
Идентификатор : 1
Формат : AVC
Формат/Информация : Advanced Video Codec
Профиль формата : High@L3.1
Параметр CABAC формата : Да
Параметр ReFrames формата : 1 кадр
Идентификатор кодека : avc1
Идентификатор кодека/Информация : Advanced Video Coding
Продолжительность : 4 м. 5 с.
Битрейт : 2241 Кбит/сек
Максимальный битрейт : 10,1 Мбит/сек
Ширина : 1280 пикселей
Высота : 720 пикселей
Соотношение сторон : 16:9
Режим частоты кадров : Постоянный
Частота кадров : 25,000 кадров/сек
Цветовое пространство : YUV
Субдискретизация насыщенности : 4:2:0
Битовая глубина : 8 бит
Тип развёртки : Прогрессивная
Бит/(Пиксели*Кадры) : 0.097
Размер потока : 65,7 Мбайт (95%)
Дата кодирования : UTC 1970-01-01 00:00:00
Дата пометки : UTC 2010-12-12 18:29:47

Аудио
Идентификатор : 2
Формат : AAC
Формат/Информация : Advanced Audio Codec
Профиль формата : LC
Идентификатор кодека : 40
Продолжительность : 4 м. 5 с.
Вид битрейта : Переменный
Битрейт : 124 Кбит/сек
Максимальный битрейт : 208 Кбит/сек
Каналы : 2 канала
Расположение каналов : Front: L R
Частота : 44,1 КГц
Частота кадров : 43,066 кадра/сек (1024 spf)
Метод сжатия : С потерями
Размер потока : 3,63 Мбайт (5%)
Заголовок : (C) 2007 Google Inc. v08.13.2007.
Дата кодирования : UTC 2010-12-12 18:29:45
Дата пометки : UTC 2010-12-12 18:29:47

Общее
Полное имя : H:MilleniumMillenium AllMillenium SexyMillenium Sexy 4 HDTV15 ETHERNITY - Desires.mp4
Формат : MPEG-4
Профиль формата : Base Media / Version 2
Идентификатор кодека : mp42 (isom/mp42)
Размер файла : 173 Мбайт
Продолжительность : 3 м. 58 с.
Режим общего битрейта : Переменный
Общий поток : 6075 Кбит/сек
Дата кодирования : UTC 2011-11-24 13:20:41
Дата пометки : UTC 2011-11-24 13:20:41
gsst : 0
gstd : 238840
gssd : B4A7DDA03MH1329064619650569
gshh : v3.cache1.c.youtube.com

Видео
Идентификатор : 1
Формат : AVC
Формат/Информация : Advanced Video Codec
Профиль формата : High@L4
Параметр CABAC формата : Да
Параметр ReFrames формата : 1 кадр
Идентификатор кодека : avc1
Идентификатор кодека/Информация : Advanced Video Coding
Продолжительность : 3 м. 58 с.
Битрейт : 5921 Кбит/сек
Максимальный битрейт : 27,5 Мбит/сек
Ширина : 1920 пикселей
Высота : 1080 пикселей
Соотношение сторон : 16:9
Режим частоты кадров : Постоянный
Частота кадров : 25,000 кадров/сек
Цветовое пространство : YUV
Субдискретизация насыщенности : 4:2:0
Битовая глубина : 8 бит
Тип развёртки : Прогрессивная
Бит/(Пиксели*Кадры) : 0.114
Размер потока : 169 Мбайт (97%)
Дата кодирования : UTC 1970-01-01 00:00:00
Дата пометки : UTC 2011-11-24 13:20:41

Аудио
Идентификатор : 2
Формат : AAC
Формат/Информация : Advanced Audio Codec
Профиль формата : LC
Идентификатор кодека : 40
Продолжительность : 3 м. 58 с.
Вид битрейта : Переменный
Битрейт : 152 Кбит/сек
Максимальный битрейт : 226 Кбит/сек
Каналы : 2 канала
Расположение каналов : Front: L R
Частота : 44,1 КГц
Частота кадров : 43,066 кадра/сек (1024 spf)
Метод сжатия : С потерями
Размер потока : 4,33 Мбайт (3%)
Заголовок : IsoMedia File Produced by Google, 5-11-2011
Дата кодирования : UTC 2011-11-24 13:20:41
Дата пометки : UTC 2011-11-24 13:20:41

Общее
Полное имя : H:MilleniumMillenium AllMillenium SexyMillenium Sexy 4 HDTV16 TYSON - AFTER YOU'RE GONE.mp4
Формат : MPEG-4
Профиль формата : Base Media / Version 2
Идентификатор кодека : mp42 (isom/mp42)
Размер файла : 51,0 Мбайт
Продолжительность : 3 м. 48 с.
Режим общего битрейта : Переменный
Общий поток : 1875 Кбит/сек
Дата кодирования : UTC 2011-09-01 14:10:02
Дата пометки : UTC 2011-09-01 14:10:02
gsst : 0
gstd : 228268
gssd : B4A7DDA62MH1326075365294075
gshh : v2.cache4.c.youtube.com

Видео
Идентификатор : 1
Формат : AVC
Формат/Информация : Advanced Video Codec
Профиль формата : High@L4
Параметр CABAC формата : Да
Параметр ReFrames формата : 1 кадр
Параметр GOP формата : M=1, N=24
Идентификатор кодека : avc1
Идентификатор кодека/Информация : Advanced Video Coding
Продолжительность : 3 м. 48 с.
Битрейт : 1720 Кбит/сек
Максимальный битрейт : 4235 Кбит/сек
Ширина : 1920 пикселей
Высота : 1080 пикселей
Соотношение сторон : 16:9
Режим частоты кадров : Переменный
Частота кадров : 23,976 кадра/сек
Минимальная частота кадров : 23,810 кадра/сек
Максимальная частота кадров : 24,390 кадра/сек
Цветовое пространство : YUV
Субдискретизация насыщенности : 4:2:0
Битовая глубина : 8 бит
Тип развёртки : Прогрессивная
Бит/(Пиксели*Кадры) : 0.035
Размер потока : 46,8 Мбайт (92%)
Дата кодирования : UTC 1970-01-01 00:00:00
Дата пометки : UTC 2011-09-01 14:10:03

Аудио
Идентификатор : 2
Формат : AAC
Формат/Информация : Advanced Audio Codec
Профиль формата : LC
Идентификатор кодека : 40
Продолжительность : 3 м. 48 с.
Вид битрейта : Переменный
Битрейт : 149 Кбит/сек
Максимальный битрейт : 189 Кбит/сек
Каналы : 2 канала
Расположение каналов : Front: L R
Частота : 44,1 КГц
Частота кадров : 43,066 кадра/сек (1024 spf)
Метод сжатия : С потерями
Размер потока : 4,05 Мбайт (8%)
Заголовок : IsoMedia File Produced by Google, 5-11-2011
Дата кодирования : UTC 2011-09-01 14:10:02
Дата пометки : UTC 2011-09-01 14:10:03

Общее
Полное имя : H:MilleniumMillenium AllMillenium SexyMillenium Sexy 4 HDTV17 The Micronauts - Reaction .mp4
Формат : MPEG-4
Профиль формата : Base Media / Version 2
Идентификатор кодека : mp42 (isom/avc1/mp42)
Размер файла : 57,6 Мбайт
Продолжительность : 3 м. 55 с.
Режим общего битрейта : Переменный
Общий поток : 2055 Кбит/сек
Дата кодирования : UTC 2010-05-27 22:39:10
Дата пометки : UTC 2010-05-27 22:39:10
gsst : 0
gstd : 235798
gssd : B4A7DD805MM1330736422676538
gshh : r5.bru02t11.c.youtube.com

Видео
Идентификатор : 2
Формат : AVC
Формат/Информация : Advanced Video Codec
Профиль формата : High@L3.1
Параметр CABAC формата : Да
Параметр ReFrames формата : 1 кадр
Параметр GOP формата : M=1, N=30
Идентификатор кодека : avc1
Идентификатор кодека/Информация : Advanced Video Coding
Продолжительность : 3 м. 55 с.
Битрейт : 1927 Кбит/сек
Максимальный битрейт : 5443 Кбит/сек
Ширина : 1280 пикселей
Высота : 720 пикселей
Соотношение сторон : 16:9
Режим частоты кадров : Постоянный
Частота кадров : 25,000 кадров/сек
Цветовое пространство : YUV
Субдискретизация насыщенности : 4:2:0
Битовая глубина : 8 бит
Тип развёртки : Прогрессивная
Бит/(Пиксели*Кадры) : 0.084
Размер потока : 54,1 Мбайт (94%)
Заголовок : (C) 2007 Google Inc. v08.13.2007.
Дата кодирования : UTC 2010-05-27 22:39:10
Дата пометки : UTC 2010-05-27 22:39:11

Аудио
Идентификатор : 1
Формат : AAC
Формат/Информация : Advanced Audio Codec
Профиль формата : LC
Идентификатор кодека : 40
Продолжительность : 3 м. 55 с.
Вид битрейта : Переменный
Битрейт : 125 Кбит/сек
Максимальный битрейт : 165 Кбит/сек
Каналы : 2 канала
Расположение каналов : Front: L R
Частота : 44,1 КГц
Частота кадров : 43,066 кадра/сек (1024 spf)
Метод сжатия : С потерями
Размер потока : 3,52 Мбайт (6%)
Заголовок : (C) 2007 Google Inc. v08.13.2007.
Дата кодирования : UTC 2010-05-27 22:39:10
Дата пометки : UTC 2010-05-27 22:39:11

Общее
Полное имя : H:MilleniumMillenium AllMillenium SexyMillenium Sexy 4 HDTV18 Tina More - Touch Me.mp4
Формат : MPEG-4
Профиль формата : Base Media / Version 2
Идентификатор кодека : mp42 (isom/mp42)
Размер файла : 44,6 Мбайт
Продолжительность : 3 м. 1 с.
Режим общего битрейта : Переменный
Общий поток : 2065 Кбит/сек
Дата кодирования : UTC 2014-11-21 18:20:52
Дата пометки : UTC 2014-11-21 18:20:52
gsst : 0
gstd : 181370

Видео
Идентификатор : 1
Формат : AVC
Формат/Информация : Advanced Video Codec
Профиль формата : High@L3.1
Параметр CABAC формата : Да
Параметр ReFrames формата : 1 кадр
Идентификатор кодека : avc1
Идентификатор кодека/Информация : Advanced Video Coding
Продолжительность : 3 м. 1 с.
Битрейт : 1871 Кбит/сек
Максимальный битрейт : 2955 Кбит/сек
Ширина : 1280 пикселей
Высота : 720 пикселей
Соотношение сторон : 16:9
Режим частоты кадров : Постоянный
Частота кадров : 25,000 кадров/сек
Цветовое пространство : YUV
Субдискретизация насыщенности : 4:2:0
Битовая глубина : 8 бит
Тип развёртки : Прогрессивная
Бит/(Пиксели*Кадры) : 0.081
Размер потока : 40,4 Мбайт (91%)
Дата пометки : UTC 2014-11-21 18:20:55

Аудио
Идентификатор : 2
Формат : AAC
Формат/Информация : Advanced Audio Codec
Профиль формата : LC
Идентификатор кодека : 40
Продолжительность : 3 м. 1 с.
Вид битрейта : Переменный
Битрейт : 192 Кбит/сек
Максимальный битрейт : 202 Кбит/сек
Каналы : 2 канала
Расположение каналов : Front: L R
Частота : 44,1 КГц
Частота кадров : 43,066 кадра/сек (1024 spf)
Метод сжатия : С потерями
Размер потока : 4,15 Мбайт (9%)
Заголовок : IsoMedia File Produced by Google, 5-11-2011
Дата кодирования : UTC 2014-11-21 18:20:54
Дата пометки : UTC 2014-11-21 18:20:55

Общее
Полное имя : H:MilleniumMillenium AllMillenium SexyMillenium Sexy 4 HDTV19 Sasha Lopez feat Broono & Ale Blake - Weekend .mp4
Формат : MPEG-4
Профиль формата : Base Media / Version 2
Идентификатор кодека : mp42 (isom/mp42)
Размер файла : 163 Мбайт
Продолжительность : 3 м. 42 с.
Режим общего битрейта : Переменный
Общий поток : 6145 Кбит/сек
Дата кодирования : UTC 2011-10-02 21:22:55
Дата пометки : UTC 2011-10-02 21:22:55
gsst : 0
gstd : 222960
gssd : B4A7DA8C5HH1330705707480542
gshh : v17.nonxt2.c.youtube.com

Видео
Идентификатор : 1
Формат : AVC
Формат/Информация : Advanced Video Codec
Профиль формата : High@L4
Параметр CABAC формата : Да
Параметр ReFrames формата : 1 кадр
Идентификатор кодека : avc1
Идентификатор кодека/Информация : Advanced Video Coding
Продолжительность : 3 м. 42 с.
Битрейт : 5988 Кбит/сек
Максимальный битрейт : 13,9 Мбит/сек
Ширина : 1920 пикселей
Высота : 1080 пикселей
Соотношение сторон : 16:9
Режим частоты кадров : Постоянный
Частота кадров : 25,000 кадров/сек
Цветовое пространство : YUV
Субдискретизация насыщенности : 4:2:0
Битовая глубина : 8 бит
Тип развёртки : Прогрессивная
Бит/(Пиксели*Кадры) : 0.116
Размер потока : 159 Мбайт (97%)
Дата кодирования : UTC 1970-01-01 00:00:00
Дата пометки : UTC 2011-10-02 21:22:56

Аудио
Идентификатор : 2
Формат : AAC
Формат/Информация : Advanced Audio Codec
Профиль формата : LC
Идентификатор кодека : 40
Продолжительность : 3 м. 42 с.
Вид битрейта : Переменный
Битрейт : 152 Кбит/сек
Максимальный битрейт : 178 Кбит/сек
Каналы : 2 канала
Расположение каналов : Front: L R
Частота : 44,1 КГц
Частота кадров : 43,066 кадра/сек (1024 spf)
Метод сжатия : С потерями
Размер потока : 4,04 Мбайт (2%)
Заголовок : IsoMedia File Produced by Google, 5-11-2011
Дата кодирования : UTC 2011-10-02 21:22:56
Дата пометки : UTC 2011-10-02 21:22:56

Общее
Полное имя : H:MilleniumMillenium AllMillenium SexyMillenium Sexy 4 HDTV20 Sergio Mauri Feat. April Raquel - I Feel In The Air .mp4
Формат : MPEG-4
Профиль формата : Base Media / Version 2
Идентификатор кодека : mp42 (isom/mp42)
Размер файла : 70,4 Мбайт
Продолжительность : 3 м. 30 с.
Режим общего битрейта : Переменный
Общий поток : 2809 Кбит/сек
Дата кодирования : UTC 2010-12-13 16:56:39
Дата пометки : UTC 2010-12-13 16:56:39
gsst : 0
gstd : 210120
gssd : B4A7D6CA3MH1328950637448304
gshh : r11.bud01s04.c.youtube.com

Видео
Идентификатор : 1
Формат : AVC
Формат/Информация : Advanced Video Codec
Профиль формата : High@L3.1
Параметр CABAC формата : Да
Параметр ReFrames формата : 1 кадр
Идентификатор кодека : avc1
Идентификатор кодека/Информация : Advanced Video Coding
Продолжительность : 3 м. 30 с.
Битрейт : 2679 Кбит/сек
Максимальный битрейт : 6597 Кбит/сек
Ширина : 1280 пикселей
Высота : 720 пикселей
Соотношение сторон : 16:9
Режим частоты кадров : Постоянный
Частота кадров : 25,000 кадров/сек
Цветовое пространство : YUV
Субдискретизация насыщенности : 4:2:0
Битовая глубина : 8 бит
Тип развёртки : Прогрессивная
Бит/(Пиксели*Кадры) : 0.116
Размер потока : 67,1 Мбайт (95%)
Дата кодирования : UTC 1970-01-01 00:00:00
Дата пометки : UTC 2010-12-13 16:56:42

Аудио
Идентификатор : 2
Формат : AAC
Формат/Информация : Advanced Audio Codec
Профиль формата : LC
Идентификатор кодека : 40
Продолжительность : 3 м. 30 с.
Вид битрейта : Переменный
Битрейт : 125 Кбит/сек
Максимальный битрейт : 200 Кбит/сек
Каналы : 2 канала
Расположение каналов : Front: L R
Частота : 44,1 КГц
Частота кадров : 43,066 кадра/сек (1024 spf)
Метод сжатия : С потерями
Размер потока : 3,13 Мбайт (4%)
Заголовок : (C) 2007 Google Inc. v08.13.2007.
Дата кодирования : UTC 2010-12-13 16:56:41
Дата пометки : UTC 2010-12-13 16:56:42

Общее
Уникальный идентификатор : 230325044241935543244574034314927141101 (0xAD46FD6E550B71419C06ACAC35CDF0ED)
Полное имя : H:MilleniumMillenium AllMillenium SexyMillenium Sexy 4 HDTV21 Kerli - Army Of Love.mkv
Формат : Matroska
Версия формата : Version 4 / Version 2
Размер файла : 243 Мбайт
Продолжительность : 3 м. 58 с.
Общий поток : 8532 Кбит/сек
Дата кодирования : UTC 2016-05-13 12:55:14
Программа кодирования : mkvmerge v8.8.0 ('Wind at my back') 64bit
Библиотека кодирования : libebml v1.3.3 + libmatroska v1.4.4

Видео
Идентификатор : 1
Формат : AVC
Формат/Информация : Advanced Video Codec
Профиль формата : Main@L4.1
Параметр CABAC формата : Да
Параметр ReFrames формата : 3 кадра
Параметр GOP формата : M=4, N=25
Идентификатор кодека : V_MPEG4/ISO/AVC
Продолжительность : 3 м. 58 с.
Битрейт : 6994 Кбит/сек
Ширина : 1280 пикселей
Высота : 720 пикселей
Соотношение сторон : 16:9
Режим частоты кадров : Постоянный
Частота кадров : 25,000 кадров/сек
Стандарт вещания : PAL
Цветовое пространство : YUV
Субдискретизация насыщенности : 4:2:0
Битовая глубина : 8 бит
Тип развёртки : Прогрессивная
Бит/(Пиксели*Кадры) : 0.304
Размер потока : 199 Мбайт (82%)
Язык : English
Default : Да
Forced : Нет
Цветовой диапазон : Limited
Основные цвета : BT.709
Характеристики трансфера : BT.709
Коэффициенты матрицы : BT.709

Аудио
Идентификатор : 2
Формат : PCM
Идентификатор кодека : A_PCM/INT/LIT
Продолжительность : 3 м. 58 с.
Вид битрейта : Постоянный
Битрейт : 1536 Кбит/сек
Каналы : 2 канала
Частота : 48,0 КГц
Частота кадров : 2,083 кадра/сек (23044 spf)
Битовая глубина : 16 бит
Размер потока : 43,7 Мбайт (18%)
Default : Да
Forced : Нет

Общее
Полное имя : H:MilleniumMillenium AllMillenium SexyMillenium Sexy 4 HDTV22 Andra - Telephone.mp4
Формат : MPEG-4
Профиль формата : Base Media / Version 2
Идентификатор кодека : mp42 (isom/mp42)
Размер файла : 123 Мбайт
Продолжительность : 3 м. 32 с.
Режим общего битрейта : Переменный
Общий поток : 4853 Кбит/сек
Дата кодирования : UTC 2011-10-09 22:54:23
Дата пометки : UTC 2011-10-09 22:54:23
gsst : 0
gstd : 212720
gssd : B4A7D6CE4MH1327921746103186
gshh : o-o.preferred.bud01s03.v24.lscache8.c.youtube.com

Видео
Идентификатор : 1
Формат : AVC
Формат/Информация : Advanced Video Codec
Профиль формата : High@L4
Параметр CABAC формата : Да
Параметр ReFrames формата : 1 кадр
Идентификатор кодека : avc1
Идентификатор кодека/Информация : Advanced Video Coding
Продолжительность : 3 м. 32 с.
Битрейт : 4697 Кбит/сек
Максимальный битрейт : 7727 Кбит/сек
Ширина : 1920 пикселей
Высота : 1080 пикселей
Соотношение сторон : 16:9
Режим частоты кадров : Постоянный
Частота кадров : 25,000 кадров/сек
Цветовое пространство : YUV
Субдискретизация насыщенности : 4:2:0
Битовая глубина : 8 бит
Тип развёртки : Прогрессивная
Бит/(Пиксели*Кадры) : 0.091
Размер потока : 119 Мбайт (97%)
Дата кодирования : UTC 1970-01-01 00:00:00
Дата пометки : UTC 2011-10-09 22:54:25

Аудио
Идентификатор : 2
Формат : AAC
Формат/Информация : Advanced Audio Codec
Профиль формата : LC
Идентификатор кодека : 40
Продолжительность : 3 м. 32 с.
Вид битрейта : Переменный
Битрейт : 151 Кбит/сек
Максимальный битрейт : 249 Кбит/сек
Каналы : 2 канала
Расположение каналов : Front: L R
Частота : 44,1 КГц
Частота кадров : 43,066 кадра/сек (1024 spf)
Метод сжатия : С потерями
Размер потока : 3,84 Мбайт (3%)
Заголовок : IsoMedia File Produced by Google, 5-11-2011
Дата кодирования : UTC 2011-10-09 22:54:24
Дата пометки : UTC 2011-10-09 22:54:25

Общее
Уникальный идентификатор : 219626222024526204578524611960463675366 (0xA53A78C5108AD8049BB7DF57D1A3CFE6)
Полное имя : H:MilleniumMillenium AllMillenium SexyMillenium Sexy 4 HDTV23 King Fantastic - Why Where What.mkv
Формат : Matroska
Версия формата : Version 2
Размер файла : 66,6 Мбайт
Продолжительность : 4 м. 5 с.
Общий поток : 2274 Кбит/сек
Название фильма : Avidemux
Дата кодирования : UTC 2012-01-31 08:52:37
Программа кодирования : mkvmerge v5.0.1 ('Es ist Sommer') built on Nov 6 2011 16:23:40
Библиотека кодирования : libebml v1.2.2 + libmatroska v1.3.0

Видео
Идентификатор : 1
Формат : AVC
Формат/Информация : Advanced Video Codec
Профиль формата : High@L3.1
Параметр CABAC формата : Да
Параметр ReFrames формата : 4 кадра
Режим смешивания : Header stripping
Идентификатор кодека : V_MPEG4/ISO/AVC
Продолжительность : 4 м. 5 с.
Ширина : 1280 пикселей
Высота : 720 пикселей
Соотношение сторон : 16:9
Режим частоты кадров : Постоянный
Частота кадров : 23,976 (24000/1001) кадра/сек
Частота кадров в оригинале : 23,976 (23976/1000) кадра/сек
Цветовое пространство : YUV
Субдискретизация насыщенности : 4:2:0
Битовая глубина : 8 бит
Тип развёртки : Прогрессивная
Библиотека кодирования : Vimeo Encoder
Default : Да
Forced : Нет

Аудио
Идентификатор : 2
Формат : AAC
Формат/Информация : Advanced Audio Codec
Профиль формата : LC
Идентификатор кодека : A_AAC
Продолжительность : 4 м. 5 с.
Каналы : 2 канала
Расположение каналов : Front: L R
Частота : 44,1 КГц
Частота кадров : 43,066 кадра/сек (1024 spf)
Метод сжатия : С потерями
Задержка видео : -167 мс.
Default : Да
Forced : Нет

Общее
Полное имя : H:MilleniumMillenium AllMillenium SexyMillenium Sexy 4 HDTV24 Lady GaGa - Alejandro.mp4
Формат : MPEG-4
Профиль формата : Base Media / Version 2
Идентификатор кодека : mp42 (mp42/isom/avc1)
Размер файла : 337 Мбайт
Продолжительность : 8 м. 41 с.
Режим общего битрейта : Переменный
Общий поток : 5411 Кбит/сек
Программа кодирования : TMPGEnc Video Mastering Works 5 Version. 5.0.6.38

Видео
Идентификатор : 2
Формат : AVC
Формат/Информация : Advanced Video Codec
Профиль формата : High@L4
Параметр CABAC формата : Да
Параметр ReFrames формата : 3 кадра
Идентификатор кодека : avc1
Идентификатор кодека/Информация : Advanced Video Coding
Продолжительность : 8 м. 41 с.
Вид битрейта : Переменный
Битрейт : 5100 Кбит/сек
Максимальный битрейт : 8000 Кбит/сек
Ширина : 1920 пикселей
Высота : 1080 пикселей
Соотношение сторон : 16:9
Режим частоты кадров : Постоянный
Частота кадров : 23,976 (24000/1001) кадра/сек
Стандарт вещания : NTSC
Цветовое пространство : YUV
Субдискретизация насыщенности : 4:2:0
Битовая глубина : 8 бит
Тип развёртки : Прогрессивная
Бит/(Пиксели*Кадры) : 0.103
Размер потока : 317 Мбайт (94%)
Библиотека кодирования : x264 core 114
Настройки программы : cabac=1 / ref=3 / deblock=1:0:0 / analyse=0x3:0x133 / me=umh / subme=9 / psy=1 / psy_rd=1.00:0.00 / mixed_ref=1 / me_range=24 / chroma_me=1 / trellis=2 / 8x8dct=1 / cqm=2 / deadzone=21,11 / fast_pskip=1 / chroma_qp_offset=-4 / threads=12 / sliced_threads=0 / slices=1 / nr=0 / decimate=1 / interlaced=0 / constrained_intra=0 / bframes=3 / b_pyramid=0 / b_adapt=2 / b_bias=0 / direct=3 / weightb=1 / open_gop=0 / weightp=2 / keyint=250 / keyint_min=23 / scenecut=40 / intra_refresh=0 / rc_lookahead=60 / rc=2pass / mbtree=1 / bitrate=5100 / ratetol=1.0 / qcomp=0.60 / qpmin=5 / qpmax=69 / qpstep=4 / cplxblur=20.0 / qblur=0.5 / vbv_maxrate=8000 / vbv_bufsize=7995 / nal_hrd=vbr / ip_ratio=1.40 / aq=1:1.00
Цветовой диапазон : Limited
Основные цвета : BT.709
Характеристики трансфера : BT.709
Коэффициенты матрицы : BT.709

Аудио
Идентификатор : 1
Формат : AAC
Формат/Информация : Advanced Audio Codec
Профиль формата : LC
Идентификатор кодека : 40
Продолжительность : 8 м. 41 с.
Вид битрейта : Переменный
Битрейт : 320 Кбит/сек
Максимальный битрейт : 576 Кбит/сек
Каналы : 2 канала
Расположение каналов : Front: L R
Частота : 48,0 КГц
Частота кадров : 46,875 кадров/сек (1024 spf)
Метод сжатия : С потерями
Размер потока : 19,9 Мбайт (6%)

Общее
Полное имя : H:MilleniumMillenium AllMillenium SexyMillenium Sexy 4 HDTV25 Lloyd - Be The One ft. Trey Songz, Young Jeezy.mp4
Формат : MPEG-4
Профиль формата : Base Media / Version 2
Идентификатор кодека : mp42 (isom/mp42)
Размер файла : 90,6 Мбайт
Продолжительность : 4 м. 42 с.
Режим общего битрейта : Переменный
Общий поток : 2693 Кбит/сек
Дата кодирования : UTC 2011-12-18 21:47:54
Дата пометки : UTC 2011-12-18 21:47:54
gsst : 0
gstd : 282446
gssd : BD075F501HH1324389232285676
gshh : o-o.preferred.ams03g05.v9.lscache3.c.youtube.com

Видео
Идентификатор : 1
Формат : AVC
Формат/Информация : Advanced Video Codec
Профиль формата : High@L4
Параметр CABAC формата : Да
Параметр ReFrames формата : 1 кадр
Параметр GOP формата : M=1, N=24
Идентификатор кодека : avc1
Идентификатор кодека/Информация : Advanced Video Coding
Продолжительность : 4 м. 42 с.
Битрейт : 2543 Кбит/сек
Максимальный битрейт : 4117 Кбит/сек
Ширина : 1920 пикселей
Высота : 1080 пикселей
Соотношение сторон : 16:9
Режим частоты кадров : Постоянный
Частота кадров : 23,976 (24000/1001) кадра/сек
Цветовое пространство : YUV
Субдискретизация насыщенности : 4:2:0
Битовая глубина : 8 бит
Тип развёртки : Прогрессивная
Бит/(Пиксели*Кадры) : 0.051
Размер потока : 85,6 Мбайт (94%)
Дата кодирования : UTC 1970-01-01 00:00:00
Дата пометки : UTC 2011-12-18 21:47:54

Аудио
Идентификатор : 2
Формат : AAC
Формат/Информация : Advanced Audio Codec
Профиль формата : LC
Идентификатор кодека : 40
Продолжительность : 4 м. 42 с.
Вид битрейта : Переменный
Битрейт : 147 Кбит/сек
Максимальный битрейт : 185 Кбит/сек
Каналы : 2 канала
Расположение каналов : Front: L R
Частота : 44,1 КГц
Частота кадров : 43,066 кадра/сек (1024 spf)
Метод сжатия : С потерями
Размер потока : 4,95 Мбайт (5%)
Заголовок : IsoMedia File Produced by Google, 5-11-2011
Дата кодирования : UTC 2011-12-18 21:47:54
Дата пометки : UTC 2011-12-18 21:47:54

Общее
Полное имя : H:MilleniumMillenium AllMillenium SexyMillenium Sexy 4 HDTV26 Maverick Sabre - No One.mp4
Формат : MPEG-4
Профиль формата : Base Media / Version 2
Идентификатор кодека : mp42 (isom/mp42)
Размер файла : 160 Мбайт
Продолжительность : 3 м. 42 с.
Режим общего битрейта : Переменный
Общий поток : 6016 Кбит/сек
Дата кодирования : UTC 2012-01-22 19:04:39
Дата пометки : UTC 2012-01-22 19:04:39
gsst : 0
gstd : 222795
gssd : BADC21485MH1327507690241823
gshh : o-o.preferred.par08s05.v15.lscache2.c.youtube.com

Видео
Идентификатор : 1
Формат : AVC
Формат/Информация : Advanced Video Codec
Профиль формата : High@L4
Параметр CABAC формата : Да
Параметр ReFrames формата : 1 кадр
Идентификатор кодека : avc1
Идентификатор кодека/Информация : Advanced Video Coding
Продолжительность : 3 м. 42 с.
Битрейт : 5867 Кбит/сек
Максимальный битрейт : 10,7 Мбит/сек
Ширина : 1920 пикселей
Высота : 1080 пикселей
Соотношение сторон : 16:9
Режим частоты кадров : Постоянный
Частота кадров : 25,000 кадров/сек
Цветовое пространство : YUV
Субдискретизация насыщенности : 4:2:0
Битовая глубина : 8 бит
Тип развёртки : Прогрессивная
Бит/(Пиксели*Кадры) : 0.113
Размер потока : 156 Мбайт (98%)
Дата кодирования : UTC 1970-01-01 00:00:00
Дата пометки : UTC 2012-01-22 19:04:39

Аудио
Идентификатор : 2
Формат : AAC
Формат/Информация : Advanced Audio Codec
Профиль формата : LC
Идентификатор кодека : 40
Продолжительность : 3 м. 42 с.
Вид битрейта : Переменный
Битрейт : 147 Кбит/сек
Максимальный битрейт : 214 Кбит/сек
Каналы : 2 канала
Расположение каналов : Front: L R
Частота : 44,1 КГц
Частота кадров : 43,066 кадра/сек (1024 spf)
Метод сжатия : С потерями
Размер потока : 3,90 Мбайт (2%)
Заголовок : IsoMedia File Produced by Google, 5-11-2011
Дата кодирования : UTC 2012-01-22 19:04:39
Дата пометки : UTC 2012-01-22 19:04:39

Общее
Полное имя : H:MilleniumMillenium AllMillenium SexyMillenium Sexy 4 HDTV27 Pedro Cazanova - Selfish love (Аня Морячка).mp4
Формат : MPEG-4
Профиль формата : Base Media / Version 2
Идентификатор кодека : mp42 (isom/mp42)
Размер файла : 129 Мбайт
Продолжительность : 3 м. 35 с.
Режим общего битрейта : Переменный
Общий поток : 5025 Кбит/сек
Дата кодирования : UTC 2011-08-07 17:00:59
Дата пометки : UTC 2011-08-07 17:00:59
gsst : 0
gstd : 215798
gssd : BADC23205MH1330514030170381
gshh : o-o.preferred.ams03s15.v5.lscache2.c.youtube.com

Видео
Идентификатор : 1
Формат : AVC
Формат/Информация : Advanced Video Codec
Профиль формата : High@L4
Параметр CABAC формата : Да
Параметр ReFrames формата : 1 кадр
Параметр GOP формата : M=1, N=24
Идентификатор кодека : avc1
Идентификатор кодека/Информация : Advanced Video Coding
Продолжительность : 3 м. 35 с.
Битрейт : 4868 Кбит/сек
Максимальный битрейт : 9514 Кбит/сек
Ширина : 1920 пикселей
Высота : 1080 пикселей
Соотношение сторон : 16:9
Режим частоты кадров : Переменный
Частота кадров : 23,976 кадра/сек
Минимальная частота кадров : 23,810 кадра/сек
Максимальная частота кадров : 24,390 кадра/сек
Цветовое пространство : YUV
Субдискретизация насыщенности : 4:2:0
Битовая глубина : 8 бит
Тип развёртки : Прогрессивная
Бит/(Пиксели*Кадры) : 0.098
Размер потока : 125 Мбайт (97%)
Дата кодирования : UTC 1970-01-01 00:00:00
Дата пометки : UTC 2011-08-07 17:01:00

Аудио
Идентификатор : 2
Формат : AAC
Формат/Информация : Advanced Audio Codec
Профиль формата : LC
Идентификатор кодека : 40
Продолжительность : 3 м. 35 с.
Вид битрейта : Переменный
Битрейт : 152 Кбит/сек
Максимальный битрейт : 184 Кбит/сек
Каналы : 2 канала
Расположение каналов : Front: L R
Частота : 44,1 КГц
Частота кадров : 43,066 кадра/сек (1024 spf)
Метод сжатия : С потерями
Размер потока : 3,91 Мбайт (3%)
Заголовок : IsoMedia File Produced by Google, 5-11-2011
Дата кодирования : UTC 2011-08-07 17:00:59
Дата пометки : UTC 2011-08-07 17:01:00

Общее
Полное имя : H:MilleniumMillenium AllMillenium SexyMillenium Sexy 4 HDTV28 EbRu MusiQ - Conga.mp4
Формат : MPEG-4
Профиль формата : Base Media / Version 2
Идентификатор кодека : mp42 (isom/mp42)
Размер файла : 119 Мбайт
Продолжительность : 3 м. 37 с.
Режим общего битрейта : Переменный
Общий поток : 4579 Кбит/сек
Дата кодирования : UTC 2011-09-08 10:17:08
Дата пометки : UTC 2011-09-08 10:17:08
gsst : 0
gstd : 217150
gssd : B4A7D6362HH1315606183621215
gshh : o-o.preferred.fra02s03.v17.lscache7.c.youtube.com

Видео
Идентификатор : 1
Формат : AVC
Формат/Информация : Advanced Video Codec
Профиль формата : High@L4
Параметр CABAC формата : Да
Параметр ReFrames формата : 1 кадр
Идентификатор кодека : avc1
Идентификатор кодека/Информация : Advanced Video Coding
Продолжительность : 3 м. 37 с.
Битрейт : 4421 Кбит/сек
Максимальный битрейт : 9812 Кбит/сек
Ширина : 1920 пикселей
Высота : 1080 пикселей
Соотношение сторон : 16:9
Режим частоты кадров : Переменный
Частота кадров : 29,970 кадров/сек
Минимальная частота кадров : 29,412 кадров/сек
Максимальная частота кадров : 30,303 кадров/сек
Цветовое пространство : YUV
Субдискретизация насыщенности : 4:2:0
Битовая глубина : 8 бит
Тип развёртки : Прогрессивная
Бит/(Пиксели*Кадры) : 0.071
Размер потока : 114 Мбайт (97%)
Дата кодирования : UTC 1970-01-01 00:00:00
Дата пометки : UTC 2011-09-08 10:17:09

Аудио
Идентификатор : 2
Формат : AAC
Формат/Информация : Advanced Audio Codec
Профиль формата : LC
Идентификатор кодека : 40
Продолжительность : 3 м. 37 с.
Вид битрейта : Переменный
Битрейт : 151 Кбит/сек
Максимальный битрейт : 192 Кбит/сек
Каналы : 2 канала
Расположение каналов : Front: L R
Частота : 44,1 КГц
Частота кадров : 43,066 кадра/сек (1024 spf)
Метод сжатия : С потерями
Размер потока : 3,91 Мбайт (3%)
Заголовок : IsoMedia File Produced by Google, 5-11-2011
Дата кодирования : UTC 2011-09-08 10:17:09
Дата пометки : UTC 2011-09-08 10:17:09

Общее
Полное имя : H:MilleniumMillenium AllMillenium SexyMillenium Sexy 4 HDTV29 Hampenberg & Alexander Brown - Raise The Roof (feat. Pitbull, Fatman Scoop & Nabiha) .mp4
Формат : MPEG-4
Профиль формата : Base Media / Version 2
Идентификатор кодека : mp42 (isom/mp42)
Размер файла : 102 Мбайт
Продолжительность : 3 м. 57 с.
Режим общего битрейта : Переменный
Общий поток : 3602 Кбит/сек
Дата кодирования : UTC 2012-03-01 13:50:25
Дата пометки : UTC 2012-03-01 13:50:25
gsst : 0
gstd : 237330
gssd : BADC21283HH1330817312434647
gshh : o-o.preferred.fra02s05.v3.lscache2.c.youtube.com

Видео
Идентификатор : 1
Формат : AVC
Формат/Информация : Advanced Video Codec
Профиль формата : High@L4
Параметр CABAC формата : Да
Параметр ReFrames формата : 1 кадр
Параметр GOP формата : M=1, N=25
Идентификатор кодека : avc1
Идентификатор кодека/Информация : Advanced Video Coding
Продолжительность : 3 м. 57 с.
Битрейт : 3452 Кбит/сек
Максимальный битрейт : 5566 Кбит/сек
Ширина : 1920 пикселей
Высота : 1080 пикселей
Соотношение сторон : 16:9
Режим частоты кадров : Постоянный
Частота кадров : 25,000 кадров/сек
Цветовое пространство : YUV
Субдискретизация насыщенности : 4:2:0
Битовая глубина : 8 бит
Тип развёртки : Прогрессивная
Бит/(Пиксели*Кадры) : 0.067
Размер потока : 97,7 Мбайт (96%)
Дата кодирования : UTC 1970-01-01 00:00:00
Дата пометки : UTC 2012-03-01 13:50:25

Аудио
Идентификатор : 2
Формат : AAC
Формат/Информация : Advanced Audio Codec
Профиль формата : LC
Идентификатор кодека : 40
Продолжительность : 3 м. 57 с.
Вид битрейта : Переменный
Битрейт : 147 Кбит/сек
Максимальный битрейт : 232 Кбит/сек
Каналы : 2 канала
Расположение каналов : Front: L R
Частота : 44,1 КГц
Частота кадров : 43,066 кадра/сек (1024 spf)
Метод сжатия : С потерями
Размер потока : 4,16 Мбайт (4%)
Заголовок : IsoMedia File Produced by Google, 5-11-2011
Дата кодирования : UTC 2012-03-01 13:50:25
Дата пометки : UTC 2012-03-01 13:50:25

Общее
Полное имя : H:MilleniumMillenium AllMillenium SexyMillenium Sexy 4 HDTV30 Chat de Sexo para Iphone - Lanzamiento Sexole 2011.mp4
Формат : MPEG-4
Профиль формата : Base Media / Version 2
Идентификатор кодека : mp42 (isom/mp42)
Размер файла : 67,9 Мбайт
Продолжительность : 4 м. 4 с.
Режим общего битрейта : Переменный
Общий поток : 2333 Кбит/сек
Дата кодирования : UTC 2011-07-14 22:48:38
Дата пометки : UTC 2011-12-19 08:50:24
gsst : 0
gstd : 244280
gssd : B4A7DDAE4MH1323822309749437
gshh : v4.cache8.c.youtube.com

Видео
Идентификатор : 1
Формат : AVC
Формат/Информация : Advanced Video Codec
Профиль формата : High@L3.1
Параметр CABAC формата : Да
Параметр ReFrames формата : 1 кадр
Параметр GOP формата : M=1, N=30
Идентификатор кодека : avc1
Идентификатор кодека/Информация : Advanced Video Coding
Продолжительность : 4 м. 4 с.
Битрейт : 2177 Кбит/сек
Максимальный битрейт : 9061 Кбит/сек
Ширина : 1280 пикселей
Высота : 720 пикселей
Соотношение сторон : 16:9
Режим частоты кадров : Постоянный
Частота кадров : 25,000 кадров/сек
Цветовое пространство : YUV
Субдискретизация насыщенности : 4:2:0
Битовая глубина : 8 бит
Тип развёртки : Прогрессивная
Бит/(Пиксели*Кадры) : 0.094
Размер потока : 63,4 Мбайт (93%)
Дата кодирования : UTC 1970-01-01 00:00:00
Дата пометки : UTC 2011-07-14 22:48:39

Аудио
Идентификатор : 2
Формат : AAC
Формат/Информация : Advanced Audio Codec
Профиль формата : LC
Идентификатор кодека : 40
Продолжительность : 4 м. 4 с.
Вид битрейта : Переменный
Битрейт : 151 Кбит/сек
Максимальный битрейт : 209 Кбит/сек
Каналы : 2 канала
Расположение каналов : Front: L R
Частота : 44,1 КГц
Частота кадров : 43,066 кадра/сек (1024 spf)
Метод сжатия : С потерями
Размер потока : 4,40 Мбайт (6%)
Заголовок : IsoMedia File Produced by Google, 5-11-2011
Дата кодирования : UTC 2011-07-14 22:48:38
Дата пометки : UTC 2011-07-14 22:48:39

Общее
Уникальный идентификатор : 204513872113465924014132195111335512545 (0x99DBF06492284EC18FBE46FB662A49E1)
Полное и
Музыка / Клипы и Музыкальное видео / Сборники
СКАЧАТЬ БЕСПЛАТНО  [4.9 GB]


31
янв
2016

VA - Millenium Sexy 11 [2016, Pop, DVDRip]

Формат: DVDRip, MKV, H.264, DVD-AUDIO
Песня: Millenium Sexy 11
Жанр: Pop
Продолжительность: 03:20:36
Год выпуска: 2016
Видео: 720х576 (PAL), 720х480 (NTSC), 23,976, 25 fps, MPEG4 Video, MPEG4 Video (H264), 3200 - 7537 Кбит/сек, ~0.329 б/п
Аудио: 48000Hz, LPCM, MP-2, stereo, ~1536 kbps
Доп. информация: Треклист01 Wet Fingers - Hi Fi Superstar 02 John Parr vs. Tommyknockers - New Horizon 03 Atomik Harmonik - Turbo Polka 04 Blu Cantrell ft Sean Paul - Breathe 05 Armand van Helden Ft. Fat Joe & BL - Touch Your Toes 06 Commander Tom - Attention! 07 Chanelle Hayes - I Want It 08 Big Brothers - The P ...

28
ноя
2014

VA - Millenium Sexy 9 [2014, Pop, DVDRip]

Формат: DVDRip, MKV, H.264,LPCM
Песня: Millenium Sexy 9
Жанр: Pop
Продолжительность: 03:09:26
Год выпуска: 2014
Видео: 720х576(PAL), 720х480(NTSC), 25 fps, 29 fps ,MPEG4 Video (H264), ~3000 Кбит/сек,0.289 б/п
Аудио: 48000Hz, LPCM, stereo, 1536kbps
Доп. информация: Треклист01 Marta - Yeah, Yeah, Yeah 02 Paris Hilton - Stars Are Blind (Second Version) 02 Paris Hilton - Stars Are Blind 03 Conways feat Nick Straker Band - A Walk In The Park. 04 Brooklyn Bounce - Club Bizarre 05 Deepswing – In The Music 06 Rico Bernasconi & Beenie Man feat. Akon - Girls 07 Jennifer Lopez - Love Don't Cost A Thing ...

08
фев
2012

VA - Millenium Sexy 3 [2012, Pop , Dance, DVD9]

Формат: DVD9, DVD Video, MPEG2, LPCM
Песня: Millenium Sexy 3
Жанр: Pop, Dance
Продолжительность: 01:57:40
Год выпуска: 2012
Видео: 720x576 (PAL 16:9), 25.00fps , MPEG2 , 8000 kbps , 0.768 Bits/(Pixel*Frame)
Аудио: 48000Hz, stereo, 1536kbps, LPCM
Доп. информация: Треклист01 Narcotic Sound and Christian D - Danca Bonito 02 Blank And Jones feat Bobo - Perfect Silence 03 NikitA - Bite 04 David Deejay - Perfect 2 05 Dj.Sava feat Andreea D and Yolo - Money Maker 06 Klaas and Bodybangers - Freak 07 Dev - In The Dark 08 Outwork feat Mr. Gee - Elektro 09 Dj.Flower - Jamaican Love 10 Heaven fe ...

27
дек
2013

VA - Millenium Sexy 7 [2013, Pop, DVDRip]

Формат: DVDRip, MKV, H.264, LPCM
Песня: Millenium Sexy 7
Жанр: Pop
Продолжительность: 03:30:50
Год выпуска: 2013
Видео: 720х576(PAL), 720х480(NTSC), 25 fps, 29 fps ,MPEG4 Video (H264), ~3000 Кбит/сек,0.289 б/п
Аудио: 48000Hz, LPCM, stereo, 1536kbps
Доп. информация: Треклист01 Intenso Project ft. Lisa Scott Lee - Get It On (3:33) 02 Tata Golosa - La Pastilla (4:06) 03 Itaka feat. Manu Blanco - Como Dice El DJ (2:52) 04 DJ Sava feat. Connect - Sunshine (3:42) 05 No Name - I m Your DJ (3:35) 06 Steve Murano - Passion (3:27) 07 Uniting Nations feat. Laura More - Ai No Corrida (3:07) 08 Kevin & Pe ...

27
дек
2012

VA - Millenium Sexy 6 [2012, Pop, DVDRip]

Формат: DVDRip, MKV, H.264, LPCM
Песня: Millenium Sexy 6
Жанр: Pop
Продолжительность: 02:25:12
Год выпуска: 2012
Видео: 720х480 (NTSC), 29,970 fps, MPEG4 Video (H264), ~4000 Кбит/сек, 0.386 б/п
Аудио: 48000Hz, LPCM, stereo, 1536kbps
Доп. информация: Треклист01 The Wiseguys - Ooh La La 02 Enrique Iglesias - Bailamos 03 Armand van Helden - Into Your Eyes 04 Dj Elizabeth - Just Let Me Go 05 Hilary Duff - Reach Out 06 Chris Isaak - Baby Did A Bad Bad Thing 07 Jewel - Intuition 08 Alina - When You Leave 09 AlexUnder Base - Privacy 10 Robbie Rivera - Sex 11 2 Live Crew - Me So Horny 12 Michael Gray ...

26
дек
2012

VA - Millenium Sexy 6 [2012, Pop , Dance, DVD9]

Формат: DVD9, DVD Video, MPEG2, LPCM
Песня: Millenium Sexy 6
Жанр: Pop, Dance
Продолжительность: 02:25:12
Год выпуска: 2012
Видео: 720х480 (NTSC 4:3), 29,970 fps , MPEG2 , 5198 kbps ,0.502 Bits/(Pixel*Frame)
Аудио: 48000Hz, LPCM, stereo, 1536kbps
Доп. информация: Треклист01 The Wiseguys - Ooh La La 02 Enrique Iglesias - Bailamos 03 Armand van Helden - Into Your Eyes 04 Dj Elizabeth - Just Let Me Go 05 Hilary Duff - Reach Out 06 Chris Isaak - Baby Did A Bad Bad Thing 07 Jewel - Intuition 08 Alina - When You Leave 09 AlexUnder Base - Privacy 10 Robbie Rivera - Sex 11 2 Live Crew - Me So Horny 1 ...

04
янв
2015

VA - Millenium Sexy 10 [2015, Рор, HDTVRip]

Формат: HDTVRip, MKV, H.264, AAC
Песня: Millenium Sexy 10
Жанр: Рор
Продолжительность: 02:48:54
Год выпуска: 2015
Видео: 1920x1080 (16:9), 25.000 fps, AVC, 4.496 kbps avg, 0.87 bit.pixel
Аудио: 44.1 KHz, 2 ch, stereo, AAC, 144 - 152 Kbps avg
Доп. информация: Треклист01 Gisele & Bob Sinclar - Heart of Glass 02 Arash feat. T- Pain - Sex Love Rock N Roll 03 Kylie Minogue - Sexercize 03-Kylie Minogue - Sexercize (VFILES x Cody Critcheloe Version) 04 AutoErotique - Asphyxiation 05 Alexandra Stan - Dance 06 Cecy B - All I Do Is Werk 07 Beyoncé - Haunted 08 Nicki Minaj - Anaconda 09 Benny Benas ...

17
фев
2012

VA - Millenium Sexy 3 [2012, Pop , Dance, DVDRip]

Формат: DVDRip, MP4, H.264, AAC
Песня: Millenium Sexy 3
Жанр: Pop, Dance
Продолжительность: 01:57:40
Год выпуска: 2012
Видео: 720x576 (PAL 4:3), 25.00fps, H.264, 2 220 Kbps , 0.214 Bits/(Pixel*Frame)
Аудио: 48000Hz, AAC, stereo, 384 Kbps
Доп. информация: Треклист Раскрыть01 Narcotic Sound and Christian D - Danca Bonito 02 Blank And Jones feat Bobo - Perfect Silence 03 NikitA - Bite 04 David Deejay - Perfect 2 05 Dj.Sava feat Andreea D and Yolo - Money Maker 06 Klaas and Bodybangers - Freak 07 Dev - In The Dark 08 Outwork feat Mr. Gee - Elektro 09 Dj.Flower - Jamaican Love 10 Heaven feat Glance ...

14
мая
2012

VA - Millenium Sexy 5 [2012, Pop, DVDRip]

Формат: DVDRip, MPEG4, H.264, AAC
Песня: Millenium Sexy 5
Жанр: Pop
Продолжительность: 02:04:33
Год выпуска: 2012
Видео: MPEG4 Video (H264), 1280х720, 25.00fps, VBR, 4324 Кбит/сек, 0,194 б/п
Аудио: AAC, 48000Hz, stereo, 320kbps
Доп. информация: Треклист1 Despina Vandi - Opa Opa 02 Ozi - Juicy Pen 03 Dj.Jean - Every Single Day 04 Veronika Zemanova - The Model 05 Beyonce - Naughty Girl 06 Richard Gray - Warped Bass 07 Paul Van Dyk feat Jessica Sutta - White Lies 08 Ciara feat Justin Timberlake - Love Sex Magic 09 Armand Van Helden - NYC Beat 10 Junior Jack - E Samba 11 Zombie Nation - ...

18
июн
2015

VA - Millenium Sexy (Version 2) [2013, Pop, DVDRip]

Формат: DVDRip, MKV, H.264, PCM
Песня: Millenium Sexy (Version 2)
Жанр: Pop
Продолжительность: 02:58:07
Год выпуска: 2013
Видео: 720х576(PAL), 720х480(NTSC), 25 fps, 29 fps ,MPEG4 Video (H264), ~3000 Кбит/сек,0.289 б/п
Аудио: 48000Hz, LPCM, stereo, 1536kbps
Доп. информация: Треклист01 Pakito-Are U Ready 02 Benny Benassi feat The Biz-Satisfaction 02 Benny Benassi Pres. The Biz Satisfaction (Artistic Raw 2010 Edit) 03 Eric Prydz-Call On Me 04 Alex Gaudino feat Crystal Waters-Destination Calabria 05 Fedde Le Grand-Put Your Hands Up For Detroit 06 Benny Benass-Who's Your Daddy 07 Calanit-Do-Dee-D ...

22
июн
2013

VA - Millenium Sexy (Version 2) [2013, Pop, 2xDVD5]

Формат: 2xDVD5, DVD Video, MPEG2, LPCM
Песня: Millenium Sexy
Жанр: Pop
Продолжительность: 02:35:19
Год выпуска: 2013
Видео: 720x576 (PAL 16:9), 25.00fps , MPEG2 , 6 365 kbps ,0.614 Bits/(Pixel*Frame)
Аудио: 48000Hz, LPCM, 2ch stereo, 1536kbps
Доп. информация:
Треклист: DVD 1 - 0101 Pakito-Are.U.Ready 02 Benny Benassi feat The Biz-Satisfaction 03 Eric Prydz-Call On Me 04 Fedde Le Grand-Put Your Hands Up For Detroit 05 Benny Benass-Who's Your Daddy 06 Calanit-Do-Dee-Dee-Deem-Dum 07 Alex C. feat Yass-Doktorspiele 08 Sabrina-Boys 09 Hi-Tack-Say Say Say 10 Gunther feat Samanth Fox-Touch M ...

26
дек
2011

VA - Millenium Sexy - Сборник популярных видеоклипов [2011, Pop, DVDRip]

Формат: DVDRip, MP4, AVC, AAC
Песня: Сборник популярных видеоклипов
Жанр: Pop
Продолжительность: 02:47:52
Год выпуска: 2011
Видео: 720x576 16:9 , 25.00 fps , AVC, ~ 3 325 Kbps , 0.321 bit/pixel
Аудио: 48000Hz, stereo, AAC, 384 Kbps
Доп. информация: Tреклист01 Pakito-Are U Ready 02 Benny Benassi feat The Biz-Satisfaction 03 Eric Prydz-Call On Me 04 Alex Gaudino feat Crystal Waters-Destination Calabria 05 Fedde Le Grand-Put Your Hands Up For Detroit 06 Benny Benass-Who's Your Daddy 07 Calanit-Do-Dee-Dee-Deem-Dum 08 Alex C. feat. Yass-Doktorspiele 09 Anca-You Keep Me Hangin On 10 Sabrina-Boys 11 ...

28
дек
2011

VA - Millenium Sexy vol.2 - Сборник видеоклипов [2011, Pop, DVDRip]

Формат: DVDRip, MPEG4, H.264, AAC
Песня: Сборник видеоклипов
Жанр: Pop
Продолжительность: 02:10:05
Год выпуска: 2011
Видео: 720x576 16:9 , 25.00 fps , AVC, ~ 1 992 Kbps , 0.192 bit/pixel
Аудио: 48000Hz, stereo, AAC, 384 Kbps
Доп. информация: Треклист Раскрыть01 Dan Balan-Chica Bomb 02 DJ Magic vs Max Farenthide-Get Down 03 Sasha Lopez and Andreea D feat Broono-All My People 04 Stellar Project - Get Up, Stand Up 05 Selena Gomez and The Scene-Love You Like a Love Song 06 Britney Spears - Criminal.mpg 07 Benassi Bros - Every Single Day 08 Armand Van Helden feat Team Facelift - Shake That Ass 09 ...

01
дек
2011

Millenium Sexy - Сборник популярных видеоклипов [2011, Pop, DVD9]

Формат: DVD9, DVD Video, MPEG2, DVD-AUDIO
Песня: Сборник популярных видеоклипов
Жанр: Pop
Продолжительность: 02:27:37
Год выпуска: 2011
Видео: 1024х576 (PAL 16:9), 25 fps, MPEG-2, ~8000 kbps avg, 0.768 bit/pixel
Аудио: AC3 48000Hz 2ch 384kbps
Доп. информация: Треклист 01 Pakito-Are.U.Ready 02 Benny Benassi feat The Biz-Satisfaction 03 Eric Prydz-Call On Me 04 Alex Gaudino feat Crystal Waters-Destination Calabria 05 Fedde Le Grand-Put Your Hands Up For Detroit 06 Benny Benass-Who's Your Daddy 07 Calanit-Do-Dee-Dee-Deem-Dum 08 Alex C. feat. Yass-Doktorspiele 09 Anca-You Keep Me Hangin On 10 Sabr ...

28
июн
2015

VA - Millenium Sexy-2 (Version 2) [2013, Pop, DVDRip,HDTVRip ~ 1080p]

Формат: DVDRip, HDTVRip,MKV,H.264, WAV,AAC,DTS
Песня: Millenium Sexy 2 (Version 2)
Жанр: Pop
Продолжительность: 02:12:55
Год выпуска: 2013
Видео: 720х576(PAL), 720х480(NTSC),1280х720 ~ 1920x1080 (16:9), , 25 fps, 29 fps ,MPEG4 Video (H264), ~8811 Кбит/сек,~ 0.289 б/п
Аудио: ~ 48000Hz, LPCM , AAC , DTS , stereo, ~ 1536kbps
Доп. информация: Треклист01 Dan Balan-Chica Bomb 02 DJ Magic vs Max Farenthide-Get Down 03 Sasha Lopez and Andreea D feat Broono-All My People 04 Stellar Project - Get Up, Stand Up 05 Selena Gomez and The Scene-Love You Like a Love Song 06 Britney Spears - Criminal.mpg 07 Be ...