17
июл
2017

Обменяйтесь кольцами (Юлия Краснова) [2012, мелодрама, HDTVRip 720p]

Формат: HDTVRip 720p, MKV, H.264, AC3
Режиссер: Юлия Краснова
Жанр: мелодрама
Продолжительность: 01:35:00
Год выпуска: 2012

В ролях: Борис Щербаков, Елена Яковлева, Анастасия Стежко, Семён Трескунов, Ольга Волкова, Юрий Цурило, Марина Могилевская, Мария Мина, Сергей Краснов, Татьяна Аугшкап, Марина Николаева, Сергей Погосян, Александр Толмачёв, Василий Савинов

Описание: В жизни Арины чёрная полоса. Её отец ушёл к молодой любовнице и оставил семью без гроша, а с матери угрозами требует крупную сумму бывший работодатель. Девушка выбивается из сил на работе, но с зарплатой курьера о возврате долга не может быть и речи. Вконец отчаявшись, Арина решает забыть о своих светлых мечтах и спасти семью, торгуя своей красотой...

Рейтинг и доп. информация:


Видео: 1280x720 (16:9), 25 fps, AVC MPEG-4 (x264), High@L4.1 ~ 4070 kbps , 0.177 bit/pixel
Аудио: 48 kHz, MPEG Layer 2, 2 ch, ~192.00 kbps avg
MediaInfo
Общее
Уникальный идентификатор : 209140601128969887648780368458068586762 (0x9D5703BECD11BE32866EFAB31B98F10A)
Полное имя : C:Обменяйтесь кольцами HDTVRip_720p.mkv
Формат : Matroska
Версия формата : Version 2
Размер файла : 2,83 Гбайт
Продолжительность : 1 ч. 35 м.
Общий поток : 4262 Кбит/сек
Дата кодирования : UTC 2013-03-20 16:39:05
Программа кодирования : mkvmerge v4.9.1 ('Ich will') built on Sep 21 2011 17:48:11
Библиотека кодирования : libebml v1.2.1 + libmatroska v1.2.0

Видео
Идентификатор : 1
Формат : AVC
Формат/Информация : Advanced Video Codec
Профиль формата : High@L4.1
Параметр CABAC формата : Да
Параметр ReFrames формата : 10 кадров
Идентификатор кодека : V_MPEG4/ISO/AVC
Продолжительность : 1 ч. 35 м.
Битрейт : 4070 Кбит/сек
Ширина : 1280 пикселей
Высота : 720 пикселей
Соотношение сторон : 16:9
Режим частоты кадров : Постоянный
Частота кадров : 25,000 кадров/сек
Цветовое пространство : YUV
Субдискретизация насыщенности : 4:2:0
Битовая глубина : 8 бит
Тип развёртки : Прогрессивная
Бит/(Пиксели*Кадры) : 0.177
Размер потока : 2,65 Гбайт (94%)
Библиотека кодирования : x264 core 118 r2085 8a62835
Настройки программы : cabac=1 / ref=10 / deblock=1:-2:-2 / analyse=0x3:0x133 / me=umh / subme=9 / psy=1 / psy_rd=1.00:0.15 / mixed_ref=1 / me_range=32 / chroma_me=1 / trellis=2 / 8x8dct=1 / cqm=0 / deadzone=21,11 / fast_pskip=0 / chroma_qp_offset=-3 / threads=3 / sliced_threads=0 / nr=0 / decimate=1 / interlaced=0 / bluray_compat=0 / constrained_intra=0 / bframes=9 / b_pyramid=2 / b_adapt=2 / b_bias=0 / direct=3 / weightb=1 / open_gop=0 / weightp=2 / keyint=250 / keyint_min=25 / scenecut=40 / intra_refresh=0 / rc=2pass / mbtree=0 / bitrate=4070 / ratetol=1.0 / qcomp=0.60 / qpmin=0 / qpmax=69 / qpstep=4 / cplxblur=20.0 / qblur=0.5 / ip_ratio=1.40 / pb_ratio=1.30 / aq=2:0.70
Default : Да
Forced : Нет
Цветовой диапазон : Limited
Основные цвета : BT.601 PAL
Характеристики трансфера : BT.470 System B, BT.470 System G
Коэффициенты матрицы : BT.601

Аудио
Идентификатор : 2
Формат : MPEG Audio
Версия формата : Version 1
Профиль формата : Layer 2
Идентификатор кодека : A_MPEG/L2
Идентификатор кодека/Подсказка : MP2
Продолжительность : 1 ч. 35 м.
Вид битрейта : Постоянный
Битрейт : 192 Кбит/сек
Каналы : 2 канала
Частота : 48,0 КГц
Метод сжатия : С потерями
Размер потока : 131 Мбайт (5%)
Default : Да
Forced : Нет
Видео / Наше кино / Драмы / Мелодрамы
СКАЧАТЬ БЕСПЛАТНО  [2.8 GB]

20
июл
2017
Наталья, г. Москва
Легкий жизненный фильмец! Смотрите!

цитировать | ответить
20-07-2017 10:48:27


22
сен
2012

Обменяйтесь кольцами (Юлия Краснова) [2012, мелодрама, HDTVRip]

Формат: HDTVRip, AVI, XviD, MP3
Режиссер: Юлия Краснова
Жанр: мелодрама
Продолжительность: 01:34:24
Год выпуска: 2012
В ролях: Анастасия Стежко, Елена Яковлева, Борис Щербаков, Юрий Цурило, Мария Мина, Ольга Волкова, Татьяна Аугшкап, Семен Трескунов, Марина Могилевская, Иван Егоров, Александра Назарова
Описание: В жизни Арины чёрная полоса. Её отец ушёл к молодой любовнице и оставил семью без гроша, а с матери угрозами требует крупную сумму бывший работодатель. Девушка выбивается из сил на работе, но с зарплатой курьера о возврате долга не может быть и речи. Вконец отчаявшись, Арина решает ...

25
мар
2013

Обменяйтесь кольцами (Юлия Краснова) [2012, мелодрама, драма, HDTVRip]

Формат: HDTVRip, AVI, XviD, AC3
Режиссер: Юлия Краснова
Жанр: мелодрама, драма
Продолжительность: 01:35:02
Год выпуска: 2012
В ролях: Анастасия Стежко, Елена Яковлева, Борис Щербаков, Юрий Цурило, Мария Мина, Ольга Волкова, Татьяна Аугшкап, Семен Трескунов, Марина Могилевская
Описание: В жизни Арины чёрная полоса. Её отец ушёл к молодой любовнице и оставил семью без гроша, а с матери угрозами требует крупную сумму бывший работодатель. Девушка выбивается из сил на работе, но с зарплатой курьера о возврате долга не может быть и речи. Вконец отчаявшись, Арина решает забыть о своих светлых мечта ...